<?xml version="1.0" standalone="no"?>
<!DOCTYPE svg PUBLIC "-//W3C//DTD SVG 1.1//EN" "http://www.w3.org/Graphics/SVG/1.1/DTD/svg11.dtd" >
<svg xmlns="http://www.w3.org/2000/svg" xmlns:xlink="http://www.w3.org/1999/xlink" version="1.1">
<metadata>
Created by FontForge 20141024 at Wed Feb 11 16:07:57 2015
 By System Administrator
Copyright (c) 1981, 1982, 1983, 1989 and 1993, Linotype Library GmbH or its affiliated Linotype-Hell companies. All rights reserved.

The digitally encoded machine readable software for producing the Typefaces licensed to you is now the property of Heidelberger Druckmaschinen AG and its licensors, and may not be reproduced, used, displayed, modified, disclosed or transferred without the express written approval of Heidelberger Druckmaschinen AG.

Copyright (c) 1988, 1990, 1993 Adobe Systems Incorporated. All Rights Reserved.
</metadata>
<defs>
<font id="HelveticaNeue-UltraLight" horiz-adv-x="500" >
  <font-face 
    font-family="Helvetica Neue"
    font-weight="100"
    font-stretch="normal"
    units-per-em="1000"
    panose-1="2 0 2 6 0 0 0 2 0 4"
    ascent="800"
    descent="-200"
    x-height="514"
    cap-height="714"
    bbox="-433 -351 1253 1131"
    underline-thickness="50"
    underline-position="-75"
    unicode-range="U+0008-FE48"
  />
<missing-glyph 
d="M442 8h-384v496h384v-496zM50 512v-512h400v512h-400z" />
    <glyph glyph-name="fi" unicode="fi" horiz-adv-x="333" 
d="M0 494h87v-494h20v494h111v20h-111v107q0 38 14.5 55.5t62.5 17.5q11 0 22 -1t25 -3v20q-8 1 -18.5 2.5t-24.5 1.5q-16 0 -34 -2t-33 -10.5t-24.5 -25.5t-9.5 -48v-114h-87v-20zM278 613v101h-20v-101h20zM278 0v514h-20v-514h20z" />
    <glyph glyph-name="fl" unicode="fl" horiz-adv-x="333" 
d="M278 0v714h-20v-714h20zM0 494h87v-494h20v494h111v20h-111v107q0 38 14.5 55.5t62.5 17.5q11 0 22 -1t25 -3v20q-8 1 -18.5 2.5t-24.5 1.5q-16 0 -34 -2t-33 -10.5t-24.5 -25.5t-9.5 -48v-114h-87v-20z" />
    <glyph glyph-name=".notdef" 
d="M442 8h-384v496h384v-496zM50 512v-512h400v512h-400z" />
    <glyph glyph-name=".null" horiz-adv-x="0" 
 />
    <glyph glyph-name="uniE001" horiz-adv-x="278" 
 />
    <glyph glyph-name="space" unicode=" " horiz-adv-x="278" 
 />
    <glyph glyph-name="controlBS" horiz-adv-x="0" 
 />
    <glyph glyph-name="controlHT" unicode="&#x9;" horiz-adv-x="278" 
 />
    <glyph glyph-name="controlCR" unicode="&#xd;" horiz-adv-x="278" 
 />
    <glyph glyph-name="controlGS" horiz-adv-x="0" 
 />
    <glyph glyph-name="exclam" unicode="!" horiz-adv-x="185" 
d="M83 182h20v532h-20v-532zM83 0h20v98h-20v-98z" />
    <glyph glyph-name="quotedbl" unicode="&#x22;" horiz-adv-x="278" 
d="M205 489v225h-20v-225h20zM93 489v225h-20v-225h20z" />
    <glyph glyph-name="numbersign" unicode="#" horiz-adv-x="556" 
d="M185 249l24 177h171l-24 -177h-171zM245 680h-20l-31 -234h-131v-20h126l-24 -177h-130v-20h125l-31 -229h20l31 229h172l-31 -229h20l31 229h121v20h-117l24 177h121v20h-116l31 234h-20l-31 -234h-171z" />
    <glyph glyph-name="dollar" unicode="$" horiz-adv-x="556" 
d="M285 3v352q40 -9 81 -19t74.5 -28.5t55 -49.5t21.5 -82q0 -46 -20.5 -79t-53.5 -54t-74.5 -30.5t-83.5 -9.5zM26 237h-20q-1 -65 18 -111.5t53.5 -77.5t82.5 -46t105 -17v-89h20v88q46 0 91 10.5t81 34t58 59.5t22 87q0 56 -19.5 89t-52.5 53t-77.5 32t-94.5 25l-8 2v334
q46 -1 85 -12t68 -34.5t46 -60t19 -89.5h20q-3 58 -21.5 98.5t-50 66t-74 38t-92.5 13.5v44h-20v-43q-42 0 -84.5 -9t-76.5 -30.5t-55.5 -57t-21.5 -87.5t21 -84t55 -51.5t76.5 -30.5t85.5 -21v-356q-53 2 -97 15.5t-75.5 41.5t-49 71.5t-17.5 104.5zM265 711v-330
q-42 9 -81.5 19.5t-70 28t-48.5 45.5t-18 73q0 47 20 78.5t51.5 50.5t70.5 27t76 8z" />
    <glyph glyph-name="percent" unicode="%" horiz-adv-x="685" 
d="M564 714l-476 -747h23l476 747h-23zM357 157q0 -33 9 -63.5t27.5 -54t47.5 -37t68 -13.5q38 0 66.5 13.5t48.5 36.5t30 53.5t10 65.5q0 75 -39.5 123.5t-115.5 48.5q-36 0 -64.5 -13t-48 -36t-29.5 -54.5t-10 -69.5zM41 519q0 66 31.5 109.5t100.5 43.5t102 -42t33 -111
q0 -30 -8.5 -57t-25.5 -47.5t-42.5 -32.5t-58.5 -12t-58 12t-41.5 32t-24.5 47.5t-8 57.5zM21 519q0 -33 9 -63.5t27.5 -54t47.5 -37.5t68 -14q38 0 66.5 13.5t48.5 37t30 54.5t10 65q0 75 -39.5 123.5t-115.5 48.5q-36 0 -64.5 -13t-48 -36t-29.5 -54.5t-10 -69.5zM377 157
q0 66 31.5 109.5t100.5 43.5t102 -42t33 -111q0 -30 -8.5 -57t-25.5 -47.5t-42.5 -32.5t-58.5 -12t-58 12t-41.5 32t-24.5 47.5t-8 57.5z" />
    <glyph glyph-name="ampersand" unicode="&#x26;" horiz-adv-x="574" 
d="M572 0l-105 133q15 34 23 66.5t7 77.5h-20q2 -40 -6 -72t-18 -54l-188 238q24 18 52 37t51 41.5t38.5 50t15.5 63.5q0 32 -11.5 56.5t-31.5 41.5t-46.5 26t-56.5 9q-27 0 -53 -8t-46.5 -24t-33.5 -41t-13 -60q0 -25 11 -49.5t27.5 -48t34.5 -46t33 -43.5
q-32 -20 -66 -42.5t-62 -50.5t-46 -62.5t-18 -78.5q0 -42 18 -74.5t46.5 -55t65.5 -34.5t74 -12q76 0 127.5 37t81.5 92l89 -113h26zM248 378l196 -246q-28 -57 -76 -93t-120 -36q-34 0 -67.5 10t-59 30t-41.5 49.5t-16 67.5q0 42 17.5 74t44.5 57.5t59.5 46.5t62.5 40z
M150 583q0 26 10 46.5t27.5 35t40.5 22t49 7.5q25 0 47.5 -8t40 -22.5t27.5 -35.5t10 -47q0 -31 -15.5 -57t-38 -47.5t-48.5 -39.5t-47 -33q-27 35 -46.5 61t-32 46.5t-18.5 37.5t-6 34z" />
    <glyph glyph-name="quotesingle" unicode="'" horiz-adv-x="167" 
d="M74 714v-225h20v225h-20z" />
    <glyph glyph-name="parenleft" unicode="(" horiz-adv-x="222" 
d="M204 731h-20q-57 -103 -86.5 -217t-29.5 -232q0 -65 7.5 -123.5t22 -114t36.5 -109.5t51 -111h20q-58 106 -87.5 221.5t-29.5 236.5q0 118 29.5 232t86.5 217z" />
    <glyph glyph-name="parenright" unicode=")" horiz-adv-x="222" 
d="M18 -176h20q57 103 86.5 216.5t29.5 231.5q0 65 -7.5 123.5t-22 114t-36.5 110t-51 111.5h-20q58 -106 87.5 -222t29.5 -237q0 -118 -29.5 -231.5t-86.5 -216.5z" />
    <glyph glyph-name="asterisk" unicode="*" horiz-adv-x="352" 
d="M184 714h-20v-140l-126 43l-6 -19l130 -43l-88 -104l16 -13l84 104l83 -108l16 12l-83 109l130 43l-4 19l-132 -43v140z" />
    <glyph glyph-name="plus" unicode="+" horiz-adv-x="600" 
d="M290 506v-243h-242v-20h242v-243h20v243h242v20h-242v243h-20z" />
    <glyph glyph-name="comma" unicode="," horiz-adv-x="278" 
d="M149 98h-20v-98q0 -40 -5.5 -62.5t-18.5 -35.5v-20q25 17 34.5 45t9.5 73v98z" />
    <glyph glyph-name="hyphen" unicode="-" horiz-adv-x="333" 
d="M79 278v-20h175v20h-175z" />
    <glyph glyph-name="period" unicode="." horiz-adv-x="278" 
d="M149 0v98h-20v-98h20z" />
    <glyph glyph-name="slash" unicode="/" horiz-adv-x="333" 
d="M-6 -16h19l327 747h-20z" />
    <glyph glyph-name="zero" unicode="0" horiz-adv-x="556" 
d="M535 340q0 64 -12.5 127t-42.5 113t-79 81t-123 31q-73 0 -122.5 -31t-79.5 -81t-42.5 -113t-12.5 -127t12.5 -127t42.5 -113t79.5 -80.5t122.5 -30.5q74 0 123 30.5t79 80.5t42.5 113t12.5 127zM515 340q0 -57 -11 -116t-38 -107t-72.5 -78.5t-115.5 -30.5t-115.5 30.5
t-72.5 78.5t-38 107t-11 116t11 116t38 107t72.5 78.5t115.5 30.5t115.5 -30.5t72.5 -78.5t38 -107t11 -116z" />
    <glyph glyph-name="one" unicode="1" horiz-adv-x="556" 
d="M298 654v-654h20v680h-22q-21 -24 -40.5 -43t-40.5 -34t-45 -27t-55 -22v-20q51 14 100.5 45.5t80.5 74.5h2z" />
    <glyph glyph-name="two" unicode="2" horiz-adv-x="556" 
d="M513 20h-438q4 44 37 81.5t79.5 73t99.5 71t98.5 75.5t75.5 86t30 102q0 46 -16.5 80t-44.5 57t-66 34.5t-82 11.5q-109 0 -163.5 -61.5t-55.5 -173.5h20q0 47 11 86.5t35 68t62 44.5t91 16q41 0 75.5 -10.5t59.5 -31t39.5 -51t14.5 -70.5t-17.5 -74.5t-46.5 -65
t-66 -58.5t-76 -55q-38 -27 -76.5 -54.5t-69.5 -58t-50 -65.5t-18 -78h458v20z" />
    <glyph glyph-name="three" unicode="3" horiz-adv-x="556" 
d="M59 469h20q-1 51 13.5 89t42.5 63.5t67.5 38t88.5 12.5q36 0 70 -7.5t61 -25t44 -45.5t18 -69q0 -42 -16 -70.5t-42 -46t-58.5 -25t-65.5 -7.5h-49v-20h49q42 -2 77.5 -12t62 -30t41 -51t14.5 -75t-17.5 -77.5t-46.5 -56.5t-67 -34.5t-79 -11.5q-53 0 -97 14.5t-74 42.5
t-45 69.5t-11 95.5h-20q-4 -58 12.5 -103t49.5 -75.5t80 -46.5t105 -16q47 0 88.5 13t73 38.5t50 62.5t18.5 85q0 44 -13.5 76t-36 53.5t-51 33t-58.5 14.5v2q63 6 104.5 46t41.5 112q0 45 -18 77t-48 52t-68 29t-79 9q-53 0 -96.5 -14t-74 -42t-46.5 -69.5t-15 -97.5z" />
    <glyph glyph-name="four" unicode="4" horiz-adv-x="556" 
d="M34 177h345v-177h20v177h123v20h-123v483h-25l-340 -479v-24zM379 652v-455h-325l323 455h2z" />
    <glyph glyph-name="five" unicode="5" horiz-adv-x="556" 
d="M147 660h333v20h-349l-73 -343h25q28 51 79 77.5t111 26.5q48 0 88 -16t68 -44.5t43.5 -68t15.5 -86.5q0 -49 -15 -89.5t-43 -69t-67.5 -44t-89.5 -15.5q-49 0 -90 14t-69.5 41t-43.5 66t-13 89h-20q-2 -55 15 -97.5t48.5 -71.5t76 -44.5t96.5 -15.5q53 0 96 16.5
t74 47.5t48 75t17 98q0 51 -17 94.5t-48 74.5t-74 48.5t-96 17.5q-60 0 -108.5 -22t-77.5 -70h-2z" />
    <glyph glyph-name="six" unicode="6" horiz-adv-x="556" 
d="M485 520h20q-5 36 -22 67.5t-44 54.5t-63.5 36.5t-80.5 13.5q-75 0 -124 -34t-78.5 -88t-41.5 -120t-12 -129q0 -66 8 -123.5t37 -102.5q13 -20 32.5 -39t44.5 -34t55.5 -24t65.5 -9q47 0 89.5 17.5t75 48.5t51.5 74t19 94q0 53 -20 96t-53 74t-75.5 48t-86.5 17
q-40 0 -77.5 -13t-67 -36.5t-50 -54.5t-27.5 -67h-2q-1 59 7 126t33.5 125t72.5 96t123 38q26 0 55 -6.5t56 -23.5t48.5 -46.5t31.5 -75.5zM497 223q0 -45 -17 -84t-46 -68t-68 -46t-84 -17t-84 17t-68 46t-46 68t-17 84t17 84t46 68t68 46t84 17t84 -17t68 -46t46 -68
t17 -84z" />
    <glyph glyph-name="seven" unicode="7" horiz-adv-x="556" 
d="M61 660h412q-69 -69 -125.5 -143t-97 -155.5t-62 -171.5t-20.5 -190h20q0 102 22 190.5t62 168t97 152.5t126 142v27h-434v-20z" />
    <glyph glyph-name="eight" unicode="8" horiz-adv-x="556" 
d="M471 520q0 -36 -17.5 -62.5t-45 -43t-62 -24.5t-68.5 -8t-68.5 8t-62 24.5t-45 43t-17.5 62.5q0 44 16.5 73t43.5 46.5t61.5 25t71.5 7.5t71.5 -7.5t61.5 -25t43.5 -46.5t16.5 -73zM351 373v2q29 4 54.5 16.5t44.5 31t30 43.5t11 54q0 46 -16.5 78.5t-45.5 53.5t-68 30.5
t-83 9.5t-83 -9.5t-68 -30.5t-45.5 -53.5t-16.5 -78.5q0 -29 11 -54t30 -43.5t44.5 -31t54.5 -16.5v-2q-81 -8 -127.5 -56.5t-46.5 -126.5q0 -53 20 -91t53.5 -62.5t78.5 -36t95 -11.5t95 11.5t78.5 36t53.5 62.5t20 91q0 78 -46.5 126.5t-127.5 56.5zM505 190
q0 -49 -18.5 -83.5t-50 -56.5t-72.5 -32t-86 -10t-86 10t-72.5 32t-50 56.5t-18.5 83.5t19 82t50.5 53t72.5 28.5t85 8.5t85 -8.5t72.5 -28.5t50.5 -53t19 -82z" />
    <glyph glyph-name="nine" unicode="9" horiz-adv-x="556" 
d="M489 457q0 -45 -17 -84t-46 -68t-68 -46t-84 -17t-84 17t-68 46t-46 68t-17 84t17 84t46 68t68 46t84 17t84 -17t68 -46t46 -68t17 -84zM71 160h-20q5 -36 22 -67.5t44 -54.5t63.5 -36t80.5 -13q75 0 124.5 34t79 87.5t41.5 119t12 129.5q0 66 -8 123.5t-38 102.5
q-13 20 -32.5 39t-44.5 34t-55.5 24.5t-65.5 9.5q-47 0 -89.5 -17.5t-75 -49t-51.5 -74.5t-19 -94q0 -52 20 -95.5t53 -74.5t75.5 -48t86.5 -17q41 0 78 13t66.5 36.5t49.5 54.5t28 67h2q1 -39 -2 -82.5t-12.5 -86.5t-26 -82t-43 -69t-64 -47.5t-88.5 -17.5q-25 0 -54.5 6.5
t-56.5 23.5t-48.5 46.5t-31.5 75.5z" />
    <glyph glyph-name="colon" unicode=":" horiz-adv-x="278" 
d="M129 416h20v98h-20v-98zM129 0h20v98h-20v-98z" />
    <glyph glyph-name="semicolon" unicode=";" horiz-adv-x="278" 
d="M129 416h20v98h-20v-98zM149 0v98h-20v-98q0 -40 -5.5 -62.5t-18.5 -35.5v-20q25 17 34.5 45t9.5 73z" />
    <glyph glyph-name="less" unicode="&#x3c;" horiz-adv-x="600" 
d="M554 -7v20l-490 240l490 240v21l-508 -249v-24z" />
    <glyph glyph-name="equal" unicode="=" horiz-adv-x="600" 
d="M48 146h504v20h-504v-20zM48 340h504v20h-504v-20z" />
    <glyph glyph-name="greater" unicode="&#x3e;" horiz-adv-x="600" 
d="M536 253l-490 -240v-20l508 248v24l-508 249v-21z" />
    <glyph glyph-name="question" unicode="?" 
d="M232 0h20v98h-20v-98zM35 493h20q-2 48 10 88.5t37 69t63 44.5t87 16q38 0 70.5 -9.5t56 -28t37 -46t13.5 -62.5q0 -38 -13 -67.5t-30.5 -50.5t-33.5 -34t-22 -19q-28 -27 -47 -51t-30 -48.5t-16 -51.5t-5 -61h20q0 36 5.5 63t17 49.5t30.5 44t46 47.5q12 11 29 26
t32.5 36.5t26 50t10.5 66.5q0 40 -15.5 71t-42 52t-62.5 32t-77 11q-52 0 -93.5 -17.5t-69.5 -49t-42 -75t-12 -96.5z" />
    <glyph glyph-name="at" unicode="@" horiz-adv-x="800" 
d="M594 547l-24 -66h-2q-13 40 -51 62.5t-86 22.5q-53 0 -97 -27.5t-75 -70.5t-48 -93.5t-17 -97.5q0 -30 10.5 -56.5t28.5 -46t43 -31t54 -11.5q35 0 71.5 12.5t64.5 50.5h2q-5 -28 12.5 -45.5t46.5 -17.5q36 0 74.5 22t70 60t51.5 88.5t20 108.5q0 69 -25.5 125t-69.5 95
t-103 60t-126 21q-74 0 -140 -27t-115.5 -75t-78 -113.5t-28.5 -143.5q0 -95 31.5 -164t82.5 -113.5t116 -65.5t132 -21q46 0 91.5 12.5t86.5 35.5t76 56t59 73h-23q-23 -33 -54 -62t-68.5 -50.5t-79.5 -33.5t-88 -12q-69 0 -131 22t-109 65.5t-74.5 108t-27.5 149.5
q0 71 26 132.5t72 107.5t108.5 72.5t135.5 26.5q65 0 121 -20.5t96.5 -57.5t63.5 -89t23 -114q0 -55 -19 -102.5t-47.5 -82t-62.5 -54.5t-65 -20q-20 0 -30 8.5t-12 23t3 34t14 41.5l111 288h-21zM559 456l-71 -184q-14 -36 -32.5 -59.5t-38.5 -37t-41.5 -18.5t-41.5 -5
q-26 0 -48 9.5t-38 26.5t-25 39.5t-9 49.5q0 42 15.5 89t43.5 87t67.5 66.5t86.5 26.5q19 0 39.5 -4.5t39 -15t32.5 -27.5t21 -43z" />
    <glyph glyph-name="A" unicode="A" horiz-adv-x="575" 
d="M106 235h364l94 -235h22l-282 714h-26l-289 -714h22zM462 255h-348l176 439h2z" />
    <glyph glyph-name="B" unicode="B" horiz-adv-x="611" 
d="M67 382v312h287q38 0 71 -9.5t57.5 -29t38.5 -49t14 -70.5q0 -38 -15 -67t-40 -48.5t-57.5 -29t-68.5 -9.5h-287zM47 714v-714h295q51 0 94.5 12.5t74.5 36.5t48.5 60.5t17.5 84.5q0 41 -14 73.5t-37.5 55t-55 35t-66.5 13.5v2q33 2 60.5 15.5t47.5 35.5t31.5 51t11.5 61
q0 45 -15.5 78t-43 55.5t-64 33.5t-78.5 11h-307zM67 20v342h287q38 0 74.5 -9t65 -29t46 -52t17.5 -79q0 -44 -16 -76.5t-43.5 -54t-65 -32t-81.5 -10.5h-284z" />
    <glyph glyph-name="C" unicode="C" horiz-adv-x="685" 
d="M662 280h-20q-8 -59 -31 -110t-60 -88t-88 -58t-115 -21q-72 0 -128.5 29t-95.5 77t-59 111t-20 131q0 56 16.5 119t53.5 116.5t97.5 89t148.5 35.5q58 0 105.5 -18.5t82 -48.5t54.5 -67.5t23 -76.5h20q-1 33 -19 73t-53.5 75.5t-88.5 59t-124 23.5q-91 0 -155 -35
t-104 -90t-58.5 -122.5t-18.5 -132.5q0 -80 24 -147.5t66.5 -116t102 -76t130.5 -27.5q68 0 122 22t93.5 61t64.5 93.5t34 119.5z" />
    <glyph glyph-name="D" unicode="D" horiz-adv-x="648" 
d="M74 20v674h225q54 0 105.5 -15t92.5 -53.5t66 -103.5t25 -165q0 -86 -24.5 -149.5t-67 -105t-99 -62t-119.5 -20.5h-204zM54 714v-714h219q65 0 125 20t107 62.5t75 110.5t28 164q0 105 -27.5 174t-71 109.5t-98 57t-107.5 16.5h-250z" />
    <glyph glyph-name="E" unicode="E" horiz-adv-x="537" 
d="M74 20v342h427v20h-427v312h454v20h-474v-714h478v20h-458z" />
    <glyph glyph-name="F" unicode="F" horiz-adv-x="481" 
d="M74 382v312h420v20h-440v-714h20v362h380v20h-380z" />
    <glyph glyph-name="G" unicode="G" horiz-adv-x="722" 
d="M377 314h277v-37q0 -59 -22 -109.5t-60.5 -87t-90.5 -57t-111 -20.5q-79 0 -138.5 28t-99.5 76t-60 112.5t-20 137.5t21 137.5t61.5 112.5t99 76t133.5 28q56 0 102.5 -15.5t82 -44.5t59 -69.5t32.5 -90.5h20q-9 55 -33.5 99t-63 75.5t-89 48.5t-110.5 17q-79 0 -141 -29
t-105 -79.5t-66 -119t-23 -146.5q0 -77 21.5 -145t63.5 -118.5t105 -80t145 -29.5q106 0 181 51t104 142h2v-177h20v334h-297v-20z" />
    <glyph glyph-name="H" unicode="H" horiz-adv-x="648" 
d="M74 362h500v-362h20v714h-20v-332h-500v332h-20v-714h20v362z" />
    <glyph glyph-name="I" unicode="I" horiz-adv-x="128" 
d="M54 714v-714h20v714h-20z" />
    <glyph glyph-name="J" unicode="J" horiz-adv-x="463" 
d="M384 714v-513q0 -56 -11.5 -94t-34 -61t-55 -33t-75.5 -10q-84 0 -127 43.5t-43 131.5v43h-20v-43q0 -42 10.5 -77.5t33.5 -61.5t59 -40.5t87 -14.5q54 0 91.5 14.5t60.5 41.5t33.5 64t10.5 82v528h-20z" />
    <glyph glyph-name="K" unicode="K" horiz-adv-x="593" 
d="M74 253l164 145l354 -398h27l-365 410l345 304h-30l-495 -434v434h-20v-714h20v253z" />
    <glyph glyph-name="L" unicode="L" horiz-adv-x="481" 
d="M491 20h-417v694h-20v-714h437v20z" />
    <glyph glyph-name="M" unicode="M" horiz-adv-x="780" 
d="M693 714l-302 -688h-2l-302 688h-33v-714h20v689h2l303 -689h22l303 689h2v-689h20v714h-33z" />
    <glyph glyph-name="N" unicode="N" horiz-adv-x="648" 
d="M54 714v-714h20v689h2l488 -689h30v714h-20v-689h-2l-488 689h-30z" />
    <glyph glyph-name="O" unicode="O" horiz-adv-x="721" 
d="M32 357q0 76 21.5 144t63 119t103 81t141.5 30t141.5 -30t103 -81t63 -119t21.5 -144t-21.5 -144t-63 -119t-103 -80.5t-141.5 -29.5t-141.5 29.5t-103 80.5t-63 119t-21.5 144zM52 357q1 -77 22.5 -142t61 -112t96.5 -73.5t129 -26.5t129 26.5t96.5 73.5t61 112
t22.5 142q-1 77 -22.5 142t-61 112t-96.5 73.5t-129 26.5t-129 -26.5t-96.5 -73.5t-61 -112t-22.5 -142z" />
    <glyph glyph-name="P" unicode="P" horiz-adv-x="574" 
d="M74 0v325h259q50 0 91.5 12.5t71.5 37t47 61t17 83.5q0 97 -57 146t-160 49h-289v-714h20zM74 345v349h269q100 0 148.5 -45t48.5 -130q0 -42 -15 -74t-41.5 -54.5t-62.5 -34t-78 -11.5h-269z" />
    <glyph glyph-name="Q" unicode="Q" horiz-adv-x="721" 
d="M571 58l118 -79l10 14l-115 78q54 52 80 126.5t26 159.5q0 76 -21.5 144t-63 119t-103 81t-141.5 30t-141.5 -30t-103 -81t-63 -119t-21.5 -144t21.5 -144t63 -119t103 -80.5t141.5 -29.5q66 0 118 19.5t92 54.5zM427 156l126 -86q-38 -32 -86 -49.5t-106 -17.5
q-72 0 -129 26.5t-96.5 73.5t-61 112t-22.5 142q1 77 22.5 142t61 112t96.5 73.5t129 26.5t129 -26.5t96.5 -73.5t61 -112t22.5 -142q-1 -88 -27.5 -157t-75.5 -117l-129 89z" />
    <glyph glyph-name="R" unicode="R" horiz-adv-x="611" 
d="M74 0v335h269q62 0 99 -12.5t57 -36t26.5 -58t6.5 -78.5q0 -17 0.5 -38.5t2 -42.5t4.5 -39.5t8 -29.5h22q-5 7 -8 25t-5 40t-3 44.5t-1 37.5q0 43 -5 77t-20 59t-43 40.5t-73 21.5v2q75 17 115 64.5t38 119.5q-2 94 -54 138.5t-164 44.5h-292v-714h20zM74 355v339h277
q102 0 147 -42.5t46 -118.5q0 -47 -17 -80.5t-45 -55.5t-64.5 -32t-76.5 -10h-267z" />
    <glyph glyph-name="S" unicode="S" horiz-adv-x="611" 
d="M531 514h20q-3 60 -23 101.5t-53.5 67t-78 37t-97.5 11.5q-43 0 -86.5 -9t-78.5 -30t-57 -56.5t-22 -88.5q0 -52 21 -84.5t55.5 -52t77.5 -30.5t86 -21q41 -10 85.5 -19.5t81 -28t60 -50t23.5 -85.5q0 -46 -20.5 -79t-53.5 -54t-74.5 -30.5t-83.5 -9.5q-57 0 -104.5 12.5
t-82 40.5t-53.5 72.5t-19 108.5h-20q-1 -68 19.5 -116t58 -78.5t89 -44.5t112.5 -14q46 0 91 10.5t81 34t58 59.5t22 87q0 56 -19.5 89t-52.5 53t-77.5 32t-94.5 25q-46 11 -90 21t-78.5 28t-56 47t-21.5 77t21 79.5t53.5 50.5t72.5 26.5t77 7.5q48 0 90 -10t72.5 -33.5
t49 -61t20.5 -92.5z" />
    <glyph glyph-name="T" unicode="T" 
d="M-16 694h256v-694h20v694h257v20h-533v-20z" />
    <glyph glyph-name="U" unicode="U" horiz-adv-x="632" 
d="M558 714v-448q0 -129 -59 -196t-183 -67t-183 67t-59 196v448h-20v-448q0 -144 67 -213t195 -69t195 69t67 213v448h-20z" />
    <glyph glyph-name="V" unicode="V" horiz-adv-x="538" 
d="M536 714l-262 -688h-2l-270 688h-19l279 -714h22l272 714h-20z" />
    <glyph glyph-name="W" unicode="W" horiz-adv-x="870" 
d="M860 714l-199 -689h-2l-209 689h-29l-206 -689h-2l-202 689h-20l210 -714h27l206 689h2l210 -689h27l207 714h-20z" />
    <glyph glyph-name="X" unicode="X" horiz-adv-x="520" 
d="M510 714l-249 -331l-247 331h-25l259 -347l-274 -367h25l262 351l261 -351h25l-272 367l260 347h-25z" />
    <glyph glyph-name="Y" unicode="Y" horiz-adv-x="538" 
d="M544 714l-275 -392l-273 392h-25l288 -413v-301h20v301l289 413h-24z" />
    <glyph glyph-name="Z" unicode="Z" 
d="M508 20h-507l499 667v27h-491v-20h471l-498 -667v-27h526v20z" />
    <glyph glyph-name="bracketleft" unicode="[" horiz-adv-x="222" 
d="M209 731h-113v-907h113v20h-93v867h93v20z" />
    <glyph glyph-name="backslash" unicode="\" horiz-adv-x="333" 
d="M320 -16h20l-327 747h-19z" />
    <glyph glyph-name="bracketright" unicode="]" horiz-adv-x="222" 
d="M13 -176h113v907h-113v-20h93v-867h-93v-20z" />
    <glyph glyph-name="asciicircum" unicode="^" horiz-adv-x="600" 
d="M541 227l-231 453h-20l-231 -453h20l221 433l221 -433h20z" />
    <glyph glyph-name="underscore" unicode="_" 
d="M0 -88h500v-20h-500v20z" />
    <glyph glyph-name="grave" unicode="`" horiz-adv-x="130" 
d="M-37 731l138 -144h15l-124 144h-29z" />
    <glyph glyph-name="a" unicode="a" horiz-adv-x="481" 
d="M54 355h20q5 72 50 111.5t126 39.5q51 0 81 -13.5t45.5 -34.5t19.5 -46t4 -48q0 -29 -11.5 -44.5t-36 -23t-62.5 -10t-91 -5.5q-32 -2 -64 -8.5t-57 -23t-40.5 -45.5t-15.5 -77q0 -69 47 -103.5t125 -34.5q40 0 74 10.5t60.5 28.5t44 41t25.5 48h2v-67q0 -29 16.5 -39.5
t38.5 -10.5h30v20q-10 -1 -21.5 -1.5t-21.5 2t-16 9.5t-6 22v327q-1 42 -15 70t-37 45.5t-53.5 24.5t-64.5 7q-48 0 -83.5 -13t-60 -36t-37.5 -54.5t-15 -67.5zM400 302v-95q0 -38 -13.5 -74t-40 -63.5t-65.5 -44.5t-89 -17q-42 0 -70.5 10.5t-46.5 27t-25.5 38t-7.5 43.5
q0 41 13 66.5t35 40t50.5 20t58.5 7.5t61.5 3t58.5 5t48 11.5t31 21.5h2z" />
    <glyph glyph-name="b" unicode="b" horiz-adv-x="537" 
d="M75 370v344h-20v-714h20v144h2q20 -69 73.5 -112t132.5 -43q51 0 91.5 20t69 55.5t43.5 84.5t15 107q0 54 -14.5 103t-42 86t-68.5 59t-94 22q-82 0 -135 -43t-71 -113h-2zM75 256q0 121 57 185.5t151 64.5q53 0 90.5 -22.5t61.5 -58t35.5 -80t11.5 -89.5
q0 -49 -12.5 -94t-37 -79.5t-62 -54.5t-87.5 -20q-49 0 -88 20t-65.5 54t-40.5 79t-14 95z" />
    <glyph glyph-name="c" unicode="c" 
d="M469 175h-20q-3 -39 -19 -69.5t-41.5 -52.5t-58.5 -33.5t-71 -11.5q-51 0 -90 19.5t-65 52.5t-39.5 76t-13.5 90q0 45 11.5 91.5t37 84t68 61t103.5 23.5q32 0 61 -9t52 -27.5t39 -46t22 -65.5h20q-5 41 -22.5 72.5t-43.5 52.5t-59 32t-69 11q-61 0 -106.5 -23t-75 -61.5
t-44 -89t-14.5 -106.5q0 -53 15 -99.5t44 -81.5t71.5 -55.5t97.5 -20.5q44 0 80.5 13t64 37t44.5 58.5t21 77.5z" />
    <glyph glyph-name="d" unicode="d" horiz-adv-x="537" 
d="M455 714v-344h-2q-18 70 -71 113t-135 43q-53 0 -94 -22t-68.5 -59t-42 -86t-14.5 -103q0 -58 15 -107t43.5 -84.5t69 -55.5t91.5 -20q79 0 132.5 43t73.5 112h2v-144h20v714h-20zM455 256q0 -50 -14 -95t-40.5 -79t-65 -54t-88.5 -20t-87.5 20t-62 54.5t-37 79.5
t-12.5 94q0 45 11.5 89.5t35.5 80t62 58t90 22.5q94 0 151 -64.5t57 -185.5z" />
    <glyph glyph-name="e" unicode="e" 
d="M45 253h430q2 53 -10.5 102t-40 87t-71 61t-103.5 23q-43 0 -84 -18t-72 -52.5t-50 -84.5t-19 -114q0 -57 13 -106.5t40 -86t69.5 -56.5t102.5 -19q88 0 148 49.5t71 139.5h-20q-13 -85 -66.5 -127.5t-134.5 -42.5q-55 0 -93 19t-62 52t-35.5 77.5t-12.5 96.5zM455 273
h-410q3 54 20 97t44.5 73.5t64 46.5t78.5 16q50 0 88 -18.5t63.5 -50.5t38.5 -74.5t13 -89.5z" />
    <glyph glyph-name="f" unicode="f" horiz-adv-x="204" 
d="M0 494h87v-494h20v494h111v20h-111v107q0 38 14.5 55.5t62.5 17.5q11 0 22 -1t25 -3v20q-8 1 -18.5 2.5t-24.5 1.5q-16 0 -34 -2t-33 -10.5t-24.5 -25.5t-9.5 -48v-114h-87v-20z" />
    <glyph glyph-name="g" unicode="g" horiz-adv-x="519" 
d="M446 172v-155q0 -96 -50.5 -140.5t-144.5 -44.5q-34 0 -65.5 8t-55.5 25t-38.5 44t-15.5 65h-20q1 -44 17 -74.5t43 -50t62 -28.5t74 -9q102 0 158 49.5t56 155.5v497h-20v-137h-2q-8 32 -25.5 59t-43 47t-57.5 31.5t-69 11.5q-54 0 -95.5 -20t-69.5 -54.5t-42 -80
t-14 -97.5q0 -49 13.5 -94t40 -78.5t66.5 -53.5t94 -20q33 0 65.5 9.5t60 28t48 45.5t28.5 61h2zM445 274q0 -46 -13.5 -87.5t-39 -72t-63.5 -48.5t-88 -18q-47 0 -83 17.5t-60.5 48t-37 71.5t-12.5 89q0 47 12.5 89t38 74t63 50.5t87.5 18.5q48 0 85 -19.5t61.5 -52
t37 -74.5t12.5 -86z" />
    <glyph glyph-name="h" unicode="h" 
d="M55 714v-714h20v291q0 43 12 82t35.5 68.5t58.5 47t81 17.5q33 0 62.5 -9.5t52 -30t35.5 -52t13 -76.5v-338h20v341q0 45 -13.5 79.5t-38 58t-58 35.5t-73.5 12q-38 0 -69 -10.5t-54.5 -29.5t-39 -44t-22.5 -55h-2v327h-20z" />
    <glyph glyph-name="i" unicode="i" horiz-adv-x="130" 
d="M75 613v101h-20v-101h20zM75 0v514h-20v-514h20z" />
    <glyph glyph-name="j" unicode="j" horiz-adv-x="130" 
d="M75 613v101h-20v-101h20zM75 -74v588h-20v-581q0 -32 -5.5 -50t-17.5 -26.5t-32 -10.5t-48 -2v-20q29 0 52 2.5t39 13t24 31t8 55.5z" />
    <glyph glyph-name="k" unicode="k" horiz-adv-x="444" 
d="M75 194l133 110l241 -304h27l-253 318l236 196h-29l-355 -295v495h-20v-714h20v194z" />
    <glyph glyph-name="l" unicode="l" horiz-adv-x="130" 
d="M55 714v-714h20v714h-20z" />
    <glyph glyph-name="m" unicode="m" horiz-adv-x="778" 
d="M55 514v-514h20v291q0 43 11.5 82t33 68.5t52.5 47t69 17.5q43 0 70 -14t42 -38t20.5 -56t5.5 -68v-330h20v326q0 36 11 68.5t32 57.5t51 39.5t67 14.5q42 0 69.5 -12t44 -34t23 -53t6.5 -69v-338h20v338q0 42 -8 76.5t-27 59t-50 38.5t-78 14q-60 0 -104 -33t-59 -87h-2
q-13 57 -53.5 89.5t-100.5 30.5q-30 0 -56.5 -10.5t-48.5 -29.5t-37 -44t-22 -55h-2v127h-20z" />
    <glyph glyph-name="n" unicode="n" 
d="M55 514v-514h20v291q0 43 12 82t35.5 68.5t58.5 47t81 17.5q33 0 62.5 -9.5t52 -30t35.5 -52t13 -76.5v-338h20v341q0 45 -13.5 79.5t-38 58t-58 35.5t-73.5 12q-38 0 -69 -10.5t-54.5 -29.5t-39 -44t-22.5 -55h-2v127h-20z" />
    <glyph glyph-name="o" unicode="o" horiz-adv-x="519" 
d="M48 257q0 48 13.5 93t40.5 79.5t66.5 55.5t91.5 21q51 0 90.5 -21t66.5 -55.5t40.5 -79.5t13.5 -93q0 -49 -13.5 -94t-40.5 -79.5t-66.5 -55t-90.5 -20.5q-52 0 -91.5 20.5t-66.5 55t-40.5 79.5t-13.5 94zM28 257q0 -53 15 -101.5t44.5 -85.5t72.5 -59t99 -22
q57 0 100 22t72.5 59t44.5 85.5t15 101.5t-15 101.5t-44.5 85.5t-72.5 59.5t-99 22.5q-57 0 -100 -22.5t-72.5 -59.5t-44.5 -85.5t-15 -101.5z" />
    <glyph glyph-name="p" unicode="p" horiz-adv-x="537" 
d="M75 -176v320h2q18 -70 71 -112.5t135 -42.5q53 0 94 21.5t68.5 58.5t42 86t14.5 103q0 58 -15 107t-43.5 85t-69 56t-91.5 20q-39 0 -72.5 -11.5t-59.5 -32.5t-45 -49.5t-29 -62.5h-2v144h-20v-690h20zM283 8q-94 0 -151 64.5t-57 185.5q0 50 14 95t40.5 79t65.5 54
t88 20q50 0 87.5 -20t62 -54.5t37 -79t12.5 -94.5q0 -45 -11.5 -89.5t-35.5 -80t-61.5 -58t-90.5 -22.5z" />
    <glyph glyph-name="q" unicode="q" horiz-adv-x="537" 
d="M455 258q0 -121 -57 -185.5t-151 -64.5q-52 0 -90 22.5t-62 58t-35.5 80t-11.5 89.5q0 50 12.5 94.5t37 79t62 54.5t87.5 20t88.5 -20t65 -54t40.5 -79t14 -95zM455 514v-144h-2q-10 34 -28.5 62.5t-45 49.5t-60 32.5t-72.5 11.5q-51 0 -91.5 -20t-69 -56t-43.5 -85
t-15 -107q0 -54 14.5 -103t42 -86t68.5 -58.5t94 -21.5q82 0 135 42.5t71 112.5h2v-320h20v690h-20z" />
    <glyph glyph-name="r" unicode="r" horiz-adv-x="259" 
d="M75 0v291q0 42 12 82t37 70.5t63.5 48t91.5 14.5v20q-46 1 -80.5 -10t-59.5 -30t-40 -44.5t-22 -54.5h-2v127h-20v-514h20z" />
    <glyph glyph-name="s" unicode="s" horiz-adv-x="463" 
d="M390 362h20q0 86 -50 125t-136 39q-48 0 -81 -12t-54 -31t-30 -42t-9 -44q0 -42 15 -67t47 -39q22 -10 50 -18t65 -17q33 -8 65 -16t56.5 -21.5t40 -34.5t15.5 -55q0 -33 -15.5 -56t-39.5 -37.5t-53.5 -21t-57.5 -6.5q-91 0 -139.5 40.5t-48.5 127.5h-20q0 -97 52.5 -142
t155.5 -45q33 0 66.5 7.5t60 24.5t43 44t16.5 66q0 37 -14.5 60t-38 38t-53 23.5t-59.5 16.5q-42 11 -73.5 19t-58.5 19q-26 11 -41.5 31.5t-15.5 58.5q0 7 4 25t19 36.5t46 33t85 14.5q37 0 67.5 -8t52.5 -25.5t34 -44.5t12 -66z" />
    <glyph glyph-name="t" unicode="t" horiz-adv-x="241" 
d="M110 494h116v20h-116v162h-20v-162h-94v-20h94v-398q0 -55 24.5 -75.5t59.5 -20.5q23 0 31.5 1t17.5 2v20q-5 -2 -17 -2.5t-27 -0.5q-12 0 -24 1.5t-22 9.5t-16.5 24t-6.5 45v394z" />
    <glyph glyph-name="u" unicode="u" 
d="M445 0v514h-20v-291q0 -43 -12 -82t-35.5 -68.5t-58.5 -47t-81 -17.5q-33 0 -62.5 9.5t-52 30t-35.5 52t-13 76.5v338h-20v-341q0 -45 13.5 -79.5t38 -58t58 -35t73.5 -11.5q76 0 123.5 39t61.5 99h2v-127h20z" />
    <glyph glyph-name="v" unicode="v" horiz-adv-x="407" 
d="M397 514l-184 -494h-2l-199 494h-23l211 -514h25l194 514h-22z" />
    <glyph glyph-name="w" unicode="w" horiz-adv-x="685" 
d="M673 514l-156 -494h-2l-158 494h-31l-159 -494h-2l-153 494h-19l159 -514h28l161 494h2l160 -494h26l164 514h-20z" />
    <glyph glyph-name="x" unicode="x" horiz-adv-x="407" 
d="M380 514l-177 -233l-173 233h-26l187 -248l-205 -266h24l193 251l194 -251h25l-206 266l188 248h-24z" />
    <glyph glyph-name="y" unicode="y" horiz-adv-x="407" 
d="M398 514l-184 -487l-204 487h-21l214 -509l-37 -95q-9 -23 -19.5 -36.5t-24 -20t-32 -8t-44.5 -1.5v-20q23 0 43.5 1.5t37.5 8.5t31 21.5t24 40.5l237 618h-21z" />
    <glyph glyph-name="z" unicode="z" horiz-adv-x="407" 
d="M402 20h-376l360 469v25h-354v-20h333l-360 -469v-25h397v20z" />
    <glyph glyph-name="braceleft" unicode="{" horiz-adv-x="333" 
d="M230 -176h50v20h-48q-14 0 -24.5 4.5t-17 16.5t-10 33.5t-3.5 54.5v161q0 57 -19.5 102.5t-52.5 61.5q19 8 32.5 26t22.5 41t13 48t4 47v164q0 62 12.5 84.5t42.5 22.5h48v20h-50q-42 0 -57.5 -26t-15.5 -83v-165q0 -30 -5 -59t-14.5 -52t-22.5 -38t-30 -18v-20
q44 -29 58 -70.5t14 -102.5v-162q0 -57 15.5 -84t57.5 -27z" />
    <glyph glyph-name="bar" unicode="|" horiz-adv-x="222" 
d="M101 -213h20v999h-20v-999z" />
    <glyph glyph-name="braceright" unicode="}" horiz-adv-x="333" 
d="M103 731h-50v-20h48q14 0 24.5 -4.5t17 -16.5t10 -33.5t3.5 -54.5v-162q0 -57 19.5 -102.5t52.5 -61.5q-19 -8 -32.5 -26t-22.5 -41t-13 -48t-4 -47v-163q0 -62 -12.5 -84.5t-42.5 -22.5h-48v-20h50q42 0 57.5 26t15.5 83v164q0 30 5 59t14.5 52t23 38t29.5 18v20
q-44 28 -58 70t-14 103v163q0 57 -15.5 84t-57.5 27z" />
    <glyph glyph-name="asciitilde" unicode="~" horiz-adv-x="600" 
d="M523 295l-20 6l-18 -26t-19.5 -23t-23 -16.5t-27.5 -6.5q-20 0 -46.5 11t-56.5 24q-29 14 -59.5 25t-57.5 9q-42 0 -70.5 -26t-47.5 -61l20 -6q18 32 41 52.5t57 20.5q39 0 67.5 -12.5t54.5 -24.5q26 -11 49 -21.5t48 -10.5q20 0 35.5 7.5t28.5 19.5t24 27.5t21 31.5z
" />
    <glyph glyph-name="Adieresis" unicode="&#xc4;" horiz-adv-x="575" 
d="M356 768h20v81h-20v-81zM200 768h20v81h-20v-81zM106 235h364l94 -235h22l-282 714h-26l-289 -714h22zM462 255h-348l176 439h2z" />
    <glyph glyph-name="Aring" unicode="&#xc5;" horiz-adv-x="575" 
d="M356 824q0 -28 -20 -48t-48 -20t-48 20t-20 48t20 48t48 20t48 -20t20 -48zM376 824q0 18 -7 34t-19 28t-28 19t-34 7t-34 -7t-28 -19t-19 -28t-7 -34t7 -34t19 -28t28 -19t34 -7t34 7t28 19t19 28t7 34zM106 235h364l94 -235h22l-282 714h-26l-289 -714h22zM462 255
h-348l176 439h2z" />
    <glyph glyph-name="Ccedilla" unicode="&#xc7;" horiz-adv-x="685" 
d="M626 500h20q-1 33 -19 73t-53.5 75.5t-88.5 59t-124 23.5q-91 0 -155 -35t-104 -90t-58.5 -122.5t-18.5 -132.5q0 -78 22.5 -144t63 -114.5t97 -76.5t124.5 -31l-44 -57l15 -10q22 13 54 13q8 0 17.5 -2.5t17.5 -7t14 -12.5t6 -18q0 -15 -7 -25.5t-18 -16.5t-25 -8.5
t-28 -2.5q-20 0 -38 5t-35 11l-9 -19q14 -5 35 -11t47 -6q20 0 37.5 3t31 11.5t21.5 22.5t8 36q0 33 -23 46.5t-52 13.5q-14 0 -20 -2.5t-13 -3.5l29 39q66 1 119.5 23t92.5 61t63.5 93t33.5 119h-20q-8 -59 -31 -110t-60 -88t-88 -58t-115 -21q-72 0 -128.5 29t-95.5 77
t-59 111t-20 131q0 56 16.5 119t53.5 116.5t97.5 89t148.5 35.5q58 0 105.5 -18.5t82 -48.5t54.5 -67.5t23 -76.5z" />
    <glyph glyph-name="Eacute" unicode="&#xc9;" horiz-adv-x="537" 
d="M375 909h-29l-132 -144h15zM74 20v342h427v20h-427v312h454v20h-474v-714h478v20h-458z" />
    <glyph glyph-name="Ntilde" unicode="&#xd1;" horiz-adv-x="648" 
d="M192 780h20q0 9 3.5 19.5t10 19.5t15.5 14.5t19 5.5q16 0 31 -9t30 -20t31 -20t35 -9q35 0 52 23t17 52h-20q0 -21 -13 -38t-36 -17q-15 0 -30 9t-31 20t-32.5 20t-33.5 9q-13 0 -25.5 -7t-22 -18.5t-15 -25.5t-5.5 -28zM54 714v-714h20v689h2l488 -689h30v714h-20v-689
h-2l-488 689h-30z" />
    <glyph glyph-name="Odieresis" unicode="&#xd6;" horiz-adv-x="721" 
d="M429 768h20v81h-20v-81zM273 768h20v81h-20v-81zM32 357q0 -76 21.5 -144t63 -119t103 -80.5t141.5 -29.5t141.5 29.5t103 80.5t63 119t21.5 144t-21.5 144t-63 119t-103 81t-141.5 30t-141.5 -30t-103 -81t-63 -119t-21.5 -144zM52 357q1 77 22.5 142t61 112t96.5 73.5
t129 26.5t129 -26.5t96.5 -73.5t61 -112t22.5 -142q-1 -77 -22.5 -142t-61 -112t-96.5 -73.5t-129 -26.5t-129 26.5t-96.5 73.5t-61 112t-22.5 142z" />
    <glyph glyph-name="Udieresis" unicode="&#xdc;" horiz-adv-x="632" 
d="M384 768h20v81h-20v-81zM228 768h20v81h-20v-81zM558 714v-448q0 -129 -59 -196t-183 -67t-183 67t-59 196v448h-20v-448q0 -144 67 -213t195 -69t195 69t67 213v448h-20z" />
    <glyph glyph-name="aacute" unicode="&#xe1;" horiz-adv-x="481" 
d="M347 709h-29l-132 -144h15zM54 355h20q5 72 50 111.5t126 39.5q51 0 81 -13.5t45.5 -34.5t19.5 -46t4 -48q0 -29 -11.5 -44.5t-36 -23t-62.5 -10t-91 -5.5q-32 -2 -64 -8.5t-57 -23t-40.5 -45.5t-15.5 -77q0 -69 47 -103.5t125 -34.5q40 0 74 10.5t60.5 28.5t44 41
t25.5 48h2v-67q0 -29 16.5 -39.5t38.5 -10.5h30v20q-10 -1 -21.5 -1.5t-21.5 2t-16 9.5t-6 22v327q-1 42 -15 70t-37 45.5t-53.5 24.5t-64.5 7q-48 0 -83.5 -13t-60 -36t-37.5 -54.5t-15 -67.5zM400 302v-95q0 -38 -13.5 -74t-40 -63.5t-65.5 -44.5t-89 -17
q-42 0 -70.5 10.5t-46.5 27t-25.5 38t-7.5 43.5q0 41 13 66.5t35 40t50.5 20t58.5 7.5t61.5 3t58.5 5t48 11.5t31 21.5h2z" />
    <glyph glyph-name="agrave" unicode="&#xe0;" horiz-adv-x="481" 
d="M138 709l139 -144h15l-125 144h-29zM54 355h20q5 72 50 111.5t126 39.5q51 0 81 -13.5t45.5 -34.5t19.5 -46t4 -48q0 -29 -11.5 -44.5t-36 -23t-62.5 -10t-91 -5.5q-32 -2 -64 -8.5t-57 -23t-40.5 -45.5t-15.5 -77q0 -69 47 -103.5t125 -34.5q40 0 74 10.5t60.5 28.5
t44 41t25.5 48h2v-67q0 -29 16.5 -39.5t38.5 -10.5h30v20q-10 -1 -21.5 -1.5t-21.5 2t-16 9.5t-6 22v327q-1 42 -15 70t-37 45.5t-53.5 24.5t-64.5 7q-48 0 -83.5 -13t-60 -36t-37.5 -54.5t-15 -67.5zM400 302v-95q0 -38 -13.5 -74t-40 -63.5t-65.5 -44.5t-89 -17
q-42 0 -70.5 10.5t-46.5 27t-25.5 38t-7.5 43.5q0 41 13 66.5t35 40t50.5 20t58.5 7.5t61.5 3t58.5 5t48 11.5t31 21.5h2z" />
    <glyph glyph-name="acircumflex" unicode="&#xe2;" horiz-adv-x="481" 
d="M342 570h20l-114 139h-15l-113 -139h20l99 123zM54 355h20q5 72 50 111.5t126 39.5q51 0 81 -13.5t45.5 -34.5t19.5 -46t4 -48q0 -29 -11.5 -44.5t-36 -23t-62.5 -10t-91 -5.5q-32 -2 -64 -8.5t-57 -23t-40.5 -45.5t-15.5 -77q0 -69 47 -103.5t125 -34.5q40 0 74 10.5
t60.5 28.5t44 41t25.5 48h2v-67q0 -29 16.5 -39.5t38.5 -10.5h30v20q-10 -1 -21.5 -1.5t-21.5 2t-16 9.5t-6 22v327q-1 42 -15 70t-37 45.5t-53.5 24.5t-64.5 7q-48 0 -83.5 -13t-60 -36t-37.5 -54.5t-15 -67.5zM400 302v-95q0 -38 -13.5 -74t-40 -63.5t-65.5 -44.5t-89 -17
q-42 0 -70.5 10.5t-46.5 27t-25.5 38t-7.5 43.5q0 41 13 66.5t35 40t50.5 20t58.5 7.5t61.5 3t58.5 5t48 11.5t31 21.5h2z" />
    <glyph glyph-name="adieresis" unicode="&#xe4;" horiz-adv-x="481" 
d="M309 568h20v81h-20v-81zM153 568h20v81h-20v-81zM54 355h20q5 72 50 111.5t126 39.5q51 0 81 -13.5t45.5 -34.5t19.5 -46t4 -48q0 -29 -11.5 -44.5t-36 -23t-62.5 -10t-91 -5.5q-32 -2 -64 -8.5t-57 -23t-40.5 -45.5t-15.5 -77q0 -69 47 -103.5t125 -34.5q40 0 74 10.5
t60.5 28.5t44 41t25.5 48h2v-67q0 -29 16.5 -39.5t38.5 -10.5h30v20q-10 -1 -21.5 -1.5t-21.5 2t-16 9.5t-6 22v327q-1 42 -15 70t-37 45.5t-53.5 24.5t-64.5 7q-48 0 -83.5 -13t-60 -36t-37.5 -54.5t-15 -67.5zM400 302v-95q0 -38 -13.5 -74t-40 -63.5t-65.5 -44.5t-89 -17
q-42 0 -70.5 10.5t-46.5 27t-25.5 38t-7.5 43.5q0 41 13 66.5t35 40t50.5 20t58.5 7.5t61.5 3t58.5 5t48 11.5t31 21.5h2z" />
    <glyph glyph-name="atilde" unicode="&#xe3;" horiz-adv-x="481" 
d="M109 580h20q0 9 3.5 19.5t10 19.5t15.5 14.5t19 5.5q16 0 31 -9t30 -20t31 -20t35 -9q35 0 52 23t17 52h-20q0 -21 -13 -38t-36 -17q-15 0 -30 9t-31 20t-32.5 20t-33.5 9q-13 0 -25.5 -7t-22 -18.5t-15 -25.5t-5.5 -28zM54 355h20q5 72 50 111.5t126 39.5q51 0 81 -13.5
t45.5 -34.5t19.5 -46t4 -48q0 -29 -11.5 -44.5t-36 -23t-62.5 -10t-91 -5.5q-32 -2 -64 -8.5t-57 -23t-40.5 -45.5t-15.5 -77q0 -69 47 -103.5t125 -34.5q40 0 74 10.5t60.5 28.5t44 41t25.5 48h2v-67q0 -29 16.5 -39.5t38.5 -10.5h30v20q-10 -1 -21.5 -1.5t-21.5 2t-16 9.5
t-6 22v327q-1 42 -15 70t-37 45.5t-53.5 24.5t-64.5 7q-48 0 -83.5 -13t-60 -36t-37.5 -54.5t-15 -67.5zM400 302v-95q0 -38 -13.5 -74t-40 -63.5t-65.5 -44.5t-89 -17q-42 0 -70.5 10.5t-46.5 27t-25.5 38t-7.5 43.5q0 41 13 66.5t35 40t50.5 20t58.5 7.5t61.5 3t58.5 5
t48 11.5t31 21.5h2z" />
    <glyph glyph-name="aring" unicode="&#xe5;" horiz-adv-x="481" 
d="M309 674q0 -28 -20 -48t-48 -20t-48 20t-20 48t20 48t48 20t48 -20t20 -48zM329 674q0 18 -7 34t-19 28t-28 19t-34 7t-34 -7t-28 -19t-19 -28t-7 -34t7 -34t19 -28t28 -19t34 -7t34 7t28 19t19 28t7 34zM54 355h20q5 72 50 111.5t126 39.5q51 0 81 -13.5t45.5 -34.5
t19.5 -46t4 -48q0 -29 -11.5 -44.5t-36 -23t-62.5 -10t-91 -5.5q-32 -2 -64 -8.5t-57 -23t-40.5 -45.5t-15.5 -77q0 -69 47 -103.5t125 -34.5q40 0 74 10.5t60.5 28.5t44 41t25.5 48h2v-67q0 -29 16.5 -39.5t38.5 -10.5h30v20q-10 -1 -21.5 -1.5t-21.5 2t-16 9.5t-6 22v327
q-1 42 -15 70t-37 45.5t-53.5 24.5t-64.5 7q-48 0 -83.5 -13t-60 -36t-37.5 -54.5t-15 -67.5zM400 302v-95q0 -38 -13.5 -74t-40 -63.5t-65.5 -44.5t-89 -17q-42 0 -70.5 10.5t-46.5 27t-25.5 38t-7.5 43.5q0 41 13 66.5t35 40t50.5 20t58.5 7.5t61.5 3t58.5 5t48 11.5
t31 21.5h2z" />
    <glyph glyph-name="ccedilla" unicode="&#xe7;" 
d="M469 175h-20q-3 -39 -19 -69.5t-41.5 -52.5t-58.5 -33.5t-71 -11.5q-51 0 -90 19.5t-65 52.5t-39.5 76t-13.5 90q0 45 11.5 91.5t37 84t68 61t103.5 23.5q32 0 61 -9t52 -27.5t39 -46t22 -65.5h20q-5 41 -22.5 72.5t-43.5 52.5t-59 32t-69 11q-61 0 -106.5 -23t-75 -61.5
t-44 -89t-14.5 -106.5q0 -51 14 -96.5t41.5 -80t67.5 -55.5t91 -23l-49 -63l15 -10q22 13 54 13q8 0 17.5 -2.5t17.5 -7t14 -12.5t6 -18q0 -15 -7 -25.5t-18 -16.5t-25 -8.5t-28 -2.5q-20 0 -38 5t-35 11l-9 -19q14 -5 35 -11t47 -6q20 0 37.5 3t31 11.5t21.5 22.5t8 36
q0 33 -23 46.5t-52 13.5q-14 0 -20 -2.5t-13 -3.5l33 45q85 2 140.5 50t63.5 135z" />
    <glyph glyph-name="eacute" unicode="&#xe9;" 
d="M356 709h-29l-132 -144h15zM45 253h430q2 53 -10.5 102t-40 87t-71 61t-103.5 23q-43 0 -84 -18t-72 -52.5t-50 -84.5t-19 -114q0 -57 13 -106.5t40 -86t69.5 -56.5t102.5 -19q88 0 148 49.5t71 139.5h-20q-13 -85 -66.5 -127.5t-134.5 -42.5q-55 0 -93 19t-62 52
t-35.5 77.5t-12.5 96.5zM455 273h-410q3 54 20 97t44.5 73.5t64 46.5t78.5 16q50 0 88 -18.5t63.5 -50.5t38.5 -74.5t13 -89.5z" />
    <glyph glyph-name="egrave" unicode="&#xe8;" 
d="M147 709l139 -144h15l-125 144h-29zM45 253h430q2 53 -10.5 102t-40 87t-71 61t-103.5 23q-43 0 -84 -18t-72 -52.5t-50 -84.5t-19 -114q0 -57 13 -106.5t40 -86t69.5 -56.5t102.5 -19q88 0 148 49.5t71 139.5h-20q-13 -85 -66.5 -127.5t-134.5 -42.5q-55 0 -93 19
t-62 52t-35.5 77.5t-12.5 96.5zM455 273h-410q3 54 20 97t44.5 73.5t64 46.5t78.5 16q50 0 88 -18.5t63.5 -50.5t38.5 -74.5t13 -89.5z" />
    <glyph glyph-name="ecircumflex" unicode="&#xea;" 
d="M351 570h20l-114 139h-15l-113 -139h20l99 123zM45 253h430q2 53 -10.5 102t-40 87t-71 61t-103.5 23q-43 0 -84 -18t-72 -52.5t-50 -84.5t-19 -114q0 -57 13 -106.5t40 -86t69.5 -56.5t102.5 -19q88 0 148 49.5t71 139.5h-20q-13 -85 -66.5 -127.5t-134.5 -42.5
q-55 0 -93 19t-62 52t-35.5 77.5t-12.5 96.5zM455 273h-410q3 54 20 97t44.5 73.5t64 46.5t78.5 16q50 0 88 -18.5t63.5 -50.5t38.5 -74.5t13 -89.5z" />
    <glyph glyph-name="edieresis" unicode="&#xeb;" 
d="M318 568h20v81h-20v-81zM162 568h20v81h-20v-81zM45 253h430q2 53 -10.5 102t-40 87t-71 61t-103.5 23q-43 0 -84 -18t-72 -52.5t-50 -84.5t-19 -114q0 -57 13 -106.5t40 -86t69.5 -56.5t102.5 -19q88 0 148 49.5t71 139.5h-20q-13 -85 -66.5 -127.5t-134.5 -42.5
q-55 0 -93 19t-62 52t-35.5 77.5t-12.5 96.5zM455 273h-410q3 54 20 97t44.5 73.5t64 46.5t78.5 16q50 0 88 -18.5t63.5 -50.5t38.5 -74.5t13 -89.5z" />
    <glyph glyph-name="iacute" unicode="&#xed;" horiz-adv-x="130" 
d="M171 709h-29l-132 -144h15zM55 0h20v514h-20v-514z" />
    <glyph glyph-name="igrave" unicode="&#xec;" horiz-adv-x="130" 
d="M-37 709l138 -144h15l-124 144h-29zM55 0h20v514h-20v-514z" />
    <glyph glyph-name="icircumflex" unicode="&#xee;" horiz-adv-x="130" 
d="M166 570h20l-114 139h-15l-112 -139h20l98 123zM55 0h20v514h-20v-514z" />
    <glyph glyph-name="idieresis" unicode="&#xef;" horiz-adv-x="130" 
d="M133 568h20v81h-20v-81zM-22 568h20v81h-20v-81zM55 0h20v514h-20v-514z" />
    <glyph glyph-name="ntilde" unicode="&#xf1;" 
d="M118 580h20q0 9 3.5 19.5t10 19.5t15.5 14.5t19 5.5q16 0 31 -9t30 -20t31 -20t35 -9q35 0 52 23t17 52h-20q0 -21 -13 -38t-36 -17q-15 0 -30 9t-31 20t-32.5 20t-33.5 9q-13 0 -25.5 -7t-22 -18.5t-15 -25.5t-5.5 -28zM55 514v-514h20v291q0 43 12 82t35.5 68.5
t58.5 47t81 17.5q33 0 62.5 -9.5t52 -30t35.5 -52t13 -76.5v-338h20v341q0 45 -13.5 79.5t-38 58t-58 35.5t-73.5 12q-38 0 -69 -10.5t-54.5 -29.5t-39 -44t-22.5 -55h-2v127h-20z" />
    <glyph glyph-name="oacute" unicode="&#xf3;" horiz-adv-x="519" 
d="M366 709h-29l-132 -144h15zM48 257q0 48 13.5 93t40.5 79.5t66.5 55.5t91.5 21q51 0 90.5 -21t66.5 -55.5t40.5 -79.5t13.5 -93q0 -49 -13.5 -94t-40.5 -79.5t-66.5 -55t-90.5 -20.5q-52 0 -91.5 20.5t-66.5 55t-40.5 79.5t-13.5 94zM28 257q0 -53 15 -101.5t44.5 -85.5
t72.5 -59t99 -22q57 0 100 22t72.5 59t44.5 85.5t15 101.5t-15 101.5t-44.5 85.5t-72.5 59.5t-99 22.5q-57 0 -100 -22.5t-72.5 -59.5t-44.5 -85.5t-15 -101.5z" />
    <glyph glyph-name="ograve" unicode="&#xf2;" horiz-adv-x="519" 
d="M157 709l139 -144h15l-125 144h-29zM48 257q0 48 13.5 93t40.5 79.5t66.5 55.5t91.5 21q51 0 90.5 -21t66.5 -55.5t40.5 -79.5t13.5 -93q0 -49 -13.5 -94t-40.5 -79.5t-66.5 -55t-90.5 -20.5q-52 0 -91.5 20.5t-66.5 55t-40.5 79.5t-13.5 94zM28 257q0 -53 15 -101.5
t44.5 -85.5t72.5 -59t99 -22q57 0 100 22t72.5 59t44.5 85.5t15 101.5t-15 101.5t-44.5 85.5t-72.5 59.5t-99 22.5q-57 0 -100 -22.5t-72.5 -59.5t-44.5 -85.5t-15 -101.5z" />
    <glyph glyph-name="ocircumflex" unicode="&#xf4;" horiz-adv-x="519" 
d="M361 570h20l-114 139h-15l-113 -139h20l99 123zM48 257q0 48 13.5 93t40.5 79.5t66.5 55.5t91.5 21q51 0 90.5 -21t66.5 -55.5t40.5 -79.5t13.5 -93q0 -49 -13.5 -94t-40.5 -79.5t-66.5 -55t-90.5 -20.5q-52 0 -91.5 20.5t-66.5 55t-40.5 79.5t-13.5 94zM28 257
q0 -53 15 -101.5t44.5 -85.5t72.5 -59t99 -22q57 0 100 22t72.5 59t44.5 85.5t15 101.5t-15 101.5t-44.5 85.5t-72.5 59.5t-99 22.5q-57 0 -100 -22.5t-72.5 -59.5t-44.5 -85.5t-15 -101.5z" />
    <glyph glyph-name="odieresis" unicode="&#xf6;" horiz-adv-x="519" 
d="M328 568h20v81h-20v-81zM172 568h20v81h-20v-81zM48 257q0 48 13.5 93t40.5 79.5t66.5 55.5t91.5 21q51 0 90.5 -21t66.5 -55.5t40.5 -79.5t13.5 -93q0 -49 -13.5 -94t-40.5 -79.5t-66.5 -55t-90.5 -20.5q-52 0 -91.5 20.5t-66.5 55t-40.5 79.5t-13.5 94zM28 257
q0 -53 15 -101.5t44.5 -85.5t72.5 -59t99 -22q57 0 100 22t72.5 59t44.5 85.5t15 101.5t-15 101.5t-44.5 85.5t-72.5 59.5t-99 22.5q-57 0 -100 -22.5t-72.5 -59.5t-44.5 -85.5t-15 -101.5z" />
    <glyph glyph-name="otilde" unicode="&#xf5;" horiz-adv-x="519" 
d="M128 580h20q0 9 3.5 19.5t10 19.5t15.5 14.5t19 5.5q16 0 31 -9t30 -20t31 -20t35 -9q35 0 52 23t17 52h-20q0 -21 -13 -38t-36 -17q-15 0 -30 9t-31 20t-32.5 20t-33.5 9q-13 0 -25.5 -7t-22 -18.5t-15 -25.5t-5.5 -28zM48 257q0 48 13.5 93t40.5 79.5t66.5 55.5
t91.5 21q51 0 90.5 -21t66.5 -55.5t40.5 -79.5t13.5 -93q0 -49 -13.5 -94t-40.5 -79.5t-66.5 -55t-90.5 -20.5q-52 0 -91.5 20.5t-66.5 55t-40.5 79.5t-13.5 94zM28 257q0 -53 15 -101.5t44.5 -85.5t72.5 -59t99 -22q57 0 100 22t72.5 59t44.5 85.5t15 101.5t-15 101.5
t-44.5 85.5t-72.5 59.5t-99 22.5q-57 0 -100 -22.5t-72.5 -59.5t-44.5 -85.5t-15 -101.5z" />
    <glyph glyph-name="uacute" unicode="&#xfa;" 
d="M356 709h-29l-132 -144h15zM445 0v514h-20v-291q0 -43 -12 -82t-35.5 -68.5t-58.5 -47t-81 -17.5q-33 0 -62.5 9.5t-52 30t-35.5 52t-13 76.5v338h-20v-341q0 -45 13.5 -79.5t38 -58t58 -35t73.5 -11.5q76 0 123.5 39t61.5 99h2v-127h20z" />
    <glyph glyph-name="ugrave" unicode="&#xf9;" 
d="M147 709l139 -144h15l-125 144h-29zM445 0v514h-20v-291q0 -43 -12 -82t-35.5 -68.5t-58.5 -47t-81 -17.5q-33 0 -62.5 9.5t-52 30t-35.5 52t-13 76.5v338h-20v-341q0 -45 13.5 -79.5t38 -58t58 -35t73.5 -11.5q76 0 123.5 39t61.5 99h2v-127h20z" />
    <glyph glyph-name="ucircumflex" unicode="&#xfb;" 
d="M351 570h20l-114 139h-15l-113 -139h20l99 123zM445 0v514h-20v-291q0 -43 -12 -82t-35.5 -68.5t-58.5 -47t-81 -17.5q-33 0 -62.5 9.5t-52 30t-35.5 52t-13 76.5v338h-20v-341q0 -45 13.5 -79.5t38 -58t58 -35t73.5 -11.5q76 0 123.5 39t61.5 99h2v-127h20z" />
    <glyph glyph-name="udieresis" unicode="&#xfc;" 
d="M318 568h20v81h-20v-81zM162 568h20v81h-20v-81zM445 0v514h-20v-291q0 -43 -12 -82t-35.5 -68.5t-58.5 -47t-81 -17.5q-33 0 -62.5 9.5t-52 30t-35.5 52t-13 76.5v338h-20v-341q0 -45 13.5 -79.5t38 -58t58 -35t73.5 -11.5q76 0 123.5 39t61.5 99h2v-127h20z" />
    <glyph glyph-name="dagger" unicode="&#x2020;" horiz-adv-x="556" 
d="M288 714h-20v-243h-208v-20h208v-590h20v590h208v20h-208v243z" />
    <glyph glyph-name="degree" unicode="&#xb0;" horiz-adv-x="400" 
d="M343 549q0 29 -11 55t-30.5 45.5t-45.5 31t-56 11.5t-56 -11.5t-45.5 -31t-30.5 -45.5t-11 -55q0 -31 11 -57.5t30.5 -46t45.5 -30.5t56 -11t56.5 11.5t45.5 31t30 46t11 56.5zM323 549q0 -26 -9.5 -49t-26 -40t-39 -26.5t-48.5 -9.5q-25 0 -47 9.5t-39 26t-27 39.5
t-10 50q0 24 10 46t27 39.5t39 27.5t47 10q27 0 49.5 -10t39 -27t25.5 -39t9 -47z" />
    <glyph glyph-name="cent" unicode="&#xa2;" horiz-adv-x="556" 
d="M292 8v497q35 -1 65.5 -10.5t54 -27.5t39 -45.5t21.5 -63.5h20q-5 41 -22 71.5t-43.5 51.5t-61 32t-73.5 12v88h-20v-88q-53 -2 -93 -25.5t-66.5 -60.5t-40 -84t-13.5 -97q0 -52 13 -99.5t39.5 -84.5t66.5 -60t94 -25v-109h20v109q83 1 138.5 49.5t66.5 136.5h-20
q-4 -36 -19 -66.5t-38.5 -53t-54.5 -35t-68 -12.5h-5zM272 505v-497q-49 2 -85.5 24t-60.5 57t-35.5 79t-11.5 90q0 45 11.5 88.5t35.5 78t60.5 56.5t85.5 24z" />
    <glyph glyph-name="sterling" unicode="&#xa3;" horiz-adv-x="556" 
d="M296 365h-158q-10 20 -22.5 42t-24 45t-19 46.5t-7.5 46.5q0 44 17.5 75.5t46.5 51.5t66 29.5t76 9.5q50 0 91 -15t69 -44.5t41.5 -72.5t8.5 -99h20q6 58 -7.5 104.5t-44 79t-76 50t-102.5 17.5q-43 0 -84 -11t-72.5 -34t-50.5 -58t-19 -83q0 -23 7.5 -47t18 -47
t22.5 -45t22 -41h-66v-20h76q15 -26 23.5 -62t8.5 -74q0 -60 -34.5 -112t-83.5 -94l18 -19q29 22 59.5 35.5t65.5 13.5q23 0 46.5 -8.5t48.5 -16.5q25 -9 50 -16.5t50 -7.5q46 0 84 19t82 69l-13 14q-19 -18 -36 -33t-35 -26.5t-38 -17.5t-44 -6q-23 0 -47 8t-49 18
q-24 8 -49 16t-50 8q-31 0 -57 -11.5t-45 -25.5l-2 2q46 39 72.5 86.5t26.5 104.5q0 35 -6.5 70t-23.5 66h149v20z" />
    <glyph glyph-name="section" unicode="&#xa7;" horiz-adv-x="556" 
d="M479 205q0 -26 -12.5 -47.5t-30.5 -37t-38 -25.5t-35 -13q-17 12 -40 27t-48 31.5t-50.5 32.5t-47.5 30q-35 22 -55 42.5t-30 38t-12.5 32.5t-2.5 26q0 32 12.5 55.5t30 39.5t35.5 25.5t29 12.5q10 -6 27 -15.5t36 -20t37 -21.5t30 -19q51 -33 83 -58t50.5 -47t25 -43
t6.5 -46zM422 546h20q0 42 -12 76t-34 58t-54 37.5t-71 13.5q-20 0 -47 -5t-52 -19.5t-42 -40.5t-17 -68t16.5 -67t36.5 -42q-21 -8 -40.5 -21.5t-34.5 -31.5t-24.5 -40t-9.5 -46q0 -21 3.5 -40t15 -38.5t32.5 -40t57 -44.5q45 -30 93.5 -59.5t82.5 -53.5q27 -19 42.5 -34
t24 -29t11 -29.5t2.5 -35.5q0 -17 -8 -37t-25 -37t-44 -28.5t-66 -11.5q-84 1 -120 49t-35 124h-20q-2 -94 44 -143.5t131 -49.5q31 0 59 8t50 24.5t36.5 41.5t17.5 60q2 30 -9 60t-50 62q15 4 35.5 16t38.5 29.5t30.5 40.5t12.5 50q0 30 -7 53.5t-26.5 47.5t-53 50.5
t-87.5 60.5q-21 13 -37.5 22t-32.5 18t-31.5 18.5t-33.5 22.5q-23 17 -39 39t-18 60q-2 34 12 56t35 35t45.5 18.5t43.5 5.5q75 0 113 -43.5t40 -121.5z" />
    <glyph glyph-name="bullet" unicode="&#x2022;" 
d="M72 357q0 -37 14 -69.5t38 -57t56.5 -38.5t69.5 -14t69.5 14t57 38.5t38.5 57t14 69.5t-14 69.5t-38.5 56.5t-57 38t-69.5 14t-69.5 -14t-56.5 -38t-38 -56.5t-14 -69.5z" />
    <glyph glyph-name="paragraph" unicode="&#xb6;" horiz-adv-x="600" 
d="M491 714h-202q-106 0 -164.5 -50t-58.5 -146q0 -39 16 -73.5t45.5 -60.5t70.5 -41t90 -15v-467h20v833h163v-833h20v853z" />
    <glyph glyph-name="germandbls" unicode="&#xdf;" horiz-adv-x="481" 
d="M202 407v-20q50 0 92.5 -7t73 -26.5t47.5 -54t17 -89.5q0 -57 -17 -95t-47.5 -60t-72.5 -30t-93 -5v-20q71 -2 119 12.5t77 42t41.5 67t12.5 88.5q0 79 -38.5 129.5t-125.5 58.5v2q64 11 95.5 54.5t31.5 106.5q0 39 -15.5 69.5t-41 52t-58.5 32.5t-69 11
q-32 0 -63.5 -8.5t-56.5 -28.5t-40.5 -52.5t-15.5 -80.5v-556h20v553q0 52 17 82.5t41.5 46t51.5 20t46 4.5q34 0 64 -10t52 -28.5t35 -45.5t13 -61q0 -44 -16 -74t-42.5 -48t-61.5 -25.5t-73 -6.5z" />
    <glyph glyph-name="registered" unicode="&#xae;" horiz-adv-x="800" 
d="M46 357q0 73 27.5 137.5t75.5 112.5t112.5 76t138.5 28q73 0 137.5 -28t112.5 -76t76 -112.5t28 -137.5q0 -74 -28 -138.5t-76 -112.5t-112.5 -75.5t-137.5 -27.5q-74 0 -138.5 27.5t-112.5 75.5t-75.5 112.5t-27.5 138.5zM26 357q0 -78 29.5 -146t80 -118.5t118.5 -79.5
t146 -29t146 29t118.5 79.5t80 118.5t29.5 146t-29.5 146t-80 118.5t-118.5 80t-146 29.5t-146 -29.5t-118.5 -80t-80 -118.5t-29.5 -146zM398 354h-104v191h119q24 0 46.5 -4t39.5 -14.5t27.5 -29t10.5 -48.5q0 -32 -13.5 -51t-34 -28.5t-45 -12.5t-46.5 -3zM274 565v-430
h20v199h98h15h8t8 1l129 -200h25l-132 202q23 2 43 9.5t35.5 21t24.5 34t9 47.5q0 55 -34.5 85.5t-107.5 30.5h-141z" />
    <glyph glyph-name="copyright" unicode="&#xa9;" horiz-adv-x="800" 
d="M46 357q0 73 27.5 137.5t75.5 112.5t112.5 76t138.5 28q73 0 137.5 -28t112.5 -76t76 -112.5t28 -137.5q0 -74 -28 -138.5t-76 -112.5t-112.5 -75.5t-137.5 -27.5q-74 0 -138.5 27.5t-112.5 75.5t-75.5 112.5t-27.5 138.5zM26 357q0 -78 29.5 -146t80 -118.5t118.5 -79.5
t146 -29t146 29t118.5 79.5t80 118.5t29.5 146t-29.5 146t-80 118.5t-118.5 80t-146 29.5t-146 -29.5t-118.5 -80t-80 -118.5t-29.5 -146zM573 428h20q-5 36 -21 64.5t-41 47.5t-56.5 29t-66.5 10q-51 0 -91.5 -17t-68 -47.5t-42.5 -72t-15 -91.5q0 -49 15.5 -91t44 -73
t69.5 -49t91 -18q69 0 117.5 43.5t64.5 112.5h-20q-16 -66 -61.5 -101t-100.5 -35q-47 0 -84 16.5t-63 45.5t-39.5 67.5t-13.5 82.5t13 82t38.5 65.5t62 43.5t83.5 16q30 0 57.5 -8t50 -24.5t37.5 -41t20 -57.5z" />
    <glyph glyph-name="trademark" unicode="&#x2122;" horiz-adv-x="990" 
d="M496 714v-412h20v392h2l164 -392h20l164 392h2v-392h20v412h-34l-162 -384l-162 384h-34zM232 694v-392h20v392h150v20h-320v-20h150z" />
    <glyph glyph-name="acute" unicode="&#xb4;" horiz-adv-x="130" 
d="M171 731h-29l-132 -144h15z" />
    <glyph glyph-name="dieresis" unicode="&#xa8;" horiz-adv-x="130" 
d="M133 590h20v81h-20v-81zM-22 590h20v81h-20v-81z" />
    <glyph glyph-name="notequal" unicode="&#x2260;" horiz-adv-x="600" 
d="M163 21l67 125h-182v20h192l94 174h-286v20h296l73 135l18 -9l-68 -126h185v-20h-195l-94 -174h289v-20h-299l-72 -134z" />
    <glyph glyph-name="AE" unicode="&#xc6;" horiz-adv-x="852" 
d="M376 696h47v-402h-258zM155 274h268v-274h412v20h-392v342h360v20h-360v312h392v20h-469l-377 -714h21z" />
    <glyph glyph-name="Oslash" unicode="&#xd8;" horiz-adv-x="721" 
d="M113 98l-73 -81l15 -12l71 79q42 -48 100.5 -74t134.5 -26q80 0 141.5 29.5t103 80.5t63 119t21.5 144t-20 142.5t-62 117.5l61 68l-15 12l-59 -65q-42 46 -100.5 72.5t-133.5 26.5q-80 0 -141.5 -30t-103 -81t-63 -119t-21.5 -144q0 -75 20.5 -141.5t60.5 -117.5z
M140 99l454 502q74 -93 76 -244q-1 -77 -22.5 -142t-61 -112t-96.5 -73.5t-129 -26.5t-127 25t-94 71zM581 617l-454 -503q-73 93 -75 243q1 77 22.5 142t61 112t96.5 73.5t129 26.5q70 0 125 -24.5t95 -69.5z" />
    <glyph glyph-name="infinity" unicode="&#x221e;" horiz-adv-x="722" 
d="M175 130q-59 0 -90 34t-31 90q0 25 8.5 47.5t24 39.5t37 26.5t47.5 9.5t52 -11t51 -28t47 -36.5t41 -35.5q18 16 40 35.5t46.5 36t50.5 28t51 11.5q53 0 85.5 -35.5t32.5 -87.5q0 -55 -32 -89.5t-88 -34.5q-30 0 -55 10.5t-47.5 26.5t-43 35.5t-41.5 37.5
q-17 -15 -37 -34.5t-43.5 -36t-49.5 -28t-56 -11.5zM175 150q26 0 50.5 11t46 27t40.5 34t34 32q-17 16 -37.5 34t-43 33.5t-46.5 25.5t-48 10q-45 0 -71 -30.5t-26 -72.5q0 -45 26.5 -74.5t74.5 -29.5zM548 150q50 0 75 30.5t25 73.5q0 19 -6.5 38t-19.5 33t-31 23t-40 9
q-23 0 -46.5 -11t-46.5 -26.5t-44 -33.5t-37 -32q17 -16 36.5 -34t41 -33.5t45 -26t48.5 -10.5z" />
    <glyph glyph-name="plusminus" unicode="&#xb1;" horiz-adv-x="600" 
d="M48 20v-20h504v20h-504zM290 506v-198h-242v-20h242v-198h20v198h242v20h-242v198h-20z" />
    <glyph glyph-name="lessequal" unicode="&#x2264;" horiz-adv-x="600" 
d="M48 20h504v-20h-504v20zM48 263v18l504 207v-22l-471 -194l471 -192v-22z" />
    <glyph glyph-name="greaterequal" unicode="&#x2265;" horiz-adv-x="600" 
d="M48 0v20h504v-20h-504zM48 58v22l471 192l-471 194v22l504 -207v-18z" />
    <glyph glyph-name="yen" unicode="&#xa5;" horiz-adv-x="556" 
d="M287 203v102h147v20h-136l237 389h-22l-234 -383h-2l-234 383h-22l237 -389h-138v-20h147v-102h-147v-20h147v-183h20v183h147v20h-147z" />
    <glyph glyph-name="mu" unicode="&#xb5;" horiz-adv-x="556" 
d="M472 0v514h-20v-291q0 -43 -12 -82t-35.5 -68.5t-58.5 -47t-81 -17.5q-33 0 -62.5 9.5t-52 30t-35.5 52t-13 76.5v338h-19v-690h20v257h2q23 -51 66 -71.5t94 -20.5q76 0 123.5 39t61.5 99h2v-127h20z" />
    <glyph glyph-name="partialdiff" unicode="&#x2202;" horiz-adv-x="442" 
d="M199 -13q-42 0 -74.5 21t-54 53.5t-33 71.5t-11.5 76q0 41 11.5 79t34.5 67.5t56.5 47.5t78.5 18q55 0 101.5 -29.5t76.5 -74.5q1 17 1.5 35t0.5 35q0 45 -9 99.5t-31 102t-59 80t-92 32.5q-37 0 -64 -12.5t-56 -33.5l-11 18q31 21 62 34t69 13q64 0 105.5 -35t65 -87.5
t32.5 -113t9 -110.5q0 -33 -3 -74.5t-11.5 -84.5t-23 -84t-37.5 -73t-56 -51.5t-78 -19.5zM200 5q49 0 83.5 31.5t56.5 76t32.5 93.5t10.5 85q-34 47 -77 79t-102 32q-38 0 -67.5 -16.5t-49 -44t-29.5 -62t-10 -70.5q0 -33 10 -69t29 -66t47.5 -49.5t65.5 -19.5z" />
    <glyph glyph-name="summation" unicode="&#x2211;" horiz-adv-x="504" 
d="M0 -196l341 486l-326 478v18h479v-20h-453l324 -475l-340 -485h479v-20h-504v18z" />
    <glyph glyph-name="product" unicode="&#x220f;" horiz-adv-x="626" 
d="M54 786h518v-1000h-20v980h-478v-980h-20v1000z" />
    <glyph glyph-name="pi" unicode="&#x3c0;" horiz-adv-x="556" 
d="M476 -4q-21 0 -33 8.5t-17.5 21.5t-6.5 29t-1 32v407h-294v-494h-20v494h-72v20h482v-20h-76v-414q0 -11 1 -22.5t4.5 -21.5t11 -16t21.5 -6q25 0 44 16v-21q-21 -13 -44 -13z" />
    <glyph glyph-name="integral" unicode="&#x222b;" horiz-adv-x="252" 
d="M47 -214q-12 0 -22 7t-10 20q0 10 6 16.5t16 6.5q7 0 12.5 -3.5t9 -8t7 -8t6.5 -3.5q13 0 21 18.5t12.5 44.5t5.5 55.5t1 52.5v596q0 31 3 67t12 67t26.5 51.5t47.5 20.5q13 0 24.5 -6.5t11.5 -21.5q0 -10 -6.5 -16t-16.5 -6q-12 0 -17 6.5t-13 14.5q-1 0 -2.5 1t-2.5 1
q-11 0 -18.5 -12t-12.5 -27.5t-7.5 -31.5t-3.5 -23q-3 -33 -4 -66t-1 -66v-553q0 -35 -1.5 -70t-9.5 -62.5t-25 -44.5t-49 -17z" />
    <glyph glyph-name="ordfeminine" unicode="&#xaa;" horiz-adv-x="300" 
d="M300 374v20q-13 -2 -23.5 0t-10.5 19v190q-2 50 -35 69.5t-82 19.5q-60 0 -91.5 -27.5t-36.5 -76.5h20q5 39 31 61.5t77 22.5t74 -18t23 -63q0 -18 -10.5 -27t-28 -12.5t-39.5 -4t-45 -1.5q-23 -2 -45 -5.5t-39.5 -13.5t-28 -28t-10.5 -48q0 -22 9.5 -38t25 -26.5
t35.5 -15t42 -4.5q54 0 87.5 19.5t44.5 52.5v7h2v-41q0 -17 10.5 -24t24.5 -7h19zM246 552v-48q0 -49 -34 -83t-100 -34q-17 0 -33.5 3.5t-29.5 11t-21 19.5t-8 30q1 29 15.5 44.5t37 22.5t49.5 8.5t52 3t44 6t26 16.5h2z" />
    <glyph glyph-name="ordmasculine" unicode="&#xba;" horiz-adv-x="300" 
d="M20 531q0 26 9 51.5t25.5 45.5t41 32t55.5 12t55 -12t40.5 -32t25.5 -45.5t9 -51.5q0 -27 -9 -53t-25.5 -46t-40.5 -32.5t-55 -12.5t-55.5 12.5t-41 32.5t-25.5 46t-9 53zM0 531q0 -32 10 -61.5t29 -52.5t47 -36.5t64 -13.5q38 0 66 13.5t47 36.5t28.5 52.5t9.5 61.5
t-9.5 61t-28.5 51t-47 35.5t-65 13.5t-65 -13.5t-47 -35.5t-29 -51t-10 -61z" />
    <glyph glyph-name="Omegagreek" unicode="&#x3a9;" horiz-adv-x="693" 
d="M46 20h198v116q-49 13 -86 39.5t-62 63t-37.5 81t-12.5 94.5q0 62 23 118t63.5 98t95.5 66.5t118 24.5q64 0 119 -24.5t95 -66.5t63 -98t23 -119q0 -101 -48.5 -174.5t-147.5 -101.5v-117h197v-20h-217v151q101 28 148.5 97.5t47.5 164.5q0 58 -21.5 110.5t-59 92
t-88.5 62.5t-111 23t-111 -23t-88.5 -62t-59 -91.5t-21.5 -110.5q0 -46 13 -88.5t38 -77t62 -60t85 -37.5v-151h-218v20z" />
    <glyph glyph-name="ae" unicode="&#xe6;" horiz-adv-x="889" 
d="M64 355h20q5 72 50 111.5t126 39.5q51 0 81 -13.5t45.5 -34.5t19.5 -46t4 -48q0 -29 -11.5 -44.5t-36 -23t-62.5 -10t-91 -5.5q-32 -2 -64 -8.5t-57 -23t-40.5 -45.5t-15.5 -77q0 -69 47 -103.5t125 -34.5q41 0 77 11t64.5 32.5t48 52.5t27.5 70h2q20 -81 74 -124
t138 -42q45 0 83.5 13.5t67 38.5t46.5 60t22 77h-20q-5 -42 -22.5 -73.5t-44 -53t-60.5 -32.5t-72 -11q-55 0 -93.5 19t-62.5 52.5t-35.5 78t-13.5 95.5h427q2 54 -10.5 103.5t-39.5 87t-69 60t-101 22.5q-40 0 -73.5 -11.5t-59.5 -31.5t-44 -47.5t-28 -59.5h-2
q-1 43 -15 72t-37 46t-53.5 24.5t-64.5 7.5q-48 0 -83.5 -13t-60 -36t-37.5 -54.5t-15 -67.5zM410 302v-95q0 -38 -13.5 -74t-40 -63.5t-65.5 -44.5t-89 -17q-42 0 -70.5 10.5t-46.5 27t-25.5 38t-7.5 43.5q0 41 13 66.5t35 40t50.5 20t58.5 7.5t61.5 3t58.5 5t48 11.5
t31 21.5h2zM837 273h-407q4 53 19 96t41 73.5t63 47t84 16.5q51 0 88.5 -18.5t62 -50t37 -74t12.5 -90.5z" />
    <glyph glyph-name="oslash" unicode="&#xf8;" horiz-adv-x="519" 
d="M472 496l-45 -47q-29 36 -71 56.5t-96 20.5q-57 0 -100 -22.5t-72.5 -59.5t-44.5 -85.5t-15 -101.5q0 -48 12.5 -93t37.5 -80l-60 -62l14 -14l57 59q29 -36 71 -57t99 -21t100 22t72.5 59t44.5 85.5t15 101.5q0 51 -13 96t-39 80l47 49zM104 83l320 335q23 -34 35 -75
t12 -86q0 -49 -13.5 -94t-40.5 -79.5t-66.5 -55t-90.5 -20.5q-52 0 -91 20t-65 55zM412 434l-320 -335q-44 67 -44 158q0 48 13.5 93t40.5 79.5t66.5 55.5t91.5 21q51 0 88.5 -19.5t63.5 -52.5z" />
    <glyph glyph-name="questiondown" unicode="&#xbf;" 
d="M268 542h-20v-98h20v98zM465 49h-20q2 -48 -10 -88t-37 -68.5t-62.5 -44.5t-87.5 -16q-38 0 -70.5 9.5t-56 28t-37 46t-13.5 62.5q0 38 13 67t30 50t33 34t22 19q28 27 47 51t30 48.5t16 51.5t5 61h-20q0 -36 -5.5 -63t-17 -49.5t-30.5 -44t-46 -47.5
q-12 -11 -28.5 -26.5t-32 -36.5t-26 -49.5t-10.5 -65.5q0 -40 15.5 -71t42 -52t62.5 -32t77 -11q53 0 94 17.5t69 49t42 75t12 95.5z" />
    <glyph glyph-name="exclamdown" unicode="&#xa1;" horiz-adv-x="185" 
d="M103 360h-20v-536h20v536zM103 542h-20v-98h20v98z" />
    <glyph glyph-name="logicalnot" unicode="&#xac;" horiz-adv-x="600" 
d="M532 340v-247h20v267h-504v-20h484z" />
    <glyph glyph-name="radical" unicode="&#x221a;" horiz-adv-x="490" 
d="M53 167l-44 -21l-9 18l62 30l178 -366l210 952l20 -3l-219 -996h-10z" />
    <glyph glyph-name="florin" unicode="&#x192;" horiz-adv-x="556" 
d="M189 -54l92 465h127l4 20h-127l37 184q11 55 37.5 75.5t72.5 20.5q14 0 27.5 -2t25.5 -4l4 19q-24 7 -55 7q-54 0 -87.5 -24t-44.5 -81l-39 -195h-119l-4 -20h119l-91 -461q-9 -47 -33.5 -76.5t-74.5 -29.5q-21 0 -42 6l-5 -20q12 -4 24.5 -5t25.5 -1q29 0 50.5 10
t36.5 27t24.5 39t14.5 46z" />
    <glyph glyph-name="approxequal" unicode="&#x2248;" horiz-adv-x="600" 
d="M45 115q5 19 15.5 37.5t25 33t33 23.5t40.5 9q15 0 34 -4.5t40 -11.5t42.5 -14.5t39.5 -14.5q33 -12 67.5 -22t56.5 -10q36 0 59.5 24.5t34.5 56.5h21q-5 -18 -15 -36t-24.5 -32.5t-32.5 -23.5t-39 -9q-33 0 -72.5 13t-70.5 24q-11 4 -29.5 10.5t-39 13t-40.5 11.5t-33 5
q-17 0 -32 -7.5t-26.5 -19t-20 -26.5t-13.5 -30h-21zM45 281q5 19 15.5 37.5t25 33t33 23.5t40.5 9q15 0 34 -4.5t40 -11.5t42.5 -14.5t39.5 -14.5q33 -12 67.5 -22t56.5 -10q36 0 59.5 24.5t34.5 56.5h21q-5 -18 -15 -36t-24.5 -32.5t-32.5 -23.5t-39 -9q-33 0 -72.5 13
t-70.5 24q-11 4 -29.5 10.5t-39 13t-40.5 11.5t-33 5q-17 0 -32 -7.5t-26.5 -19t-20 -26.5t-13.5 -30h-21z" />
    <glyph glyph-name="Delta" unicode="&#x2206;" horiz-adv-x="577" 
d="M279 714h26l282 -714h-597zM557 20l-264 674h-2l-271 -674h537z" />
    <glyph glyph-name="guillemotleft" unicode="&#xab;" horiz-adv-x="352" 
d="M262 121v35l-83 112l83 112v35l-103 -139v-16zM169 121v35l-83 112l83 112v35l-103 -139v-16z" />
    <glyph glyph-name="guillemotright" unicode="&#xbb;" horiz-adv-x="352" 
d="M90 415v-35l83 -112l-83 -112v-35l103 139v16zM183 415v-35l83 -112l-83 -112v-35l103 139v16z" />
    <glyph glyph-name="ellipsis" unicode="&#x2026;" horiz-adv-x="1000" 
d="M843 0v98h-20v-98h20zM510 0v98h-20v-98h20zM177 0v98h-20v-98h20z" />
    <glyph glyph-name="nonbreakingspace" unicode="&#xa0;" horiz-adv-x="278" 
 />
    <glyph glyph-name="Agrave" unicode="&#xc0;" horiz-adv-x="575" 
d="M185 909l139 -144h15l-125 144h-29zM106 235h364l94 -235h22l-282 714h-26l-289 -714h22zM462 255h-348l176 439h2z" />
    <glyph glyph-name="Atilde" unicode="&#xc3;" horiz-adv-x="575" 
d="M156 780h20q0 9 3.5 19.5t10 19.5t15.5 14.5t19 5.5q16 0 31 -9t30 -20t31 -20t35 -9q35 0 52 23t17 52h-20q0 -21 -13 -38t-36 -17q-15 0 -30 9t-31 20t-32.5 20t-33.5 9q-13 0 -25.5 -7t-22 -18.5t-15 -25.5t-5.5 -28zM106 235h364l94 -235h22l-282 714h-26l-289 -714
h22zM462 255h-348l176 439h2z" />
    <glyph glyph-name="Otilde" unicode="&#xd5;" horiz-adv-x="721" 
d="M229 780h20q0 9 3.5 19.5t10 19.5t15.5 14.5t19 5.5q16 0 31 -9t30 -20t31 -20t35 -9q35 0 52 23t17 52h-20q0 -21 -13 -38t-36 -17q-15 0 -30 9t-31 20t-32.5 20t-33.5 9q-13 0 -25.5 -7t-22 -18.5t-15 -25.5t-5.5 -28zM32 357q0 -76 21.5 -144t63 -119t103 -80.5
t141.5 -29.5t141.5 29.5t103 80.5t63 119t21.5 144t-21.5 144t-63 119t-103 81t-141.5 30t-141.5 -30t-103 -81t-63 -119t-21.5 -144zM52 357q1 77 22.5 142t61 112t96.5 73.5t129 26.5t129 -26.5t96.5 -73.5t61 -112t22.5 -142q-1 -77 -22.5 -142t-61 -112t-96.5 -73.5
t-129 -26.5t-129 26.5t-96.5 73.5t-61 112t-22.5 142z" />
    <glyph glyph-name="OE" unicode="&#x152;" horiz-adv-x="1019" 
d="M558 623v-529q-43 -50 -96 -70.5t-100 -20.5q-72 0 -129 26.5t-97 73t-61.5 110.5t-22.5 140q1 81 23 147t62 113t97 72.5t128 25.5q32 0 58 -5t49 -15.5t44.5 -27t44.5 -40.5zM944 382h-366v312h414v20h-434v-65q-39 45 -87.5 63.5t-108.5 18.5q-82 0 -144 -31t-103 -83
t-62 -120.5t-21 -143.5t21.5 -142t63 -117.5t103 -80t142.5 -29.5q52 0 103 19t93 62v-65h434v20h-414v342h366v20z" />
    <glyph glyph-name="oe" unicode="&#x153;" horiz-adv-x="890" 
d="M454 253h402v15q0 51 -12 98t-37.5 83t-65 57t-95.5 20q-46 -1 -81 -14.5t-59.5 -37t-39.5 -55t-22 -69.5h-2q-12 78 -63.5 127t-135.5 49q-58 0 -98.5 -23.5t-65.5 -61.5t-36 -86t-11 -98q0 -51 11.5 -99t37 -85.5t65.5 -60.5t97 -23q87 0 135 45t65 123h2
q12 -81 64 -124.5t137 -43.5q88 0 138.5 49.5t64.5 134.5h-20q-6 -33 -19 -63t-34.5 -52.5t-53.5 -36t-76 -13.5q-100 0 -146.5 62.5t-45.5 182.5zM434 257q0 -49 -9.5 -94t-31.5 -79.5t-58.5 -55t-91.5 -20.5q-52 0 -88.5 21.5t-59 56.5t-33 80t-10.5 91q0 48 10.5 92.5
t33 79.5t59 56t88.5 21q54 0 90.5 -21t59 -55.5t32 -79.5t9.5 -93zM836 273h-382q2 50 13 92.5t33.5 73.5t58.5 49t88 18q50 0 85.5 -18.5t58 -50.5t33.5 -74.5t12 -89.5z" />
    <glyph glyph-name="endash" unicode="&#x2013;" 
d="M0 278v-20h500v20h-500z" />
    <glyph glyph-name="emdash" unicode="&#x2014;" horiz-adv-x="1000" 
d="M870 258v20h-740v-20h740z" />
    <glyph glyph-name="quotedblleft" unicode="&#x201c;" horiz-adv-x="278" 
d="M183 489h20v118q0 38 5 57.5t20 29.5v20q-13 -7 -21.5 -14.5t-14 -19.5t-7.5 -29t-2 -44v-118zM83 489h20v118q0 38 5 57.5t20 29.5v20q-13 -7 -21.5 -14.5t-14 -19.5t-7.5 -29t-2 -44v-118z" />
    <glyph glyph-name="quotedblright" unicode="&#x201d;" horiz-adv-x="278" 
d="M95 714h-20v-118q0 -38 -5 -57.5t-20 -29.5v-20q13 7 21.5 14.5t14 19.5t7.5 29t2 44v118zM195 714h-20v-118q0 -38 -5 -57.5t-20 -29.5v-20q13 7 21.5 14.5t14 19.5t7.5 29t2 44v118z" />
    <glyph glyph-name="quoteleft" unicode="&#x2018;" horiz-adv-x="167" 
d="M73 489h20v118q0 38 5 57.5t20 29.5v20q-13 -7 -21.5 -14.5t-14 -19.5t-7.5 -29t-2 -44v-118z" />
    <glyph glyph-name="quoteright" unicode="&#x2019;" horiz-adv-x="167" 
d="M94 714h-20v-118q0 -38 -5 -57.5t-20 -29.5v-20q13 7 21.5 14.5t14 19.5t7.5 29t2 44v118z" />
    <glyph glyph-name="divide" unicode="&#xf7;" horiz-adv-x="600" 
d="M300 0q23 0 32 12t9 29t-12 29t-29 12t-29 -11.5t-12 -29.5q0 -17 9.5 -29t31.5 -12zM300 424q23 0 32 12t9 29t-12 29t-29 12t-29 -11.5t-12 -29.5q0 -17 9.5 -29t31.5 -12zM48 243h504v20h-504v-20z" />
    <glyph glyph-name="lozenge" unicode="&#x25ca;" horiz-adv-x="600" 
d="M115 349l170 384h28l171 -384l-171 -384h-28zM300 -15l163 364l-163 364h-2l-162 -364l162 -364h2z" />
    <glyph glyph-name="ydieresis" unicode="&#xff;" horiz-adv-x="407" 
d="M272 590h20v81h-20v-81zM116 590h20v81h-20v-81zM398 514l-184 -487l-204 487h-21l214 -509l-37 -95q-9 -23 -19.5 -36.5t-24 -20t-32 -8t-44.5 -1.5v-20q23 0 43.5 1.5t37.5 8.5t31 21.5t24 40.5l237 618h-21z" />
    <glyph glyph-name="Ydieresis" unicode="&#x178;" horiz-adv-x="538" 
d="M337 768h20v81h-20v-81zM181 768h20v81h-20v-81zM544 714l-275 -392l-273 392h-25l288 -413v-301h20v301l289 413h-24z" />
    <glyph glyph-name="fraction" unicode="&#x2044;" horiz-adv-x="167" 
d="M310 714l-475 -747h23l475 747h-23z" />
    <glyph glyph-name="Euro" unicode="&#x20ac;" horiz-adv-x="556" 
d="M567 73v27q-82 -97 -207 -97q-58 0 -105.5 21t-82.5 57.5t-57.5 85t-31.5 102.5h367l9 17h-378q-3 26 -3 52q0 12 0.5 24t1.5 24h400l9 17h-407q7 57 29 107t58 87t85 58.5t109 21.5q54 0 95 -16t83 -48l9 16q-42 33 -87 49.5t-99 16.5q-65 0 -117.5 -22.5t-91 -62
t-62 -92.5t-31.5 -115h-55l-7 -17h60q-1 -14 -1.5 -29t-0.5 -29v-21q0 -5 0.5 -10.5t1.5 -10.5h-53l-7 -17h61q9 -59 33 -110.5t61.5 -90t88 -60.5t113.5 -22q123 0 210 87z" />
    <glyph glyph-name="guilsinglleft" unicode="&#x2039;" horiz-adv-x="259" 
d="M169 121v35l-83 112l83 112v35l-103 -139v-16z" />
    <glyph glyph-name="guilsinglright" unicode="&#x203a;" horiz-adv-x="259" 
d="M90 415v-35l83 -112l-83 -112v-35l103 139v16z" />
    <glyph glyph-name="daggerdbl" unicode="&#x2021;" horiz-adv-x="556" 
d="M60 57h208v-196h20v196h208v20h-208v420h208v20h-208v197h-20v-197h-208v-20h208v-420h-208v-20z" />
    <glyph glyph-name="periodcentered" unicode="&#xb7;" horiz-adv-x="278" 
d="M107 340q0 -14 9 -23t23 -9t23 9t9 23t-9 23t-23 9t-23 -9t-9 -23z" />
    <glyph glyph-name="quotesinglbase" unicode="&#x201a;" horiz-adv-x="167" 
d="M93 98h-20v-98q0 -40 -5.5 -62.5t-19.5 -35.5v-20q26 17 35.5 45t9.5 73v98z" />
    <glyph glyph-name="quotedblbase" unicode="&#x201e;" horiz-adv-x="278" 
d="M95 98h-20v-98q0 -40 -5.5 -62.5t-19.5 -35.5v-20q26 17 35.5 45t9.5 73v98zM195 98h-20v-98q0 -40 -5.5 -62.5t-19.5 -35.5v-20q26 17 35.5 45t9.5 73v98z" />
    <glyph glyph-name="perthousand" unicode="&#x2030;" horiz-adv-x="1037" 
d="M565 714l-476 -747h23l476 747h-23zM729 157q0 66 31.5 109.5t100.5 43.5t102 -42t33 -111q0 -30 -8.5 -57t-25.5 -47.5t-42.5 -32.5t-58.5 -12t-58 12t-41.5 32t-24.5 47.5t-8 57.5zM709 157q0 -33 9 -63.5t27.5 -54t47.5 -37t68 -13.5q38 0 66.5 13.5t48.5 36.5
t30 53.5t10 65.5q0 75 -39.5 123.5t-115.5 48.5q-36 0 -64.5 -13t-48 -36t-29.5 -54.5t-10 -69.5zM369 157q0 66 31.5 109.5t100.5 43.5t102 -42t33 -111q0 -30 -8.5 -57t-25.5 -47.5t-42.5 -32.5t-58.5 -12t-58 12t-41.5 32t-24.5 47.5t-8 57.5zM349 157q0 -33 9 -63.5
t27.5 -54t47.5 -37t68 -13.5q38 0 66.5 13.5t48.5 36.5t30 53.5t10 65.5q0 75 -39.5 123.5t-115.5 48.5q-36 0 -64.5 -13t-48 -36t-29.5 -54.5t-10 -69.5zM41 519q0 66 31.5 109.5t100.5 43.5t102 -42t33 -111q0 -30 -8.5 -57t-25.5 -47.5t-42.5 -32.5t-58.5 -12t-58 12
t-41.5 32t-24.5 47.5t-8 57.5zM21 519q0 -33 9 -63.5t27.5 -54t47.5 -37.5t68 -14q38 0 66.5 13.5t48.5 37t30 54.5t10 65q0 75 -39.5 123.5t-115.5 48.5q-36 0 -64.5 -13t-48 -36t-29.5 -54.5t-10 -69.5z" />
    <glyph glyph-name="Acircumflex" unicode="&#xc2;" horiz-adv-x="575" 
d="M389 770h20l-114 139h-15l-113 -139h20l99 123zM106 235h364l94 -235h22l-282 714h-26l-289 -714h22zM462 255h-348l176 439h2z" />
    <glyph glyph-name="Ecircumflex" unicode="&#xca;" horiz-adv-x="537" 
d="M370 770h20l-114 139h-15l-113 -139h20l99 123zM74 20v342h427v20h-427v312h454v20h-474v-714h478v20h-458z" />
    <glyph glyph-name="Aacute" unicode="&#xc1;" horiz-adv-x="575" 
d="M394 909h-29l-132 -144h15zM106 235h364l94 -235h22l-282 714h-26l-289 -714h22zM462 255h-348l176 439h2z" />
    <glyph glyph-name="Edieresis" unicode="&#xcb;" horiz-adv-x="537" 
d="M337 768h20v81h-20v-81zM181 768h20v81h-20v-81zM74 20v342h427v20h-427v312h454v20h-474v-714h478v20h-458z" />
    <glyph glyph-name="Egrave" unicode="&#xc8;" horiz-adv-x="537" 
d="M166 909l139 -144h15l-125 144h-29zM74 20v342h427v20h-427v312h454v20h-474v-714h478v20h-458z" />
    <glyph glyph-name="Iacute" unicode="&#xcd;" horiz-adv-x="128" 
d="M170 909h-29l-132 -144h15zM54 714v-714h20v714h-20z" />
    <glyph glyph-name="Icircumflex" unicode="&#xce;" horiz-adv-x="128" 
d="M165 770h20l-114 139h-15l-112 -139h20l98 123zM54 714v-714h20v714h-20z" />
    <glyph glyph-name="Idieresis" unicode="&#xcf;" horiz-adv-x="128" 
d="M132 768h20v81h-20v-81zM-23 768h20v81h-20v-81zM54 714v-714h20v714h-20z" />
    <glyph glyph-name="Igrave" unicode="&#xcc;" horiz-adv-x="128" 
d="M-38 909l138 -144h15l-124 144h-29zM54 714v-714h20v714h-20z" />
    <glyph glyph-name="Oacute" unicode="&#xd3;" horiz-adv-x="721" 
d="M467 909h-29l-132 -144h15zM32 357q0 -76 21.5 -144t63 -119t103 -80.5t141.5 -29.5t141.5 29.5t103 80.5t63 119t21.5 144t-21.5 144t-63 119t-103 81t-141.5 30t-141.5 -30t-103 -81t-63 -119t-21.5 -144zM52 357q1 77 22.5 142t61 112t96.5 73.5t129 26.5t129 -26.5
t96.5 -73.5t61 -112t22.5 -142q-1 -77 -22.5 -142t-61 -112t-96.5 -73.5t-129 -26.5t-129 26.5t-96.5 73.5t-61 112t-22.5 142z" />
    <glyph glyph-name="Ocircumflex" unicode="&#xd4;" horiz-adv-x="721" 
d="M462 770h20l-114 139h-15l-113 -139h20l99 123zM32 357q0 -76 21.5 -144t63 -119t103 -80.5t141.5 -29.5t141.5 29.5t103 80.5t63 119t21.5 144t-21.5 144t-63 119t-103 81t-141.5 30t-141.5 -30t-103 -81t-63 -119t-21.5 -144zM52 357q1 77 22.5 142t61 112t96.5 73.5
t129 26.5t129 -26.5t96.5 -73.5t61 -112t22.5 -142q-1 -77 -22.5 -142t-61 -112t-96.5 -73.5t-129 -26.5t-129 26.5t-96.5 73.5t-61 112t-22.5 142z" />
    <glyph glyph-name="apple" unicode="&#xf8ff;" horiz-adv-x="790" 
d="M408 588q-16 0 -69 15q-52 15 -89 15q-86 0 -143 -72q-56 -73 -56 -187q0 -124 74 -252q74 -129 150 -129q24 0 66 17q39 16 72 16q32 0 75 -15q44 -16 71 -16q65 0 129 97q21 32 36 63.5t25 61.5q-45 14 -79 63q-35 50 -35 112q0 57 33 103q18 26 57 60q-13 16 -26 28
t-26 22q-47 32 -107 32q-36 0 -87 -17t-71 -17zM561 790q0 4 -0.5 9t-2.5 12q-88 -20 -125.5 -74.5t-38.5 -128.5q32 3 51 8q26 9 55 36q31 32 46 69t15 69z" />
    <glyph glyph-name="Ograve" unicode="&#xd2;" horiz-adv-x="721" 
d="M258 909l139 -144h15l-125 144h-29zM32 357q0 -76 21.5 -144t63 -119t103 -80.5t141.5 -29.5t141.5 29.5t103 80.5t63 119t21.5 144t-21.5 144t-63 119t-103 81t-141.5 30t-141.5 -30t-103 -81t-63 -119t-21.5 -144zM52 357q1 77 22.5 142t61 112t96.5 73.5t129 26.5
t129 -26.5t96.5 -73.5t61 -112t22.5 -142q-1 -77 -22.5 -142t-61 -112t-96.5 -73.5t-129 -26.5t-129 26.5t-96.5 73.5t-61 112t-22.5 142z" />
    <glyph glyph-name="Uacute" unicode="&#xda;" horiz-adv-x="632" 
d="M422 909h-29l-132 -144h15zM558 714v-448q0 -129 -59 -196t-183 -67t-183 67t-59 196v448h-20v-448q0 -144 67 -213t195 -69t195 69t67 213v448h-20z" />
    <glyph glyph-name="Ucircumflex" unicode="&#xdb;" horiz-adv-x="632" 
d="M417 770h20l-114 139h-15l-113 -139h20l99 123zM558 714v-448q0 -129 -59 -196t-183 -67t-183 67t-59 196v448h-20v-448q0 -144 67 -213t195 -69t195 69t67 213v448h-20z" />
    <glyph glyph-name="Ugrave" unicode="&#xd9;" horiz-adv-x="632" 
d="M213 909l139 -144h15l-125 144h-29zM558 714v-448q0 -129 -59 -196t-183 -67t-183 67t-59 196v448h-20v-448q0 -144 67 -213t195 -69t195 69t67 213v448h-20z" />
    <glyph glyph-name="dotlessi" unicode="&#x131;" horiz-adv-x="130" 
d="M55 0h20v514h-20v-514z" />
    <glyph glyph-name="circumflex" unicode="&#x2c6;" horiz-adv-x="130" 
d="M166 592h20l-114 139h-15l-112 -139h20l98 123z" />
    <glyph glyph-name="tilde" unicode="&#x2dc;" horiz-adv-x="130" 
d="M-66 602q0 32 18 54t49 22q17 0 33.5 -9t33 -20.5t32.5 -20.5t33 -9q30 0 38.5 16t8.5 40h17q0 -32 -16.5 -52.5t-49.5 -20.5q-20 0 -36.5 9t-32 20.5t-30.5 20.5t-31 9q-50 0 -50 -59h-17v0z" />
    <glyph glyph-name="macron" unicode="&#xaf;" horiz-adv-x="130" 
d="M181 628v20h-231v-20h231z" />
    <glyph glyph-name="breve" unicode="&#x2d8;" horiz-adv-x="130" 
d="M-37 731h-20q6 -48 38 -77.5t81 -29.5q51 0 85.5 28t40.5 79h-20q-5 -45 -34 -66t-72 -21q-40 0 -67 24t-32 63z" />
    <glyph glyph-name="dotaccent" unicode="&#x2d9;" horiz-adv-x="130" 
d="M75 671h-20v-81h20v81z" />
    <glyph glyph-name="ring" unicode="&#x2da;" horiz-adv-x="130" 
d="M133 674q0 -28 -20 -48t-48 -20t-47.5 20t-19.5 48t19.5 48t47.5 20t48 -20t20 -48zM153 674q0 18 -7 34t-19 28t-28 19t-34 7q-36 0 -61.5 -26t-25.5 -62t25.5 -62t61.5 -26q18 0 34 7t28 19t19 28t7 34z" />
    <glyph glyph-name="cedilla" unicode="&#xb8;" horiz-adv-x="130" 
d="M-15 -146l-9 -19q14 -5 34.5 -11t46.5 -6q20 0 37.5 3t31 11.5t21.5 22.5t8 36q0 33 -23 46.5t-52 13.5q-14 0 -20 -2.5t-13 -3.5l41 55h-20l-57 -72l15 -10q22 13 54 13q8 0 17.5 -2.5t17.5 -7t14 -12.5t6 -18q0 -15 -7 -25.5t-18 -16.5t-25 -8.5t-28 -2.5q-20 0 -38 5
t-34 11z" />
    <glyph glyph-name="hungarumlaut" unicode="&#x2dd;" horiz-adv-x="130" 
d="M266 731h-29l-132 -144h15zM116 731h-29l-131 -144h15z" />
    <glyph glyph-name="ogonek" unicode="&#x2db;" horiz-adv-x="130" 
d="M110 0q-57 -43 -80 -71.5t-23 -53.5q0 -16 12 -30.5t40 -14.5q24 0 45 11t32 22l14 -13q-14 -14 -37 -26t-58 -12q-38 0 -54 18t-16 44q0 18 8.5 35t22 32.5t30.5 30t35 28.5h29v0z" />
    <glyph glyph-name="caron" unicode="&#x2c7;" horiz-adv-x="130" 
d="M-35 731h-20l113 -139h15l113 139h-20l-99 -123z" />
    <glyph glyph-name="Omega" unicode="&#x2126;" horiz-adv-x="693" 
d="M46 20h198v116q-49 13 -86 39.5t-62 63t-37.5 81t-12.5 94.5q0 62 23 118t63.5 98t95.5 66.5t118 24.5q64 0 119 -24.5t95 -66.5t63 -98t23 -119q0 -101 -48.5 -174.5t-147.5 -101.5v-117h197v-20h-217v151q101 28 148.5 97.5t47.5 164.5q0 58 -21.5 110.5t-59 92
t-88.5 62.5t-111 23t-111 -23t-88.5 -62t-59 -91.5t-21.5 -110.5q0 -46 13 -88.5t38 -77t62 -60t85 -37.5v-151h-218v20z" />
    <glyph glyph-name="currency" unicode="&#xa4;" horiz-adv-x="556" 
d="M506 340q0 -47 -18 -88.5t-49 -72.5t-72.5 -49t-88.5 -18t-88.5 18t-72.5 49t-49 72.5t-18 88.5t18 88.5t49 72.5t72.5 49t88.5 18t88.5 -18t72.5 -49t49 -72.5t18 -88.5zM503 579l-57 -57q-35 33 -78.5 49.5t-89.5 16.5q-45 0 -88.5 -16.5t-79.5 -49.5l-57 57l-14 -14
l57 -57q-32 -35 -48.5 -78.5t-17.5 -89.5q0 -45 16.5 -88.5t49.5 -79.5l-57 -57l14 -14l57 57q36 -33 79.5 -49.5t88.5 -16.5q46 1 89.5 17.5t78.5 48.5l57 -57l14 14l-57 57q33 36 49.5 79.5t16.5 88.5q0 46 -16.5 89.5t-49.5 78.5l57 57z" />
    <glyph glyph-name="Lslash" unicode="&#x141;" horiz-adv-x="481" 
d="M54 0h437v20h-417v263l248 174v24l-248 -174v407h-20v-421l-73 -52v-24l73 52v-269z" />
    <glyph glyph-name="lslash" unicode="&#x142;" horiz-adv-x="130" 
d="M75 714h-20v-314l-72 -63v-25l72 63v-375h20v392l73 63v25l-73 -63v297z" />
    <glyph glyph-name="threequarters" unicode="&#xbe;" horiz-adv-x="834" 
d="M68 559h20q0 60 33.5 86.5t96.5 26.5q23 0 44.5 -3t38 -12t27 -24.5t10.5 -40.5q0 -24 -10 -40.5t-27 -26t-38 -14t-44 -4.5h-26v-21q4 1 12 1h12q24 0 47.5 -4.5t41.5 -16t29 -30t11 -46.5q0 -25 -11 -43.5t-29 -31t-41.5 -19t-48.5 -6.5q-66 0 -106 31t-35 94h-20
q-4 -70 40.5 -107.5t121.5 -37.5q30 0 57 8t47.5 23.5t32.5 38t12 50.5q0 26 -9 45t-24 32t-35 19.5t-42 8.5v2q45 0 73.5 26.5t28.5 68.5q0 30 -12.5 49t-32.5 30.5t-44.5 16t-49.5 4.5q-33 0 -61 -8.5t-48.5 -25.5t-31.5 -41.5t-10 -57.5zM674 714l-476 -747h23l476 747
h-23zM683 381v-259h-200l198 257zM462 102h221v-102h20v102h76v20h-76v286h-25l-216 -281v-25z" />
    <glyph glyph-name="onequarter" unicode="&#xbc;" horiz-adv-x="834" 
d="M221 662v-385h20v408h-22q-27 -29 -52 -46.5t-65 -29.5v-19q32 9 65.5 27.5t51.5 44.5h2zM620 714l-476 -747h23l476 747h-23zM635 381v-259h-200l198 257zM414 102h221v-102h20v102h76v20h-76v286h-25l-216 -281v-25z" />
    <glyph glyph-name="onesuperior" unicode="&#xb9;" horiz-adv-x="333" 
d="M181 662v-385h20v408h-22q-27 -29 -52 -46.5t-65 -29.5v-19q32 9 65.5 27.5t51.5 44.5h2z" />
    <glyph glyph-name="multiply" unicode="&#xd7;" horiz-adv-x="600" 
d="M96 443l190 -190l-190 -190l14 -14l189 191l191 -191l14 14l-191 190l191 190l-14 13l-191 -191l-189 191z" />
    <glyph glyph-name="Thorn" unicode="&#xde;" horiz-adv-x="574" 
d="M343 590h-269v124h-20v-714h20v201h259q50 0 91.5 12.5t71.5 37t47 61t17 83.5q0 97 -57 146t-160 49zM74 221v349h269q100 0 148.5 -45t48.5 -130q0 -42 -15 -74t-41.5 -54.5t-62.5 -34t-78 -11.5h-269z" />
    <glyph glyph-name="brokenbar" unicode="&#xa6;" horiz-adv-x="222" 
d="M121 661h-20v-250h20v250zM121 -88v249h-20v-249h20z" />
    <glyph glyph-name="Eth" unicode="&#xd0;" horiz-adv-x="648" 
d="M74 362h297v20h-297v312h225q54 0 105.5 -15t92.5 -53.5t66 -103.5t25 -165q0 -86 -24.5 -149.5t-67 -105t-99 -62t-119.5 -20.5h-204v342zM-9 362h63v-362h219q65 0 125 20t107 62.5t75 110.5t28 164q0 105 -27.5 174t-71 109.5t-98 57t-107.5 16.5h-250v-332h-63v-20z
" />
    <glyph glyph-name="onehalf" unicode="&#xbd;" horiz-adv-x="834" 
d="M770 20h-275q1 15 12.5 30.5t29.5 31.5t41 31.5t48 31.5q41 27 67 48.5t40.5 41t19.5 37.5t5 39q0 27 -10.5 47t-29 32.5t-43 18.5t-53.5 6q-77 0 -108.5 -36.5t-33.5 -104.5h20q-1 57 27.5 89t94.5 32q51 0 83.5 -20.5t32.5 -63.5q0 -25 -10.5 -46t-28 -39.5t-40.5 -35
t-48 -32.5q-25 -17 -50 -33t-44.5 -34t-32 -40t-12.5 -51h298v20zM184 662v-385h20v408h-22q-27 -29 -52 -46.5t-65 -29.5v-19q32 9 65.5 27.5t51.5 44.5h2zM573 714l-476 -747h23l476 747h-23z" />
    <glyph glyph-name="minus" unicode="&#x2212;" horiz-adv-x="600" 
d="M48 243h504v20h-504v-20z" />
    <glyph glyph-name="eth" unicode="&#xf0;" horiz-adv-x="519" 
d="M48 248q0 46 13.5 89t40.5 76.5t66.5 53.5t91.5 20q51 0 90.5 -20t66.5 -53.5t40.5 -76.5t13.5 -89t-13.5 -89.5t-40.5 -76.5t-66.5 -53t-90.5 -20q-52 0 -91.5 20t-66.5 53t-40.5 76.5t-13.5 89.5zM249 648l-121 -67l15 -15l122 68q18 -15 39.5 -36.5t43.5 -48
t42.5 -55.5t35.5 -59h-4q-29 38 -72.5 55t-89.5 17q-57 0 -100 -21.5t-72.5 -57.5t-44.5 -82.5t-15 -97.5t15 -98t44.5 -82.5t72.5 -56.5t99 -21q57 0 100 21t72.5 56.5t44.5 82.5t15 98q0 55 -12 105t-37 98t-64 95.5t-92 96.5l120 67l-15 16l-123 -68q-18 15 -42.5 32
t-53.5 32l-16 -14q29 -15 52 -30.5t41 -29.5z" />
    <glyph glyph-name="thorn" unicode="&#xfe;" horiz-adv-x="537" 
d="M75 -176v320h2q18 -70 72.5 -112.5t133.5 -42.5q57 0 98.5 21.5t68.5 58.5t39.5 86t12.5 103q0 58 -14 107t-41.5 85t-68.5 56t-95 20q-85 0 -135.5 -44t-70.5 -112h-2v344h-20v-890h20zM482 258q0 -45 -9.5 -89.5t-33 -80t-61.5 -58t-95 -22.5q-45 0 -83.5 16.5
t-66 48.5t-43 78.5t-15.5 106.5q0 50 13 95t38.5 79t65 54t91.5 20q53 0 90.5 -20t61.5 -54.5t35.5 -79t11.5 -94.5z" />
    <glyph glyph-name="twosuperior" unicode="&#xb2;" horiz-adv-x="333" 
d="M316 297h-275q1 15 12.5 30.5t29.5 31.5t41 31.5t48 31.5q41 27 67 48.5t40.5 41t19.5 37.5t5 39q0 27 -10.5 47t-29 32.5t-43 18.5t-53.5 6q-77 0 -108.5 -36.5t-33.5 -104.5h20q-1 57 27.5 89t94.5 32q51 0 83.5 -20.5t32.5 -63.5q0 -25 -10.5 -46t-28 -39.5t-40.5 -35
t-48 -32.5q-25 -17 -50 -33t-44.5 -34t-32 -40t-12.5 -51h298v20z" />
    <glyph glyph-name="threesuperior" unicode="&#xb3;" horiz-adv-x="333" 
d="M24 559h20q0 60 33.5 86.5t96.5 26.5q23 0 44.5 -3t38 -12t27 -24.5t10.5 -40.5q0 -24 -10 -40.5t-27 -26t-38 -14t-44 -4.5h-26v-21h24q24 0 47.5 -4.5t41.5 -15.5t29 -29.5t11 -46.5q0 -25 -11 -43.5t-29 -31t-41.5 -19t-48.5 -6.5q-66 0 -106 31t-35 94h-20
q-4 -70 40.5 -107.5t121.5 -37.5q30 0 57 8t47.5 23.5t32.5 38t12 50.5q0 26 -9 45t-24 32t-35 19.5t-42 8.5v2q45 0 73.5 26.5t28.5 68.5q0 30 -12.5 49t-32.5 30.5t-44.5 16t-49.5 4.5q-33 0 -61 -8.5t-48.5 -25.5t-31.5 -41.5t-10 -57.5z" />
    <glyph glyph-name="Scaron" unicode="&#x160;" horiz-adv-x="611" 
d="M205 931h-20l114 -139h15l113 139h-20l-99 -123zM531 514h20q-3 60 -23 101.5t-53.5 67t-78 37t-97.5 11.5q-43 0 -86.5 -9t-78.5 -30t-57 -56.5t-22 -88.5q0 -52 21 -84.5t55.5 -52t77.5 -30.5t86 -21q41 -10 85.5 -19.5t81 -28t60 -50t23.5 -85.5q0 -46 -20.5 -79
t-53.5 -54t-74.5 -30.5t-83.5 -9.5q-57 0 -104.5 12.5t-82 40.5t-53.5 72.5t-19 108.5h-20q-1 -68 19.5 -116t58 -78.5t89 -44.5t112.5 -14q46 0 91 10.5t81 34t58 59.5t22 87q0 56 -19.5 89t-52.5 53t-77.5 32t-94.5 25q-46 11 -90 21t-78.5 28t-56 47t-21.5 77t21 79.5
t53.5 50.5t72.5 26.5t77 7.5q48 0 90 -10t72.5 -33.5t49 -61t20.5 -92.5z" />
    <glyph glyph-name="Yacute" unicode="&#xdd;" horiz-adv-x="538" 
d="M544 714l-275 -392l-273 392h-25l288 -413v-301h20v301l289 413h-24zM350 877h-29l-132 -144h15z" />
    <glyph glyph-name="Zcaron" unicode="&#x17d;" 
d="M149 931h-20l114 -139h15l113 139h-20l-99 -123zM508 20h-507l499 667v27h-491v-20h471l-498 -667v-27h526v20z" />
    <glyph glyph-name="scaron" unicode="&#x161;" horiz-adv-x="463" 
d="M131 731h-20l114 -139h15l113 139h-20l-99 -123zM390 362h20q0 86 -50 125t-136 39q-48 0 -81 -12t-54 -31t-30 -42t-9 -44q0 -42 15 -67t47 -39q22 -10 50 -18t65 -17q33 -8 65 -16t56.5 -21.5t40 -34.5t15.5 -55q0 -33 -15.5 -56t-39.5 -37.5t-53.5 -21t-57.5 -6.5
q-91 0 -139.5 40.5t-48.5 127.5h-20q0 -97 52.5 -142t155.5 -45q33 0 66.5 7.5t60 24.5t43 44t16.5 66q0 37 -14.5 60t-38 38t-53 23.5t-59.5 16.5q-42 11 -73.5 19t-58.5 19q-26 11 -41.5 31.5t-15.5 58.5q0 7 4 25t19 36.5t46 33t85 14.5q37 0 67.5 -8t52.5 -25.5
t34 -44.5t12 -66z" />
    <glyph glyph-name="yacute" unicode="&#xfd;" horiz-adv-x="407" 
d="M398 514l-184 -487l-204 487h-21l214 -509l-37 -95q-9 -23 -19.5 -36.5t-24 -20t-32 -8t-44.5 -1.5v-20q23 0 43.5 1.5t37.5 8.5t31 21.5t24 40.5l237 618h-21zM311 709h-29l-132 -144h15z" />
    <glyph glyph-name="zcaron" unicode="&#x17e;" horiz-adv-x="407" 
d="M103 731h-20l114 -139h15l113 139h-20l-99 -123zM402 20h-376l360 469v25h-354v-20h333l-360 -469v-25h397v20z" />
    <glyph glyph-name="gravecmb" unicode="&#x300;" horiz-adv-x="0" 
d="M-307 731l124 -144h-15l-138 144h29z" />
    <glyph glyph-name="acutecmb" unicode="&#x301;" horiz-adv-x="0" 
d="M-325 587h-15l132 144h29z" />
    <glyph glyph-name="circumflexcmb" unicode="&#x302;" horiz-adv-x="0" 
d="M-262 715l-98 -123h-20l112 139h15l114 -139h-20z" />
    <glyph glyph-name="tildecmb" unicode="&#x303;" horiz-adv-x="0" 
d="M-391 602q0 32 18 54t49 22q17 0 33.5 -9t33 -20.5t32.5 -20.5t33 -9q30 0 38.5 16t8.5 40h17q0 -32 -16.5 -52.5t-49.5 -20.5q-20 0 -36.5 9t-32 20.5t-30.5 20.5t-31 9q-50 0 -50 -59h-17v0z" />
    <glyph glyph-name="macroncmb" unicode="&#x304;" horiz-adv-x="0" 
d="M-375 628v20h231v-20h-231z" />
    <glyph glyph-name="brevecmb" unicode="&#x306;" horiz-adv-x="0" 
d="M-362 731q5 -39 32 -63t67 -24q43 0 72 21t34 66h20q-6 -51 -40.5 -79t-85.5 -28q-49 0 -81 29.5t-38 77.5h20v0z" />
    <glyph glyph-name="dotaccentcmb" unicode="&#x307;" horiz-adv-x="0" 
d="M-250 590h-20v81h20v-81z" />
    <glyph glyph-name="dieresiscmb" unicode="&#x308;" horiz-adv-x="0" 
d="M-192 671h20v-81h-20v81zM-347 671h20v-81h-20v81z" />
    <glyph glyph-name="ringcmb" unicode="&#x30a;" horiz-adv-x="0" 
d="M-192 674q0 28 -20 48t-48 20t-47.5 -20t-19.5 -48t19.5 -48t47.5 -20t48 20t20 48zM-172 674q0 -18 -7 -34t-19 -28t-28 -19t-34 -7q-36 0 -61.5 26t-25.5 62t25.5 62t61.5 26q18 0 34 -7t28 -19t19 -28t7 -34z" />
    <glyph glyph-name="hungarumlautcmb" unicode="&#x30b;" horiz-adv-x="0" 
d="M-251 587h-15l132 144h29zM-400 587h-15l131 144h29z" />
    <glyph glyph-name="caroncmb" unicode="&#x30c;" horiz-adv-x="0" 
d="M-258 608l99 123h20l-113 -139h-15l-113 139h20z" />
    <glyph glyph-name="cedillacmb" unicode="&#x327;" horiz-adv-x="0" 
d="M-340 -146q16 -6 34 -11t38 -5q14 0 28 2.5t25 8.5t18 16.5t7 25.5q0 10 -6 18t-14 12.5t-17.5 7t-17.5 2.5q-32 0 -54 -13l-15 10l57 72h20l-41 -55q7 1 13 3.5t20 2.5q29 0 52 -13.5t23 -46.5q0 -22 -8 -36t-21.5 -22.5t-31 -11.5t-37.5 -3q-26 0 -46.5 6t-34.5 11
l9 19v0z" />
    <glyph glyph-name="ogonekcmb" unicode="&#x328;" horiz-adv-x="0" 
d="M-217 0q-57 -43 -80 -71.5t-23 -53.5q0 -16 12 -30.5t40 -14.5q24 0 45 11t32 22l14 -13q-14 -14 -37 -26t-58 -12q-38 0 -54 18t-16 44q0 18 8.5 35t22 32.5t30.5 30t35 28.5h29v0z" />
    <glyph glyph-name="soliduslongoverlaycmb" unicode="&#x338;" horiz-adv-x="0" 
d="M-107 731h20l-327 -747h-19z" />
    <glyph glyph-name="FL295" horiz-adv-x="0" 
 />
    <glyph glyph-name="cyrbreve" horiz-adv-x="130" 
d="M63 624q107 0 125 107h-20q-14 -87 -104 -87q-85 0 -102 87h-20q20 -107 121 -107z" />
    <glyph glyph-name="cyrBreve" horiz-adv-x="130" 
d="M63 802q107 0 125 107h-20q-14 -87 -104 -87q-85 0 -102 87h-20q20 -107 121 -107z" />
    <glyph glyph-name="uni018F" unicode="&#x18f;" horiz-adv-x="701" 
d="M341 -16q-87 0 -146 29.5t-95 80.5t-52 118.5t-16 144.5v25h617q-3 72 -26.5 132.5t-64 104t-97 68t-125.5 24.5q-48 0 -92 -13.5t-79.5 -38.5t-61.5 -62t-38 -83h-20q9 46 35 86t64.5 69t87 45.5t101.5 16.5h3q80 0 142 -30t105 -81t65 -119t22 -144q0 -77 -21.5 -144.5
t-63 -118.5t-103 -80.5t-141.5 -29.5zM341 3q72 0 129.5 26.5t97 73.5t61 112t21.5 142v5h-598v-5q1 -77 18 -142t52 -112t89 -73.5t130 -26.5z" />
    <glyph glyph-name="uni01A2" unicode="&#x1a2;" horiz-adv-x="651" 
d="M577 694h-83v-684q-41 -16 -71.5 -21t-61.5 -5q-80 0 -141.5 29.5t-103 80.5t-63 118.5t-21.5 144.5q0 76 21.5 144t63 119t103 81t141.5 30q26 0 51 -3.5t56 -13.5h129v-890h-20v870zM361 3q63 0 113 19v669q-52 20 -113 20q-72 0 -129.5 -26.5t-97 -73.5t-61 -112
t-21.5 -142t21.5 -142t61 -112t97 -73.5t129.5 -26.5z" />
    <glyph glyph-name="uni01A3" unicode="&#x1a3;" horiz-adv-x="495" 
d="M420 494h-65v-485q-29 -13 -52.5 -16.5t-43.5 -3.5q-56 0 -99 22t-72.5 59t-44.5 85.5t-15 101.5q0 52 15 101t44.5 86t72.5 59.5t100 22.5q16 0 35 -3t39 -9h106v-690h-20v670zM260 8q38 0 75 13v471q-36 14 -75 14q-52 0 -91.5 -21t-66.5 -55.5t-40.5 -79.5t-13.5 -93
q0 -49 13.5 -94t40.5 -79.5t66.5 -55t91.5 -20.5z" />
    <glyph glyph-name="uni01B5" unicode="&#x1b5;" 
d="M-18 27l250 335h-191v20h206l233 312h-471v20h491v-27l-228 -305h196v-20h-211l-256 -342h507v-20h-526v27z" />
    <glyph glyph-name="uni01B6" unicode="&#x1b6;" horiz-adv-x="407" 
d="M5 25l181 236h-131v20h146l164 213h-333v20h354v-25l-160 -208h136v-20h-151l-185 -241h376v-20h-397v25z" />
    <glyph glyph-name="uni0259" unicode="&#x259;" horiz-adv-x="507" 
d="M251 -11q-60 0 -103.5 23t-71 61t-40 87t-10.5 102h430q-1 52 -12.5 96.5t-35.5 77.5t-62 52t-93 19q-81 0 -134.5 -42.5t-66.5 -127.5h-20q6 45 24.5 80t47 59.5t66 37t81.5 12.5q60 0 102.5 -20.5t69.5 -56.5t40 -85t13 -106q0 -64 -19 -114t-50 -84.5t-72 -52.5
t-84 -18zM249 9q42 0 78.5 16t64 46.5t44.5 73.5t20 97h-410q0 -47 13 -89.5t38.5 -74.5t63.5 -50.5t88 -18.5z" />
    <glyph glyph-name="uni0400" unicode="&#x400;" horiz-adv-x="537" 
d="M54 714h474v-20h-454v-312h427v-20h-427v-342h458v-20h-478v714zM221 909l124 -144h-15l-138 144h29z" />
    <glyph glyph-name="afii10023" unicode="&#x401;" horiz-adv-x="537" 
d="M54 714h474v-20h-454v-312h427v-20h-427v-342h458v-20h-478v714zM366 849h20v-81h-20v81zM211 849h20v-81h-20v81z" />
    <glyph glyph-name="afii10051" unicode="&#x402;" horiz-adv-x="717" 
d="M490 -13q-10 0 -29.5 0.5t-30.5 2.5v20q11 -2 30.5 -2.5t28.5 -0.5q90 0 141 59.5t51 164.5q0 55 -17.5 94.5t-47 64.5t-69.5 36.5t-85 11.5q-47 0 -88 -18.5t-72.5 -51.5t-49.5 -79.5t-18 -102.5v-186h-20v694h-227v20h534v-20h-287v-392h2q12 36 34.5 64.5t53 49
t67.5 31.5t77 11q47 0 89.5 -13t74.5 -40.5t50.5 -70.5t18.5 -103q0 -56 -14 -101t-41 -76.5t-66 -49t-90 -17.5z" />
    <glyph glyph-name="afii10052" unicode="&#x403;" horiz-adv-x="463" 
d="M54 714h419v-20h-399v-694h-20v714zM226 787h-15l132 144h29z" />
    <glyph glyph-name="afii10053" unicode="&#x404;" horiz-adv-x="685" 
d="M351 -16q-80 0 -141 30.5t-102 82t-62 118.5t-21 141q0 83 25 152t69 118.5t105.5 77t135.5 27.5q53 0 101 -16.5t86 -45.5t64 -69t35 -86h-20q-12 46 -37.5 83t-60.5 62t-79 38.5t-92 13.5q-66 0 -121.5 -23.5t-96 -67t-65 -104t-28.5 -134.5h419v-20h-420v-6
q0 -69 19.5 -133t57.5 -112.5t95.5 -78t133.5 -29.5q57 0 103.5 18t82.5 49.5t60.5 74.5t36.5 93h20q-11 -56 -38 -102.5t-67 -80.5t-90.5 -52.5t-107.5 -18.5z" />
    <glyph glyph-name="afii10054" unicode="&#x405;" horiz-adv-x="611" 
d="M311 -16q-61 0 -112.5 14t-89 44.5t-58 78.5t-19.5 116h20q0 -64 19 -108.5t53.5 -72.5t82 -40.5t104.5 -12.5q42 0 83.5 9.5t74.5 30.5t53.5 53.5t20.5 79.5q0 54 -23.5 85.5t-60 50t-81 28t-85.5 19.5q-44 10 -86.5 21t-77 30.5t-55.5 51.5t-21 85t22 88.5t57 56.5
t78.5 30t86.5 9q52 0 97 -11.5t78.5 -37t53.5 -67t23 -101.5h-20q-2 55 -20.5 92.5t-49 61t-72.5 33.5t-90 10q-38 0 -77.5 -7.5t-72 -26.5t-53.5 -50.5t-21 -79.5t21.5 -77t56 -47t78.5 -28t90 -21q50 -13 94.5 -25t77.5 -32t52.5 -53.5t19.5 -88.5q0 -51 -22 -87
t-58 -59.5t-81 -34t-91 -10.5z" />
    <glyph glyph-name="afii10055" unicode="&#x406;" horiz-adv-x="128" 
d="M54 714h20v-714h-20v714z" />
    <glyph glyph-name="afii10056" unicode="&#x407;" horiz-adv-x="128" 
d="M54 714h20v-714h-20v714zM132 849h20v-81h-20v81zM-23 849h20v-81h-20v81z" />
    <glyph glyph-name="afii10057" unicode="&#x408;" horiz-adv-x="463" 
d="M208 -16q-51 0 -87 14.5t-59 40.5t-33.5 61.5t-10.5 77.5v43h20v-43q0 -175 170 -175q43 0 75.5 10t55 33t34 61t11.5 94v513h20v-528q0 -45 -10.5 -82t-33.5 -64t-60.5 -41.5t-91.5 -14.5z" />
    <glyph glyph-name="afii10058" unicode="&#x409;" horiz-adv-x="1126" 
d="M46 -5q-33 0 -56 5v21q25 -6 55 -6q55 0 86 54t46 148t18 221.5t3 275.5h427v-315h269q106 0 161.5 -51t55.5 -145q0 -46 -15.5 -83.5t-45 -64t-71.5 -41t-95 -14.5h-279v694h-387q0 -148 -3.5 -275.5t-20 -221.5t-51 -148t-97.5 -54zM893 20q45 0 81.5 13.5t62 38
t39.5 58t14 74.5q0 85 -50 130t-147 45h-268v-359h268z" />
    <glyph glyph-name="afii10059" unicode="&#x40a;" horiz-adv-x="1095" 
d="M54 714h20v-315h500v315h20v-315h269q106 0 161.5 -51t55.5 -145q0 -46 -15.5 -83.5t-45 -64t-71.5 -41t-95 -14.5h-279v379h-500v-379h-20v714zM862 20q45 0 81.5 13.5t62 38t39.5 58t14 74.5q0 85 -50 130t-147 45h-268v-359h268z" />
    <glyph glyph-name="afii10060" unicode="&#x40b;" horiz-adv-x="717" 
d="M214 694h-227v20h534v-20h-287v-335q11 13 36 29t58.5 30t72.5 23.5t78 9.5q60 0 99.5 -16t63 -46t32.5 -72t9 -93v-224h-20v231q0 58 -14 97t-39 61.5t-58.5 32t-73.5 9.5q-38 0 -76 -9.5t-71 -24.5t-58.5 -32.5t-38.5 -32.5v-332h-20v694z" />
    <glyph glyph-name="afii10061" unicode="&#x40c;" horiz-adv-x="593" 
d="M54 714h20v-434l495 434h30l-345 -304l365 -410h-27l-354 398l-164 -145v-253h-20v714zM281 787h-15l132 144h29z" />
    <glyph glyph-name="uni040D" unicode="&#x40d;" horiz-adv-x="648" 
d="M54 714h20v-697l489 697h31v-714h-20v697l-489 -697h-31v714zM256 909l124 -144h-15l-138 144h29z" />
    <glyph glyph-name="afii10062" unicode="&#x40e;" horiz-adv-x="537" 
d="M105 -10q42 0 77 21.5t61 75.5l302 627h-21l-255 -527l-254 527h-22l264 -552l-30 -62q-22 -46 -53.5 -68t-66.5 -22q-17 0 -36 2.5t-32 7.5v-22q12 -5 30.5 -6.5t35.5 -1.5zM268 802q107 0 125 107h-20q-14 -87 -104 -87q-85 0 -102 87h-20q20 -107 121 -107z" />
    <glyph glyph-name="afii10145" unicode="&#x40f;" horiz-adv-x="642" 
d="M319 0h-265v714h20v-694h494v694h20v-714h-249v-176h-20v176z" />
    <glyph glyph-name="afii10017" unicode="&#x410;" horiz-adv-x="575" 
d="M278 714h26l282 -714h-22l-94 235h-364l-95 -235h-22zM462 255l-170 439h-2l-176 -439h348z" />
    <glyph glyph-name="afii10018" unicode="&#x411;" horiz-adv-x="611" 
d="M54 714h470v-20h-450v-295h285q106 0 161.5 -51t55.5 -145q0 -46 -15.5 -83.5t-45 -64t-71.5 -41t-95 -14.5h-295v714zM358 20q45 0 81.5 13.5t62 38t39.5 58.5t14 74q0 85 -50 130t-147 45h-284v-359h284z" />
    <glyph glyph-name="afii10019" unicode="&#x412;" horiz-adv-x="611" 
d="M47 714h307q42 0 78.5 -11t64 -33.5t43 -55.5t15.5 -78q0 -32 -11.5 -61t-31.5 -51t-47.5 -35.5t-60.5 -15.5v-2q35 -1 66.5 -13.5t55 -35t37.5 -55t14 -73.5q0 -48 -17.5 -84.5t-48.5 -60.5t-74.5 -36.5t-94.5 -12.5h-295v714zM351 20q43 0 81 10.5t65.5 32t43.5 54
t16 76.5q0 46 -17.5 78.5t-46 52.5t-65 29t-74.5 9h-287v-342h284zM354 382q36 0 68.5 9.5t57.5 29t40 48.5t15 67q0 40 -14 70t-38.5 49.5t-57.5 29t-71 9.5h-287v-312h287z" />
    <glyph glyph-name="afii10020" unicode="&#x413;" horiz-adv-x="463" 
d="M54 714h419v-20h-399v-694h-20v714z" />
    <glyph glyph-name="afii10021" unicode="&#x414;" horiz-adv-x="690" 
d="M0 20h66q42 78 65 163t34.5 169t13.5 162t2 141v59h419v-694h80v-196h-20v176h-640v-176h-20v196zM580 20v674h-379v-71q0 -60 -2.5 -134t-14 -154t-33.5 -161t-61 -154h490z" />
    <glyph glyph-name="afii10022" unicode="&#x415;" horiz-adv-x="537" 
d="M54 714h474v-20h-454v-312h427v-20h-427v-342h458v-20h-478v714z" />
    <glyph glyph-name="afii10024" unicode="&#x416;" horiz-adv-x="978" 
d="M332 404l-304 310h28l423 -434v434h20v-434l423 434h28l-304 -310l343 -404h-27l-330 390l-133 -137v-253h-20v253l-133 137l-330 -390h-27z" />
    <glyph glyph-name="afii10025" unicode="&#x417;" horiz-adv-x="594" 
d="M304 -16q-62 0 -111 17t-83 50t-52.5 80t-18.5 107h20v-3q0 -109 63.5 -170t181.5 -61q52 0 95.5 15t74.5 42t48 64.5t17 82.5q0 72 -51.5 115.5t-142.5 43.5h-100v20h100q85 0 133 40t48 115q0 81 -57 125t-157 44q-112 0 -167 -50t-65 -147h-20q11 103 71.5 160
t180.5 57q52 0 95.5 -12.5t74.5 -36.5t48 -59t17 -81q0 -63 -34.5 -108.5t-110.5 -55.5v-2q33 -2 61.5 -15t50 -35.5t34 -52.5t12.5 -65q0 -51 -19 -92t-53.5 -70.5t-81.5 -45.5t-102 -16z" />
    <glyph glyph-name="afii10026" unicode="&#x418;" horiz-adv-x="648" 
d="M54 714h20v-697l489 697h31v-714h-20v697l-489 -697h-31v714z" />
    <glyph glyph-name="afii10027" unicode="&#x419;" horiz-adv-x="648" 
d="M54 0h31l489 697v-697h20v714h-31l-489 -697v697h-20v-714zM322 802q107 0 125 107h-20q-14 -87 -104 -87q-85 0 -102 87h-20q20 -107 121 -107z" />
    <glyph glyph-name="afii10028" unicode="&#x41a;" horiz-adv-x="593" 
d="M54 714h20v-434l495 434h30l-345 -304l365 -410h-27l-354 398l-164 -145v-253h-20v714z" />
    <glyph glyph-name="afii10029" unicode="&#x41b;" horiz-adv-x="679" 
d="M46 -5q-33 0 -56 5v21q25 -6 55 -6q55 0 86 54t46 148t18 221.5t3 275.5h427v-714h-20v694h-387q0 -148 -3.5 -275.5t-20 -221.5t-51 -148t-97.5 -54z" />
    <glyph glyph-name="afii10030" unicode="&#x41c;" horiz-adv-x="780" 
d="M54 714h33l302 -688h2l302 688h33v-714h-20v689h-2l-303 -689h-22l-303 689h-2v-689h-20v714z" />
    <glyph glyph-name="afii10031" unicode="&#x41d;" horiz-adv-x="648" 
d="M54 714h20v-332h500v332h20v-714h-20v362h-500v-362h-20v714z" />
    <glyph glyph-name="afii10032" unicode="&#x41e;" horiz-adv-x="721" 
d="M361 -16q-80 0 -141.5 29.5t-103 80.5t-63 118.5t-21.5 144.5q0 76 21.5 144t63 119t103 81t141.5 30t141.5 -30t103 -81t63 -119t21.5 -144q0 -77 -21.5 -144.5t-63 -118.5t-103 -80.5t-141.5 -29.5zM361 3q72 0 129.5 26.5t97 73.5t61 112t21.5 142t-21.5 142t-61 112
t-97 73.5t-129.5 26.5t-129.5 -26.5t-97 -73.5t-61 -112t-21.5 -142t21.5 -142t61 -112t97 -73.5t129.5 -26.5z" />
    <glyph glyph-name="afii10033" unicode="&#x41f;" horiz-adv-x="642" 
d="M54 714h534v-714h-20v694h-494v-694h-20v714z" />
    <glyph glyph-name="afii10034" unicode="&#x420;" horiz-adv-x="574" 
d="M54 714h289q103 0 160 -49t57 -146q0 -47 -17 -83.5t-47 -61t-72 -37t-91 -12.5h-259v-325h-20v714zM343 345q42 0 78 11.5t62.5 34t41.5 54.5t15 74q0 85 -48.5 130t-148.5 45h-269v-349h269z" />
    <glyph glyph-name="afii10035" unicode="&#x421;" horiz-adv-x="685" 
d="M348 -16q-71 0 -130.5 27.5t-102 76t-66.5 116t-24 147.5q0 65 18.5 132.5t58.5 122.5t104 90t155 35q71 0 124 -23.5t88.5 -59t53.5 -75.5t19 -73h-20q-3 39 -23 76.5t-54.5 67.5t-82 48.5t-105.5 18.5q-59 0 -105 -16.5t-81 -44t-60 -64t-40.5 -76.5t-22.5 -81t-7 -78
q0 -68 20 -131t59 -111t95.5 -77t128.5 -29q64 0 115 21t88 58t60 88t31 110h20q-9 -65 -34 -119.5t-64.5 -93.5t-94 -61t-121.5 -22z" />
    <glyph glyph-name="afii10036" unicode="&#x422;" 
d="M240 694h-256v20h533v-20h-257v-694h-20v694z" />
    <glyph glyph-name="afii10037" unicode="&#x423;" horiz-adv-x="537" 
d="M105 -10q-17 0 -35.5 1.5t-30.5 6.5v22q13 -5 32 -7.5t36 -2.5q35 0 66.5 22t53.5 68l30 62l-264 552h22l254 -527l255 527h21l-302 -627q-26 -54 -61 -75.5t-77 -21.5z" />
    <glyph glyph-name="afii10038" unicode="&#x424;" horiz-adv-x="738" 
d="M359 70q-75 0 -137.5 18.5t-107 55.5t-69.5 91t-25 125t25 125.5t69.5 91t107 55.5t137.5 19v80h20v-80q75 0 137.5 -19t107 -55.5t69.5 -91t25 -125.5t-25 -125t-69.5 -91t-107 -55.5t-137.5 -18.5v-86h-20v86zM359 631q-73 0 -131.5 -17.5t-100 -52t-64 -85
t-22.5 -116.5t22.5 -116t64 -84.5t100 -52t131.5 -17.5v541zM379 90q73 0 131.5 17.5t100 52t64 84.5t22.5 116t-22.5 116.5t-64 85t-100 52t-131.5 17.5v-541z" />
    <glyph glyph-name="afii10039" unicode="&#x425;" horiz-adv-x="520" 
d="M248 367l-259 347h25l247 -331l249 331h25l-260 -347l272 -367h-25l-261 351l-262 -351h-25z" />
    <glyph glyph-name="afii10040" unicode="&#x426;" horiz-adv-x="664" 
d="M634 0h-580v714h20v-694h480v694h20v-694h80v-196h-20v176z" />
    <glyph glyph-name="afii10041" unicode="&#x427;" horiz-adv-x="578" 
d="M504 353q-20 -9 -48 -19.5t-60.5 -19.5t-68 -15t-69.5 -6q-81 0 -126.5 15t-67 46t-26 77.5t-4.5 109.5v173h20v-171q0 -59 3.5 -102.5t23 -72t61 -42t116.5 -13.5q29 0 62 5.5t65.5 14t63 19t55.5 21.5v341h20v-714h-20v353z" />
    <glyph glyph-name="afii10042" unicode="&#x428;" horiz-adv-x="988" 
d="M54 714h20v-694h410v694h20v-694h410v694h20v-714h-880v714z" />
    <glyph glyph-name="afii10043" unicode="&#x429;" horiz-adv-x="1024" 
d="M994 0h-940v714h20v-694h410v694h20v-694h410v694h20v-694h80v-196h-20v176z" />
    <glyph glyph-name="afii10044" unicode="&#x42a;" horiz-adv-x="718" 
d="M197 694h-216v20h236v-315h269q106 0 161.5 -51t55.5 -145q0 -46 -15.5 -83.5t-45 -64t-71.5 -41t-95 -14.5h-279v694zM485 20q45 0 81.5 13.5t62 38t39.5 58t14 74.5q0 85 -50 130t-147 45h-268v-359h268z" />
    <glyph glyph-name="afii10045" unicode="&#x42b;" horiz-adv-x="778" 
d="M54 714h20v-315h270q106 0 161.5 -51t55.5 -145q0 -46 -15.5 -83.5t-45 -64t-71.5 -41t-95 -14.5h-280v714zM343 20q45 0 81.5 13.5t62 38t39.5 58t14 74.5q0 85 -50 130t-147 45h-269v-359h269zM704 714h20v-714h-20v714z" />
    <glyph glyph-name="afii10046" unicode="&#x42c;" horiz-adv-x="575" 
d="M54 714h20v-315h269q106 0 161.5 -51t55.5 -145q0 -46 -15.5 -83.5t-45 -64t-71.5 -41t-95 -14.5h-279v714zM342 20q45 0 81.5 13.5t62 38t39.5 58t14 74.5q0 85 -50 130t-147 45h-268v-359h268z" />
    <glyph glyph-name="afii10047" unicode="&#x42d;" horiz-adv-x="685" 
d="M330 -16q-62 0 -113.5 18.5t-91 52.5t-64.5 80.5t-34 102.5h20q10 -50 34 -93t60 -74.5t84 -49.5t105 -18q76 0 133 29.5t95 78t57 112.5t19 133v6h-419v20h418q-3 74 -27 134.5t-64 104t-95 67t-119 23.5q-48 0 -92 -13.5t-79.5 -38.5t-61.5 -62t-38 -83h-20q9 46 35 86
t64.5 69t87 45.5t101.5 16.5q73 0 134 -27.5t104 -77t67 -118.5t24 -152q0 -74 -20.5 -141t-61 -118.5t-101.5 -82t-141 -30.5z" />
    <glyph glyph-name="afii10048" unicode="&#x42e;" horiz-adv-x="903" 
d="M562 -16q-76 0 -134 29.5t-97 80.5t-58.5 118.5t-19.5 144.5v6h-179v-363h-20v714h20v-332h179q3 72 24.5 135.5t60.5 111t95 75t129 27.5q76 0 134 -30t97 -81t58.5 -119t19.5 -144q0 -77 -19.5 -144.5t-58.5 -118.5t-97 -80.5t-134 -29.5zM562 3q68 0 122 26.5t91 73.5
t56.5 112t19.5 142t-19.5 142t-56.5 112t-91 73.5t-122 26.5t-122 -26.5t-91 -73.5t-56.5 -112t-19.5 -142t19.5 -142t56.5 -112t91 -73.5t122 -26.5z" />
    <glyph glyph-name="afii10049" unicode="&#x42f;" horiz-adv-x="613" 
d="M267 324q-48 0 -88.5 12.5t-69 37.5t-44.5 61t-16 84q0 94 54.5 144.5t163.5 50.5h292v-714h-20v324h-246l-260 -324h-25zM539 344v350h-276q-97 0 -145 -45.5t-48 -126.5q0 -42 14 -75.5t39.5 -56t61 -34.5t78.5 -12h276z" />
    <glyph glyph-name="afii10065" unicode="&#x430;" horiz-adv-x="481" 
d="M194 -11q-78 0 -125 34.5t-47 103.5q0 48 15.5 77t40.5 45.5t57 23t64 8.5q53 3 91 5.5t62.5 10t36 23t11.5 44.5q0 23 -4 48t-19.5 46t-45.5 34.5t-81 13.5q-81 0 -126 -39.5t-50 -111.5h-20q2 36 15 67.5t37.5 54.5t60 36t83.5 13q34 0 64.5 -7t53.5 -24.5t37 -45.5
t15 -70v-327q0 -15 6.5 -22t16 -9.5t21 -2t21.5 1.5v-20h-30q-22 0 -38.5 10.5t-16.5 39.5v67h-2q-8 -25 -26 -48t-44 -41t-60 -28.5t-74 -10.5zM192 8q50 0 89 17t65.5 44.5t40 63.5t13.5 74v95h-2q-10 -14 -31 -21.5t-48 -11.5t-58.5 -5t-61.5 -3t-58.5 -7.5t-50.5 -20
t-35 -40t-13 -66.5q0 -22 7.5 -43.5t25.5 -38t46.5 -27t70.5 -10.5z" />
    <glyph glyph-name="afii10066" unicode="&#x431;" horiz-adv-x="530" 
d="M272 -11q-101 0 -153.5 50.5t-72.5 148.5q-4 21 -5 44.5t-1 49.5q0 82 8 150.5t32 120t66.5 83t111.5 39.5l124 14q28 3 46.5 12t22.5 29h20q-3 -14 -8.5 -24t-16 -17.5t-28 -12.5t-44.5 -8l-109 -12q-56 -6 -94 -28.5t-62 -61t-36 -93t-16 -124.5h2q15 46 40 77t54 50
t60.5 27t59.5 8q52 0 94.5 -17.5t72.5 -50.5t46 -80t16 -106t-17 -108t-48 -84.5t-73 -55.5t-92 -20zM273 8q46 0 84.5 18t66 51t43 78.5t15.5 101.5q0 54 -15.5 97.5t-43 74t-66 46.5t-84.5 16q-42 0 -81 -16t-68 -46t-46.5 -72.5t-17.5 -94.5q0 -57 13 -104t39.5 -80
t66.5 -51.5t94 -18.5z" />
    <glyph glyph-name="afii10067" unicode="&#x432;" horiz-adv-x="488" 
d="M55 514h233q66 0 105 -33.5t39 -90.5q0 -51 -28.5 -82t-79.5 -36v-2q55 -5 89.5 -37.5t34.5 -92.5q0 -66 -48 -103t-127 -37h-218v514zM279 20q70 0 109.5 30t39.5 90q0 57 -39 88.5t-108 31.5h-206v-240h204zM281 279q60 0 95.5 30t35.5 81q0 54 -35 79t-95 25h-207
v-215h206z" />
    <glyph glyph-name="afii10068" unicode="&#x433;" horiz-adv-x="368" 
d="M61 514h313v-20h-293v-494h-20v514z" />
    <glyph glyph-name="afii10069" unicode="&#x434;" horiz-adv-x="527" 
d="M0 20h58q28 54 44 115.5t24.5 125.5t10.5 128.5t2 124.5h319v-494h68v-186h-20v166h-486v-166h-20v186zM438 20v474h-280q0 -53 -2 -113t-9.5 -122.5t-23 -123.5t-43.5 -115h358z" />
    <glyph glyph-name="afii10070" unicode="&#x435;" 
d="M250 -11q-60 0 -102.5 20.5t-69.5 56.5t-40 85t-13 106q0 64 19 114t50 84.5t71.5 52.5t84.5 18q60 0 103.5 -23t71 -61t40 -87.5t10.5 -101.5h-430q1 -52 12.5 -96.5t35.5 -77.5t62 -52t93 -19q81 0 134.5 42.5t66.5 127.5h20q-6 -45 -24.5 -80t-47 -59.5t-66 -37
t-81.5 -12.5zM455 273q0 47 -13 89.5t-38.5 74.5t-63.5 50.5t-88 18.5q-42 0 -78.5 -16t-64 -46.5t-44.5 -73.5t-20 -97h410z" />
    <glyph glyph-name="afii10072" unicode="&#x436;" horiz-adv-x="702" 
d="M-13 0l237 299l-213 215h28l302 -305v305h20v-305l302 305h28l-213 -215l237 -299h-26l-226 285l-102 -102v-183h-20v183l-102 102l-226 -285h-26z" />
    <glyph glyph-name="afii10073" unicode="&#x437;" horiz-adv-x="463" 
d="M222 -15q-100 0 -147 49t-47 134v2h20v-3q0 -78 44.5 -120.5t129.5 -42.5q38 0 71 10.5t57.5 29.5t38.5 45.5t14 59.5q0 51 -37.5 81t-103.5 30h-74v20h74q61 0 96 27.5t35 81.5q0 58 -45 87.5t-117 29.5q-81 0 -120 -33.5t-47 -102.5h-20q7 74 50.5 115t136.5 41
q82 0 132 -35.5t50 -101.5q0 -45 -23.5 -77.5t-80.5 -39.5v-2q24 -1 44.5 -10.5t36 -25.5t24.5 -38t9 -47q0 -36 -14.5 -66.5t-41 -52t-63.5 -33.5t-82 -12z" />
    <glyph glyph-name="afii10074" unicode="&#x438;" horiz-adv-x="510" 
d="M55 514h20v-496h2l347 496h31v-514h-20v496h-2l-347 -496h-31v514z" />
    <glyph glyph-name="afii10075" unicode="&#x439;" horiz-adv-x="510" 
d="M55 0h31l347 496h2v-496h20v514h-31l-347 -496h-2v496h-20v-514zM261 602q107 0 125 107h-20q-14 -87 -104 -87q-85 0 -102 87h-20q20 -107 121 -107z" />
    <glyph glyph-name="afii10076" unicode="&#x43a;" horiz-adv-x="444" 
d="M55 514h20v-307l345 307h29l-233 -208l245 -306h-27l-233 292l-126 -111v-181h-20v514z" />
    <glyph glyph-name="afii10077" unicode="&#x43b;" horiz-adv-x="529" 
d="M47 -6q-35 0 -57 6v22q12 -4 25 -6t31 -2q42 0 64.5 41.5t33 111t12.5 159.5t2 188h316v-514h-20v494h-276q0 -95 -2 -185t-14.5 -160t-39 -112.5t-75.5 -42.5z" />
    <glyph glyph-name="afii10078" unicode="&#x43c;" horiz-adv-x="612" 
d="M55 514h31l220 -493l220 493h31v-514h-20v490h-2l-217 -490h-24l-217 490h-2v-490h-20v514z" />
    <glyph glyph-name="afii10079" unicode="&#x43d;" 
d="M55 514h20v-236h350v236h20v-514h-20v258h-350v-258h-20v514z" />
    <glyph glyph-name="afii10080" unicode="&#x43e;" horiz-adv-x="519" 
d="M259 -11q-56 0 -99 22t-72.5 59t-44.5 85.5t-15 101.5q0 52 15 101t44.5 86t72.5 59.5t100 22.5q56 0 99 -22.5t72.5 -59.5t44.5 -86t15 -101q0 -53 -15 -101.5t-44.5 -85.5t-72.5 -59t-100 -22zM260 8q51 0 90.5 20.5t66.5 55t40.5 79.5t13.5 94q0 48 -13.5 93
t-40.5 79.5t-66.5 55.5t-90.5 21q-52 0 -91.5 -21t-66.5 -55.5t-40.5 -79.5t-13.5 -93q0 -49 13.5 -94t40.5 -79.5t66.5 -55t91.5 -20.5z" />
    <glyph glyph-name="afii10081" unicode="&#x43f;" horiz-adv-x="490" 
d="M55 514h380v-514h-20v494h-340v-494h-20v514z" />
    <glyph glyph-name="afii10082" unicode="&#x440;" horiz-adv-x="537" 
d="M55 514h20v-144h2q10 34 29 62.5t45 49.5t59.5 32.5t72.5 11.5q51 0 91.5 -20t69 -56t43.5 -85t15 -107q0 -54 -14.5 -103t-42 -86t-68.5 -58.5t-94 -21.5q-82 0 -135 42.5t-71 112.5h-2v-320h-20v690zM283 8q52 0 90 22.5t62 58t35.5 80t11.5 89.5q0 49 -12.5 94
t-37 79.5t-62 54.5t-87.5 20t-88.5 -20t-65 -54t-40.5 -79t-14 -95q0 -121 57 -185.5t151 -64.5z" />
    <glyph glyph-name="afii10083" unicode="&#x441;" 
d="M259 -11q-55 0 -97.5 20.5t-71.5 55.5t-44 81.5t-15 99.5q0 55 14.5 106t44 89.5t74.5 61.5t107 23q36 0 69 -11t59 -32t43.5 -52.5t22.5 -72.5h-20q-6 37 -22 65t-39 46.5t-52 27.5t-61 9q-62 0 -104 -23.5t-67.5 -61t-37 -84t-11.5 -91.5q0 -47 13.5 -90t39.5 -76
t65 -52.5t90 -19.5q37 0 70.5 11.5t59 33.5t41.5 52.5t19 69.5h20q-4 -43 -21 -77.5t-44.5 -58.5t-64.5 -37t-80 -13z" />
    <glyph glyph-name="afii10084" unicode="&#x442;" horiz-adv-x="407" 
d="M194 494h-201v20h422v-20h-201v-494h-20v494z" />
    <glyph glyph-name="afii10085" unicode="&#x443;" horiz-adv-x="407" 
d="M46 -156q26 0 44.5 1.5t32.5 8t24 20t19 36.5l37 95l-214 509h21l204 -487l184 487h21l-237 -618q-10 -26 -24 -40.5t-31.5 -21.5t-37.5 -8.5t-43 -1.5v20z" />
    <glyph glyph-name="afii10086" unicode="&#x444;" horiz-adv-x="756" 
d="M368 72q-16 -35 -55.5 -59t-89.5 -24q-41 0 -75.5 17.5t-59.5 51.5t-39 84t-14 115q0 135 51.5 202t137.5 67q21 0 43 -5.5t41.5 -16t35 -26t24.5 -35.5v271h20v-271q8 20 24 35.5t35.5 26t41.5 16t43 5.5q86 0 137.5 -67t51.5 -202q0 -65 -14 -115t-39 -84t-59.5 -51.5
t-75.5 -17.5q-26 0 -49 6.5t-42.5 18t-33.5 26.5t-20 32v-248h-20v248zM223 9q28 0 54 9t46.5 26t32.5 41t12 54v240q0 28 -12 51.5t-32.5 40.5t-46.5 26t-53 9q-37 0 -68 -15t-53.5 -46t-35 -77.5t-12.5 -110.5q0 -62 13 -108.5t35.5 -77.5t53 -46.5t66.5 -15.5zM533 9
q36 0 66.5 15.5t53 46.5t35.5 77.5t13 108.5q0 64 -12.5 110.5t-35 77.5t-53.5 46t-68 15q-27 0 -53 -9t-46.5 -26t-32.5 -40.5t-12 -51.5v-240q0 -30 12 -54t32.5 -41t46.5 -26t54 -9z" />
    <glyph glyph-name="afii10087" unicode="&#x445;" horiz-adv-x="407" 
d="M191 266l-187 248h26l173 -233l177 233h24l-188 -248l206 -266h-25l-194 251l-193 -251h-24z" />
    <glyph glyph-name="afii10088" unicode="&#x446;" horiz-adv-x="510" 
d="M489 0h-434v514h20v-494h340v494h20v-494h74v-186h-20v166z" />
    <glyph glyph-name="afii10089" unicode="&#x447;" horiz-adv-x="462" 
d="M387 245q-34 -15 -83 -29t-106 -14q-39 0 -69.5 7t-51 24t-31.5 45.5t-11 71.5v164h20v-161q0 -75 38.5 -103t104.5 -28q57 0 105.5 14t83.5 31v247h20v-514h-20v245z" />
    <glyph glyph-name="afii10090" unicode="&#x448;" horiz-adv-x="758" 
d="M55 514h20v-494h294v494h20v-494h294v494h20v-514h-648v514z" />
    <glyph glyph-name="afii10091" unicode="&#x449;" horiz-adv-x="778" 
d="M757 0h-702v514h20v-494h294v494h20v-494h294v494h20v-494h74v-186h-20v166z" />
    <glyph glyph-name="afii10092" unicode="&#x44a;" horiz-adv-x="561" 
d="M163 494h-173v20h193v-226h208q75 0 115.5 -38t40.5 -104t-43.5 -106t-119.5 -40h-221v494zM384 20q69 0 106 34.5t37 91.5t-33.5 89.5t-102.5 32.5h-208v-248h201z" />
    <glyph glyph-name="afii10093" unicode="&#x44b;" horiz-adv-x="611" 
d="M55 514h20v-226h197q75 0 115.5 -38t40.5 -104t-43.5 -106t-119.5 -40h-210v514zM265 20q69 0 106 34.5t37 91.5t-33.5 89.5t-102.5 32.5h-197v-248h190zM536 514h20v-514h-20v514z" />
    <glyph glyph-name="afii10094" unicode="&#x44c;" horiz-adv-x="453" 
d="M55 514h20v-226h208q75 0 115.5 -38t40.5 -104t-43.5 -106t-119.5 -40h-221v514zM276 20q69 0 106 34.5t37 91.5t-33.5 89.5t-102.5 32.5h-208v-248h201z" />
    <glyph glyph-name="afii10095" unicode="&#x44d;" 
d="M237 -11q-42 0 -78.5 13.5t-64 37.5t-45 57.5t-21.5 74.5h21q12 -78 62 -121.5t128 -43.5q46 0 84 18t65 50.5t42 78t15 101.5v3h-280v20h279q-3 53 -20 95.5t-45 72t-65.5 45.5t-81.5 16q-73 0 -120 -37.5t-58 -100.5h-20q12 73 65 115t134 42q52 0 95 -19.5t73.5 -54.5
t47 -85t16.5 -111t-16 -110t-45.5 -84t-72 -54t-94.5 -19z" />
    <glyph glyph-name="afii10096" unicode="&#x44e;" horiz-adv-x="699" 
d="M439 -12q-50 0 -92.5 19.5t-73 55t-48 83.5t-17.5 105v6h-133v-257h-20v514h20v-238h134q3 56 21 102t48.5 79t71.5 51t90 18q51 0 93 -20t73 -55.5t48 -85t17 -108.5t-17 -108.5t-47.5 -85t-73.5 -55.5t-94 -20zM440 8q46 0 85 18t67 51t43.5 78.5t15.5 101.5
q0 54 -15.5 100t-43.5 79t-67 51.5t-85 18.5t-84.5 -18.5t-67 -51t-44.5 -77.5t-16 -97q0 -57 15.5 -104t43 -80t66.5 -51.5t87 -18.5z" />
    <glyph glyph-name="afii10097" unicode="&#x44f;" horiz-adv-x="477" 
d="M187 225q-32 1 -59 12t-47 30t-31.5 46t-11.5 62q0 66 44 102.5t119 36.5h221v-514h-20v225h-189l-187 -225h-27zM402 245v249h-201q-70 0 -106.5 -31t-36.5 -88q0 -63 38 -96.5t101 -33.5h205z" />
    <glyph glyph-name="uni0450" unicode="&#x450;" 
d="M250 -11q-60 0 -102.5 20.5t-69.5 56.5t-40 85t-13 106q0 64 19 114t50 84.5t71.5 52.5t84.5 18q60 0 103.5 -23t71 -61t40 -87.5t10.5 -101.5h-430q1 -52 12.5 -96.5t35.5 -77.5t62 -52t93 -19q81 0 134.5 42.5t66.5 127.5h20q-6 -45 -24.5 -80t-47 -59.5t-66 -37
t-81.5 -12.5zM455 273q0 47 -13 89.5t-38.5 74.5t-63.5 50.5t-88 18.5q-42 0 -78.5 -16t-64 -46.5t-44.5 -73.5t-20 -97h410zM177 709l124 -144h-15l-138 144h29z" />
    <glyph glyph-name="afii10071" unicode="&#x451;" 
d="M250 -11q-60 0 -102.5 20.5t-69.5 56.5t-40 85t-13 106q0 64 19 114t50 84.5t71.5 52.5t84.5 18q60 0 103.5 -23t71 -61t40 -87.5t10.5 -101.5h-430q1 -52 12.5 -96.5t35.5 -77.5t62 -52t93 -19q81 0 134.5 42.5t66.5 127.5h20q-6 -45 -24.5 -80t-47 -59.5t-66 -37
t-81.5 -12.5zM455 273q0 47 -13 89.5t-38.5 74.5t-63.5 50.5t-88 18.5q-42 0 -78.5 -16t-64 -46.5t-44.5 -73.5t-20 -97h410zM317 649h20v-81h-20v81zM162 649h20v-81h-20v81z" />
    <glyph glyph-name="afii10099" unicode="&#x452;" horiz-adv-x="510" 
d="M243 -188h-17t-18 1v20q7 -1 18.5 -1.5t21.5 -0.5q90 0 138.5 46.5t48.5 153.5v297q0 78 -43 123t-119 45q-42 0 -76.5 -15.5t-59.5 -44t-38.5 -68t-13.5 -87.5v-281h-20v593h-80v19h80v102h20v-102h251v-19h-251v-216h2q7 29 22.5 54.5t39 44t54.5 29.5t69 11
q84 0 133.5 -50t49.5 -135v-299q0 -106 -50 -163t-162 -57z" />
    <glyph glyph-name="afii10100" unicode="&#x453;" horiz-adv-x="368" 
d="M61 514h313v-20h-293v-494h-20v514zM174 565h-15l132 144h29z" />
    <glyph glyph-name="afii10101" unicode="&#x454;" 
d="M263 -11q-51 0 -93 18t-72 52.5t-46.5 84t-16.5 112.5q0 61 16.5 111t47 85t73 54.5t95.5 19.5q81 0 134 -42t66 -115h-20q-11 63 -58.5 100.5t-120.5 37.5q-45 0 -82.5 -16t-65.5 -45.5t-44.5 -72t-19.5 -95.5h279v-20h-280v-3q0 -56 15 -101.5t42 -78t65 -50.5t84 -18
q78 0 128.5 43.5t61.5 121.5h21q-14 -87 -68 -135t-141 -48z" />
    <glyph glyph-name="afii10102" unicode="&#x455;" horiz-adv-x="463" 
d="M238 -11q-103 0 -155.5 45t-52.5 142h20q0 -88 48.5 -128t139.5 -40q28 0 57.5 6.5t53.5 21t39.5 37.5t15.5 56q0 34 -15.5 55t-40 34.5t-56.5 21.5t-65 16q-37 9 -65 17t-50 18q-32 14 -47 39t-15 67q0 21 9 44t30 42t54 31t81 12q86 0 136 -39t50 -125h-20q0 39 -12 66
t-34 44.5t-52.5 25.5t-67.5 8q-54 0 -85 -14.5t-46 -33t-19 -36.5t-4 -25q0 -38 15.5 -58.5t41.5 -31.5q27 -11 58.5 -19t73.5 -19q30 -8 59.5 -16.5t53 -23.5t38 -38t14.5 -60q0 -39 -16.5 -66t-43 -44t-60 -24.5t-66.5 -7.5z" />
    <glyph glyph-name="afii10103" unicode="&#x456;" horiz-adv-x="130" 
d="M55 514h20v-514h-20v514zM55 714h20v-101h-20v101z" />
    <glyph glyph-name="afii10104" unicode="&#x457;" horiz-adv-x="130" 
d="M133 649h20v-81h-20v81zM-22 649h20v-81h-20v81zM55 514h20v-514h-20v514z" />
    <glyph glyph-name="afii10105" unicode="&#x458;" horiz-adv-x="130" 
d="M-48 -156q28 0 48 2t32 10.5t17.5 26.5t5.5 50v581h20v-588q0 -35 -8.5 -55.5t-24 -31t-38.5 -13t-52 -2.5v20zM55 714h20v-101h-20v101z" />
    <glyph glyph-name="afii10106" unicode="&#x459;" horiz-adv-x="852" 
d="M47 -6q-35 0 -57 6v22q12 -4 25 -6t31 -2q42 0 64.5 41.5t33 111t12.5 159.5t2 188h316v-226h208q75 0 115.5 -38t40.5 -104t-43.5 -106t-119.5 -40h-221v494h-276q0 -95 -2 -185t-14.5 -160t-39 -112.5t-75.5 -42.5zM675 20q69 0 106 34.5t37 91.5t-33.5 89.5
t-102.5 32.5h-208v-248h201z" />
    <glyph glyph-name="afii10107" unicode="&#x45a;" horiz-adv-x="823" 
d="M55 514h20v-226h350v226h20v-226h208q75 0 115.5 -38t40.5 -104t-43.5 -106t-119.5 -40h-221v268h-350v-268h-20v514zM646 20q69 0 106 34.5t37 91.5t-33.5 89.5t-102.5 32.5h-208v-248h201z" />
    <glyph glyph-name="afii10108" unicode="&#x45b;" horiz-adv-x="510" 
d="M65 593h-80v19h80v102h20v-102h251v-19h-251v-216h2q15 60 62.5 99.5t122.5 39.5q84 0 133.5 -50t49.5 -135v-331h-20v328q0 78 -43 123t-119 45q-42 0 -76.5 -15.5t-59.5 -44t-38.5 -68t-13.5 -87.5v-281h-20v593z" />
    <glyph glyph-name="afii10109" unicode="&#x45c;" horiz-adv-x="444" 
d="M55 514h20v-307l345 307h29l-233 -208l245 -306h-27l-233 292l-126 -111v-181h-20v514zM206 565h-15l132 144h29z" />
    <glyph glyph-name="uni045D" unicode="&#x45d;" horiz-adv-x="510" 
d="M55 514h20v-496h2l347 496h31v-514h-20v496h-2l-347 -496h-31v514zM187 709l124 -144h-15l-138 144h29z" />
    <glyph glyph-name="afii10110" unicode="&#x45e;" horiz-adv-x="407" 
d="M46 -176q23 0 43 1.5t37.5 8.5t31.5 21.5t24 40.5l237 618h-21l-184 -487l-204 487h-21l214 -509l-37 -95q-9 -23 -19 -36.5t-24 -20t-32.5 -8t-44.5 -1.5v-20zM214 602q107 0 125 107h-20q-14 -87 -104 -87q-85 0 -102 87h-20q20 -107 121 -107z" />
    <glyph glyph-name="afii10193" unicode="&#x45f;" horiz-adv-x="490" 
d="M234 0h-179v514h20v-494h340v494h20v-514h-181v-177h-20v177z" />
    <glyph glyph-name="afii10146" unicode="&#x462;" horiz-adv-x="687" 
d="M161 570h-171v20h171v124h20v-124h273v-20h-273v-171h269q106 0 161.5 -51t55.5 -145q0 -46 -15.5 -83.5t-45 -64t-71.5 -41t-95 -14.5h-279v570zM449 20q45 0 81.5 13.5t62 38t39.5 58t14 74.5q0 85 -50 130t-147 45h-268v-359h268z" />
    <glyph glyph-name="afii10194" unicode="&#x463;" horiz-adv-x="529" 
d="M131 494h-141v20h141v200h20v-200h241v-20h-241v-206h208q75 0 115.5 -38t40.5 -104t-43.5 -106t-119.5 -40h-221v494zM352 20q69 0 106 34.5t37 91.5t-33.5 89.5t-102.5 32.5h-208v-248h201z" />
    <glyph glyph-name="uni046A" unicode="&#x46a;" horiz-adv-x="920" 
d="M54 134q0 63 4.5 109.5t26 77.5t67 46t126.5 15h166l-256 332h546l-257 -332h165q81 0 126.5 -15t67 -46t26 -77.5t4.5 -109.5v-134h-20v132q0 59 -3.5 102.5t-23 72t-61 42t-116.5 13.5h-172v-362h-20v362h-172q-75 0 -116.5 -13.5t-61 -42t-23 -72t-3.5 -102.5v-132
h-20v134zM693 694h-465l232 -300z" />
    <glyph glyph-name="uni046B" unicode="&#x46b;" horiz-adv-x="674" 
d="M40 130q0 43 11 71.5t31.5 45.5t51 24t69.5 7h116l-182 236h400l-183 -236h117q39 0 69.5 -7t51 -24t31.5 -45.5t11 -71.5v-130h-20v127q0 75 -38.5 103t-104.5 28h-124v-258h-20v258h-124q-66 0 -104.5 -28t-38.5 -103v-127h-20v130zM497 494h-319l158 -207z" />
    <glyph glyph-name="afii10147" unicode="&#x472;" horiz-adv-x="721" 
d="M361 -16q-80 0 -141.5 29.5t-103 80.5t-63 118.5t-21.5 144.5q0 76 21.5 144t63 119t103 81t141.5 30t141.5 -30t103 -81t63 -119t21.5 -144q0 -77 -21.5 -144.5t-63 -118.5t-103 -80.5t-141.5 -29.5zM361 3q72 0 129.5 26.5t97 73.5t61 112t21.5 142q0 11 -0.5 21
t-1.5 20q-12 -14 -26 -27t-33 -23.5t-42.5 -17t-53.5 -6.5q-38 0 -80 15.5t-83.5 33.5t-79 33.5t-65.5 15.5q-51 0 -87 -20t-65 -68q4 -72 26.5 -133t62 -105t95 -68.5t124.5 -24.5zM511 344q31 0 54.5 7.5t42 19.5t32 26t25.5 28q-9 63 -33.5 116t-63.5 90.5t-91 58.5
t-116 21q-71 0 -127 -25.5t-95.5 -71t-61.5 -108t-25 -137.5q29 36 68.5 54.5t84.5 18.5q32 0 72 -15.5t81 -33.5t81 -33.5t72 -15.5z" />
    <glyph glyph-name="afii10195" unicode="&#x473;" horiz-adv-x="519" 
d="M259 -11q-56 0 -99 22t-72.5 59t-44.5 85.5t-15 101.5q0 52 15 101t44.5 86t72.5 59.5t100 22.5q56 0 99 -22.5t72.5 -59.5t44.5 -86t15 -101q0 -53 -15 -101.5t-44.5 -85.5t-72.5 -59t-100 -22zM260 8q51 0 90.5 20.5t66.5 55t40.5 79.5t13.5 94v6q-17 -17 -41 -29.5
t-62 -12.5q-25 0 -53.5 12t-58 26.5t-59 26.5t-55.5 12q-56 0 -94 -50q1 -48 15 -91.5t41 -76.5t66 -52.5t90 -19.5zM370 241q29 0 54.5 12.5t44.5 36.5q-5 43 -20.5 82t-41.5 69t-63 47.5t-84 17.5q-50 0 -88 -19t-65 -51t-41.5 -73.5t-17.5 -86.5q17 16 40.5 28.5
t59.5 12.5q26 0 56 -12t60 -26t57.5 -26t48.5 -12z" />
    <glyph glyph-name="afii10148" unicode="&#x474;" horiz-adv-x="554" 
d="M-17 714h19l260 -688h2l220 608q17 46 40 70t59 24q17 0 26 -1.5t20 -3.5v-21q-13 3 -21.5 4.5t-23.5 1.5q-27 0 -46 -20t-33 -58l-231 -630h-22z" />
    <glyph glyph-name="afii10196" unicode="&#x475;" horiz-adv-x="443" 
d="M-11 514h23l189 -494h2l150 431q13 36 34 55.5t54 19.5q17 0 27 -2t15 -4v-20q-8 2 -19 4t-22 2q-27 0 -44 -17.5t-28 -49.5l-155 -439h-25z" />
    <glyph glyph-name="uni048C" unicode="&#x48c;" horiz-adv-x="687" 
d="M161 694h-171v20h171v124h20v-124h193v-20h-193v-295h269q106 0 161.5 -51t55.5 -145q0 -46 -15.5 -83.5t-45 -64t-71.5 -41t-95 -14.5h-279v694zM449 20q45 0 81.5 13.5t62 38t39.5 58t14 74.5q0 85 -50 130t-147 45h-268v-359h268z" />
    <glyph glyph-name="uni048D" unicode="&#x48d;" horiz-adv-x="539" 
d="M141 494h-151v20h151v116h20v-116h151v-20h-151v-206h208q75 0 115.5 -38t40.5 -104t-43.5 -106t-119.5 -40h-221v494zM362 20q69 0 106 34.5t37 91.5t-33.5 89.5t-102.5 32.5h-208v-248h201z" />
    <glyph glyph-name="afii10050" unicode="&#x490;" horiz-adv-x="463" 
d="M54 714h399v161h20v-181h-399v-694h-20v714z" />
    <glyph glyph-name="afii10098" unicode="&#x491;" horiz-adv-x="368" 
d="M61 514h293v157h20v-177h-293v-494h-20v514z" />
    <glyph glyph-name="uni0492" unicode="&#x492;" horiz-adv-x="552" 
d="M143 362h-123v20h123v332h419v-20h-399v-312h231v-20h-231v-362h-20v362z" />
    <glyph glyph-name="uni0493" unicode="&#x493;" horiz-adv-x="430" 
d="M113 255h-96v20h96v239h313v-20h-293v-219h187v-20h-187v-255h-20v255z" />
    <glyph glyph-name="uni0496" unicode="&#x496;" horiz-adv-x="1014" 
d="M332 404l-304 310h28l423 -434v434h20v-434l423 434h28l-304 -310l326 -384h72v-196h-20v176h-62l-330 390l-133 -137v-253h-20v253l-133 137l-330 -390h-27z" />
    <glyph glyph-name="uni0497" unicode="&#x497;" horiz-adv-x="741" 
d="M224 299l-213 215h28l302 -305v305h20v-305l302 305h28l-213 -215l221 -279h62v-186h-20v166h-52l-226 285l-102 -102v-183h-20v183l-102 102l-226 -285h-26z" />
    <glyph glyph-name="uni0498" unicode="&#x498;" horiz-adv-x="594" 
d="M215 -146q16 -6 34 -11t38 -5q14 0 28 2.5t25 8.5t18 16.5t7 25.5q0 10 -6 18t-14 12.5t-17.5 7t-17.5 2.5q-32 0 -54 -13l-15 10l44 56q-51 3 -92 17q-49 17 -83 50t-52.5 80t-18.5 107h20v-3q0 -109 63.5 -170t181.5 -61q52 0 95.5 15t74.5 42t48 64.5t17 82.5
q0 72 -51.5 115.5t-142.5 43.5h-100v20h100q85 0 133 40t48 115q0 81 -57 125t-157 44q-112 0 -167 -50t-65 -147h-20q11 103 71.5 160t180.5 57q52 0 95.5 -12.5t74.5 -36.5t48 -59t17 -81q0 -63 -34.5 -108.5t-110.5 -55.5v-2q33 -2 61.5 -15t50 -35.5t34 -52.5t12.5 -65
q0 -51 -19 -92t-53.5 -70.5t-81.5 -45.5q-46 -15 -100 -16l-29 -39q7 1 13 3.5t20 2.5q29 0 52 -13.5t23 -46.5q0 -22 -8 -36t-21.5 -22.5t-31 -11.5t-37.5 -3q-26 0 -46.5 6t-34.5 11l9 19v0z" />
    <glyph glyph-name="uni0499" unicode="&#x499;" horiz-adv-x="463" 
d="M135 -146q16 -6 34 -11t38 -5q14 0 28 2.5t25 8.5t18 16.5t7 25.5q0 10 -6 18t-14 12.5t-17.5 7t-17.5 2.5q-32 0 -54 -13l-15 10l45 58q-88 3 -131 48q-47 49 -47 134v2h20v-3q0 -78 44.5 -120.5t129.5 -42.5q38 0 71 10.5t57.5 29.5t38.5 45.5t14 59.5q0 51 -37.5 81
t-103.5 30h-74v20h74q61 0 96 27.5t35 81.5q0 58 -45 87.5t-117 29.5q-81 0 -120 -33.5t-47 -102.5h-20q7 74 50.5 115t136.5 41q82 0 132 -35.5t50 -101.5q0 -45 -23.5 -77.5t-80.5 -39.5v-2q24 -1 44.5 -10.5t36 -25.5t24.5 -38t9 -47q0 -36 -14.5 -66.5t-41 -52
t-63.5 -33.5q-35 -11 -77 -12l-30 -40q7 1 13 3.5t20 2.5q29 0 52 -13.5t23 -46.5q0 -22 -8 -36t-21.5 -22.5t-31 -11.5t-37.5 -3q-26 0 -46.5 6t-34.5 11l9 19v0z" />
    <glyph glyph-name="uni049A" unicode="&#x49a;" horiz-adv-x="643" 
d="M653 0h-61l-354 398l-164 -145v-253h-20v714h20v-434l495 434h30l-345 -304l347 -390h72v-196h-20v176z" />
    <glyph glyph-name="uni049B" unicode="&#x49b;" horiz-adv-x="488" 
d="M488 0h-54l-233 292l-126 -111v-181h-20v514h20v-307l345 307h29l-233 -208l229 -286h63v-186h-20v166z" />
    <glyph glyph-name="uni049C" unicode="&#x49c;" horiz-adv-x="593" 
d="M54 714h20v-332h130v172h20v-172h43l315 332h25l-322 -341l334 -373h-25l-326 362h-44v-182h-20v182h-130v-362h-20v714z" />
    <glyph glyph-name="uni049D" unicode="&#x49d;" horiz-adv-x="444" 
d="M55 514h20v-236h89v136h20v-136h25l211 236h24l-218 -245l236 -269h-25l-228 258h-25v-138h-20v138h-89v-258h-20v514z" />
    <glyph glyph-name="uni04A0" unicode="&#x4a0;" horiz-adv-x="736" 
d="M197 694h-216v20h236v-434l495 434h30l-345 -304l365 -410h-27l-354 398l-164 -145v-253h-20v694z" />
    <glyph glyph-name="uni04A1" unicode="&#x4a1;" horiz-adv-x="552" 
d="M163 494h-173v20h193v-307l345 307h29l-233 -208l245 -306h-27l-233 292l-126 -111v-181h-20v494z" />
    <glyph glyph-name="uni04A2" unicode="&#x4a2;" horiz-adv-x="684" 
d="M654 0h-80v362h-500v-362h-20v714h20v-332h500v332h20v-694h80v-196h-20v176z" />
    <glyph glyph-name="uni04A3" unicode="&#x4a3;" horiz-adv-x="520" 
d="M499 0h-74v258h-350v-258h-20v514h20v-236h350v236h20v-494h74v-186h-20v166z" />
    <glyph glyph-name="uni04A4" unicode="&#x4a4;" horiz-adv-x="983" 
d="M54 714h20v-332h500v332h419v-20h-399v-694h-20v362h-500v-362h-20v714z" />
    <glyph glyph-name="uni04A5" unicode="&#x4a5;" horiz-adv-x="732" 
d="M55 514h20v-236h350v236h313v-20h-293v-494h-20v258h-350v-258h-20v514z" />
    <glyph glyph-name="uni04AA" unicode="&#x4aa;" horiz-adv-x="685" 
d="M265 -146q16 -6 34 -11t38 -5q14 0 28 2.5t25 8.5t18 16.5t7 25.5q0 10 -6 18t-14 12.5t-17.5 7t-17.5 2.5q-32 0 -54 -13l-15 10l44 56q-64 3 -118 27q-59 28 -101.5 76.5t-66.5 116t-24 147.5q0 65 18.5 132.5t58.5 122.5t104 90t155 35q71 0 124 -23.5t88.5 -59
t53.5 -75.5t19 -73h-20q-3 39 -23 76.5t-54.5 67.5t-82 48.5t-105.5 18.5q-59 0 -105 -16.5t-81 -44t-60 -64t-40.5 -76.5t-22.5 -81t-7 -78q0 -68 20 -131t59 -111t95.5 -77t128.5 -29q64 0 115 21t88 58t60 88t31 110h20q-9 -65 -34 -119.5t-64.5 -93.5t-94.5 -61
q-51 -20 -113 -22l-29 -39q7 1 13 3.5t20 2.5q29 0 52 -13.5t23 -46.5q0 -22 -8 -36t-21.5 -22.5t-31 -11.5t-37.5 -3q-26 0 -46.5 6t-34.5 11l9 19v0z" />
    <glyph glyph-name="uni04AB" unicode="&#x4ab;" 
d="M175 -146q16 -6 34 -11t38 -5q14 0 28 2.5t25 8.5t18 16.5t7 25.5q0 10 -6 18t-14 12.5t-17.5 7t-17.5 2.5q-32 0 -54 -13l-15 10l48 61q-49 2 -88 20q-42 21 -71 56t-44 81.5t-15 99.5q0 55 14.5 106t44 89.5t74.5 61.5t107 23q36 0 69 -11t59 -32t43.5 -52.5
t22.5 -72.5h-20q-6 37 -22 65t-39 46.5t-52 27.5t-61 9q-62 0 -104 -23.5t-67.5 -61t-37 -84t-11.5 -91.5q0 -47 13.5 -90t39.5 -76t65 -52.5t90 -19.5q37 0 70.5 11.5t59 33.5t41.5 52.5t19 69.5h20q-4 -43 -21 -77.5t-44.5 -58.5t-64.5 -37q-32 -11 -69 -13l-33 -44
q7 1 13 3.5t20 2.5q29 0 52 -13.5t23 -46.5q0 -22 -8 -36t-21.5 -22.5t-31 -11.5t-37.5 -3q-26 0 -46.5 6t-34.5 11l9 19v0z" />
    <glyph glyph-name="uni04AE" unicode="&#x4ae;" horiz-adv-x="538" 
d="M259 301l-288 413h25l273 -392l275 392h24l-289 -413v-301h-20v301z" />
    <glyph glyph-name="uni04AF" unicode="&#x4af;" horiz-adv-x="407" 
d="M202 0l-213 514h23l199 -489h2l184 489h22l-197 -514v-176h-20v176z" />
    <glyph glyph-name="uni04B0" unicode="&#x4b0;" horiz-adv-x="538" 
d="M259 187h-172v20h172v94l-288 413h25l273 -392l275 392h24l-289 -413v-94h172v-20h-172v-187h-20v187z" />
    <glyph glyph-name="uni04B1" unicode="&#x4b1;" horiz-adv-x="407" 
d="M202 -76h-140v20h140v56l-213 514h23l199 -489h2l184 489h22l-197 -514v-56h135v-20h-135v-100h-20v100z" />
    <glyph glyph-name="uni04B2" unicode="&#x4b2;" horiz-adv-x="568" 
d="M578 0h-56l-261 351l-262 -351h-25l274 367l-259 347h25l247 -331l249 331h25l-260 -347l257 -347h66v-196h-20v176z" />
    <glyph glyph-name="uni04B3" unicode="&#x4b3;" horiz-adv-x="447" 
d="M447 0h-50l-194 251l-193 -251h-24l205 266l-187 248h26l173 -233l177 233h24l-188 -248l190 -246h61v-186h-20v166z" />
    <glyph glyph-name="uni04B6" unicode="&#x4b6;" horiz-adv-x="614" 
d="M584 0h-80v353q-20 -9 -48 -19.5t-60.5 -19.5t-68 -15t-69.5 -6q-81 0 -126.5 15t-67 46t-26 77.5t-4.5 109.5v173h20v-171q0 -59 3.5 -102.5t23 -72t61 -42t116.5 -13.5q29 0 62 5.5t65.5 14t63 19t55.5 21.5v341h20v-694h80v-196h-20v176z" />
    <glyph glyph-name="uni04B7" unicode="&#x4b7;" horiz-adv-x="482" 
d="M461 0h-74v245q-34 -15 -83 -29t-106 -14q-39 0 -69.5 7t-51 24t-31.5 45.5t-11 71.5v164h20v-161q0 -75 38.5 -103t104.5 -28q57 0 105.5 14t83.5 31v247h20v-494h74v-186h-20v166z" />
    <glyph glyph-name="uni04B8" unicode="&#x4b8;" horiz-adv-x="578" 
d="M504 353q-17 -8 -40.5 -17t-51 -17.5t-58 -15t-60.5 -9.5v-174h-20v173h-16q-81 0 -126.5 15t-67 46t-26 77.5t-4.5 109.5v173h20v-171q0 -59 3.5 -102.5t23 -72t61 -42t116.5 -13.5h16v181h20v-179q54 5 110.5 22t99.5 36v341h20v-714h-20v353z" />
    <glyph glyph-name="uni04B9" unicode="&#x4b9;" horiz-adv-x="462" 
d="M387 245q-28 -13 -66.5 -24.5t-83.5 -16.5v-135h-20v133h-19q-39 0 -69.5 7t-51 24t-31.5 45.5t-11 71.5v164h20v-161q0 -75 38.5 -103t104.5 -28h19v141h20v-139q45 5 83 17t67 26v247h20v-514h-20v245z" />
    <glyph glyph-name="uni04BA" unicode="&#x4ba;" horiz-adv-x="598" 
d="M54 714h20v-343q20 9 48 19.5t60.5 19.5t67.5 15t70 6q81 0 126.5 -15t67 -46t26 -77.5t4.5 -109.5v-183h-20v181q0 59 -3.5 102.5t-23 72t-61 42t-116.5 13.5q-29 0 -62 -5.5t-65.5 -14t-63 -19t-55.5 -21.5v-351h-20v714z" />
    <glyph glyph-name="uni04BB" unicode="&#x4bb;" 
d="M55 714h20v-327h2q7 30 22.5 55t39 44t54.5 29.5t69 10.5q40 0 73.5 -12t58 -35.5t38 -58t13.5 -79.5v-341h-20v338q0 45 -13 76.5t-35.5 52t-52 30t-62.5 9.5q-46 0 -81 -17.5t-58.5 -47t-35.5 -68.5t-12 -82v-291h-20v714z" />
    <glyph glyph-name="uni04C0" unicode="&#x4c0;" horiz-adv-x="128" 
d="M54 714h20v-714h-20v714z" />
    <glyph glyph-name="uni04C1" unicode="&#x4c1;" horiz-adv-x="978" 
d="M-11 0h27l330 390l133 -137v-253h20v253l133 137l330 -390h27l-343 404l304 310h-28l-423 -434v434h-20v-434l-423 434h-28l304 -310zM486 802q107 0 125 107h-20q-14 -87 -104 -87q-85 0 -102 87h-20q20 -107 121 -107z" />
    <glyph glyph-name="uni04C2" unicode="&#x4c2;" horiz-adv-x="702" 
d="M-13 0l237 299l-213 215h28l302 -305v305h20v-305l302 305h28l-213 -215l237 -299h-26l-226 285l-102 -102v-183h-20v183l-102 102l-226 -285h-26zM349 602q107 0 125 107h-20q-14 -87 -104 -87q-85 0 -102 87h-20q20 -107 121 -107z" />
    <glyph glyph-name="uni04D0" unicode="&#x4d0;" horiz-adv-x="575" 
d="M-11 0h22l95 235h364l94 -235h22l-282 714h-26zM114 255l176 439h2l170 -439h-348zM287 802q107 0 125 107h-20q-14 -87 -104 -87q-85 0 -102 87h-20q20 -107 121 -107z" />
    <glyph glyph-name="uni04D1" unicode="&#x4d1;" horiz-adv-x="481" 
d="M194 -11q40 0 74 10.5t60 28.5t44 41t26 48h2v-67q0 -29 16.5 -39.5t38.5 -10.5h30v20q-10 -1 -21.5 -1.5t-21 2t-16 9.5t-6.5 22v327q-1 42 -15 70t-37 45.5t-53.5 24.5t-64.5 7q-48 0 -83.5 -13t-60 -36t-37.5 -54.5t-15 -67.5h20q5 72 50 111.5t126 39.5
q51 0 81 -13.5t45.5 -34.5t19.5 -46t4 -48q0 -29 -11.5 -44.5t-36 -23t-62.5 -10t-91 -5.5q-32 -2 -64 -8.5t-57 -23t-40.5 -45.5t-15.5 -77q0 -69 47 -103.5t125 -34.5zM192 8q-42 0 -70.5 10.5t-46.5 27t-25.5 38t-7.5 43.5q0 41 13 66.5t35 40t50.5 20t58.5 7.5t61.5 3
t58.5 5t48 11.5t31 21.5h2v-95q0 -38 -13.5 -74t-40 -63.5t-65.5 -44.5t-89 -17zM243 602q107 0 125 107h-20q-14 -87 -104 -87q-85 0 -102 87h-20q20 -107 121 -107z" />
    <glyph glyph-name="uni04D2" unicode="&#x4d2;" horiz-adv-x="575" 
d="M278 714h26l282 -714h-22l-94 235h-364l-95 -235h-22zM462 255l-170 439h-2l-176 -439h348zM355 849h20v-81h-20v81zM200 849h20v-81h-20v81z" />
    <glyph glyph-name="uni04D3" unicode="&#x4d3;" horiz-adv-x="481" 
d="M194 -11q-78 0 -125 34.5t-47 103.5q0 48 15.5 77t40.5 45.5t57 23t64 8.5q53 3 91 5.5t62.5 10t36 23t11.5 44.5q0 23 -4 48t-19.5 46t-45.5 34.5t-81 13.5q-81 0 -126 -39.5t-50 -111.5h-20q2 36 15 67.5t37.5 54.5t60 36t83.5 13q34 0 64.5 -7t53.5 -24.5t37 -45.5
t15 -70v-327q0 -15 6.5 -22t16 -9.5t21 -2t21.5 1.5v-20h-30q-22 0 -38.5 10.5t-16.5 39.5v67h-2q-8 -25 -26 -48t-44 -41t-60 -28.5t-74 -10.5zM192 8q50 0 89 17t65.5 44.5t40 63.5t13.5 74v95h-2q-10 -14 -31 -21.5t-48 -11.5t-58.5 -5t-61.5 -3t-58.5 -7.5t-50.5 -20
t-35 -40t-13 -66.5q0 -22 7.5 -43.5t25.5 -38t46.5 -27t70.5 -10.5zM308 649h20v-81h-20v81zM153 649h20v-81h-20v81z" />
    <glyph glyph-name="uni04D4" unicode="&#x4d4;" horiz-adv-x="852" 
d="M366 714h469v-20h-392v-312h360v-20h-360v-342h392v-20h-412v274h-268l-145 -274h-21zM423 294v400h-47l-211 -400h258z" />
    <glyph glyph-name="uni04D5" unicode="&#x4d5;" horiz-adv-x="889" 
d="M204 -11q-78 0 -125 34.5t-47 103.5q0 48 15.5 77t40.5 45.5t57 23t64 8.5q53 3 91 5.5t62.5 10t36 23t11.5 44.5q0 23 -4 48t-19.5 46t-45.5 34.5t-81 13.5q-81 0 -126 -39.5t-50 -111.5h-20q2 36 15 67.5t37.5 54.5t60 36t83.5 13q34 0 64.5 -7.5t53.5 -24.5t37 -46
t15 -72h2q10 32 28 59.5t44 47.5t59 31.5t74 11.5q58 0 100.5 -22.5t69.5 -60t39.5 -87t10.5 -103.5h-427q2 -51 13.5 -95.5t35.5 -78t62 -52.5t94 -19q38 0 72 11t60.5 32.5t44 53t22.5 73.5h20q-4 -42 -22 -77t-46.5 -60t-67 -38.5t-83.5 -13.5q-85 0 -138.5 42.5
t-73.5 123.5h-2q-17 -79 -76 -122.5t-141 -43.5zM202 8q50 0 89 17t65.5 44.5t40 63.5t13.5 74v95h-2q-10 -14 -31 -21.5t-48 -11.5t-58.5 -5t-61.5 -3t-58.5 -7.5t-50.5 -20t-35 -40t-13 -66.5q0 -22 7.5 -43.5t25.5 -38t46.5 -27t70.5 -10.5zM837 273q0 48 -12.5 90.5
t-37 74t-62 50t-88.5 18.5q-47 0 -84 -16.5t-63 -47t-41 -73.5t-19 -96h407z" />
    <glyph glyph-name="uni04D6" unicode="&#x4d6;" horiz-adv-x="537" 
d="M54 0h478v20h-458v342h427v20h-427v312h454v20h-474v-714zM293 802q107 0 125 107h-20q-14 -87 -104 -87q-85 0 -102 87h-20q20 -107 121 -107z" />
    <glyph glyph-name="uni04D7" unicode="&#x4d7;" 
d="M250 -11q44 0 81.5 12.5t66 37t47 59.5t24.5 80h-20q-13 -85 -66.5 -127.5t-134.5 -42.5q-55 0 -93 19t-62 52t-35.5 77.5t-12.5 96.5h430q2 52 -10.5 101.5t-40 87.5t-71 61t-103.5 23q-44 0 -84.5 -18t-71.5 -52.5t-50 -84.5t-19 -114q0 -57 13 -106t40 -85t69.5 -56.5
t102.5 -20.5zM45 273q3 54 20 97t44.5 73.5t64 46.5t78.5 16q50 0 88 -18.5t63.5 -50.5t38.5 -74.5t13 -89.5h-410zM253 602q107 0 125 107h-20q-14 -87 -104 -87q-85 0 -102 87h-20q20 -107 121 -107z" />
    <glyph glyph-name="uni04D8" unicode="&#x4d8;" horiz-adv-x="701" 
d="M341 -16q-87 0 -146 29.5t-95 80.5t-52 118.5t-16 144.5v25h617q-3 72 -26.5 132.5t-64 104t-97 68t-125.5 24.5q-48 0 -92 -13.5t-79.5 -38.5t-61.5 -62t-38 -83h-20q9 46 35 86t64.5 69t87 45.5t101.5 16.5h3q80 0 142 -30t105 -81t65 -119t22 -144q0 -77 -21.5 -144.5
t-63 -118.5t-103 -80.5t-141.5 -29.5zM341 3q72 0 129.5 26.5t97 73.5t61 112t21.5 142v5h-598v-5q1 -77 18 -142t52 -112t89 -73.5t130 -26.5z" />
    <glyph glyph-name="afii10846" unicode="&#x4d9;" horiz-adv-x="507" 
d="M251 -11q-60 0 -103.5 23t-71 61t-40 87t-10.5 102h430q-1 52 -12.5 96.5t-35.5 77.5t-62 52t-93 19q-81 0 -134.5 -42.5t-66.5 -127.5h-20q6 45 24.5 80t47 59.5t66 37t81.5 12.5q60 0 102.5 -20.5t69.5 -56.5t40 -85t13 -106q0 -64 -19 -114t-50 -84.5t-72 -52.5
t-84 -18zM249 9q42 0 78.5 16t64 46.5t44.5 73.5t20 97h-410q0 -47 13 -89.5t38.5 -74.5t63.5 -50.5t88 -18.5z" />
    <glyph glyph-name="uni04DC" unicode="&#x4dc;" horiz-adv-x="978" 
d="M332 404l-304 310h28l423 -434v434h20v-434l423 434h28l-304 -310l343 -404h-27l-330 390l-133 -137v-253h-20v253l-133 137l-330 -390h-27zM557 849h20v-81h-20v81zM402 849h20v-81h-20v81z" />
    <glyph glyph-name="uni04DD" unicode="&#x4dd;" horiz-adv-x="702" 
d="M-13 0l237 299l-213 215h28l302 -305v305h20v-305l302 305h28l-213 -215l237 -299h-26l-226 285l-102 -102v-183h-20v183l-102 102l-226 -285h-26zM419 649h20v-81h-20v81zM264 649h20v-81h-20v81z" />
    <glyph glyph-name="uni04DE" unicode="&#x4de;" horiz-adv-x="594" 
d="M304 -16q-62 0 -111 17t-83 50t-52.5 80t-18.5 107h20v-3q0 -109 63.5 -170t181.5 -61q52 0 95.5 15t74.5 42t48 64.5t17 82.5q0 72 -51.5 115.5t-142.5 43.5h-100v20h100q85 0 133 40t48 115q0 81 -57 125t-157 44q-112 0 -167 -50t-65 -147h-20q11 103 71.5 160
t180.5 57q52 0 95.5 -12.5t74.5 -36.5t48 -59t17 -81q0 -63 -34.5 -108.5t-110.5 -55.5v-2q33 -2 61.5 -15t50 -35.5t34 -52.5t12.5 -65q0 -51 -19 -92t-53.5 -70.5t-81.5 -45.5t-102 -16zM374 849h20v-81h-20v81zM219 849h20v-81h-20v81z" />
    <glyph glyph-name="uni04DF" unicode="&#x4df;" horiz-adv-x="463" 
d="M222 -15q-100 0 -147 49t-47 134v2h20v-3q0 -78 44.5 -120.5t129.5 -42.5q38 0 71 10.5t57.5 29.5t38.5 45.5t14 59.5q0 51 -37.5 81t-103.5 30h-74v20h74q61 0 96 27.5t35 81.5q0 58 -45 87.5t-117 29.5q-81 0 -120 -33.5t-47 -102.5h-20q7 74 50.5 115t136.5 41
q82 0 132 -35.5t50 -101.5q0 -45 -23.5 -77.5t-80.5 -39.5v-2q24 -1 44.5 -10.5t36 -25.5t24.5 -38t9 -47q0 -36 -14.5 -66.5t-41 -52t-63.5 -33.5t-82 -12zM299 649h20v-81h-20v81zM144 649h20v-81h-20v81z" />
    <glyph glyph-name="uni04E2" unicode="&#x4e2;" horiz-adv-x="648" 
d="M54 714h20v-697l489 697h31v-714h-20v697l-489 -697h-31v714zM208 806v20h231v-20h-231z" />
    <glyph glyph-name="uni04E3" unicode="&#x4e3;" horiz-adv-x="510" 
d="M55 514h20v-496h2l347 496h31v-514h-20v496h-2l-347 -496h-31v514zM139 606v20h231v-20h-231z" />
    <glyph glyph-name="uni04E4" unicode="&#x4e4;" horiz-adv-x="648" 
d="M54 714h20v-697l489 697h31v-714h-20v697l-489 -697h-31v714zM391 849h20v-81h-20v81zM236 849h20v-81h-20v81z" />
    <glyph glyph-name="uni04E5" unicode="&#x4e5;" horiz-adv-x="510" 
d="M55 514h20v-496h2l347 496h31v-514h-20v496h-2l-347 -496h-31v514zM322 649h20v-81h-20v81zM167 649h20v-81h-20v81z" />
    <glyph glyph-name="uni04E6" unicode="&#x4e6;" horiz-adv-x="721" 
d="M361 -16q-80 0 -141.5 29.5t-103 80.5t-63 118.5t-21.5 144.5q0 76 21.5 144t63 119t103 81t141.5 30t141.5 -30t103 -81t63 -119t21.5 -144q0 -77 -21.5 -144.5t-63 -118.5t-103 -80.5t-141.5 -29.5zM361 3q72 0 129.5 26.5t97 73.5t61 112t21.5 142t-21.5 142t-61 112
t-97 73.5t-129.5 26.5t-129.5 -26.5t-97 -73.5t-61 -112t-21.5 -142t21.5 -142t61 -112t97 -73.5t129.5 -26.5zM428 849h20v-81h-20v81zM273 849h20v-81h-20v81z" />
    <glyph glyph-name="uni04E7" unicode="&#x4e7;" horiz-adv-x="519" 
d="M259 -11q-56 0 -99 22t-72.5 59t-44.5 85.5t-15 101.5q0 52 15 101t44.5 86t72.5 59.5t100 22.5q56 0 99 -22.5t72.5 -59.5t44.5 -86t15 -101q0 -53 -15 -101.5t-44.5 -85.5t-72.5 -59t-100 -22zM260 8q51 0 90.5 20.5t66.5 55t40.5 79.5t13.5 94q0 48 -13.5 93
t-40.5 79.5t-66.5 55.5t-90.5 21q-52 0 -91.5 -21t-66.5 -55.5t-40.5 -79.5t-13.5 -93q0 -49 13.5 -94t40.5 -79.5t66.5 -55t91.5 -20.5zM327 649h20v-81h-20v81zM172 649h20v-81h-20v81z" />
    <glyph glyph-name="uni04E8" unicode="&#x4e8;" horiz-adv-x="721" 
d="M361 -16q-80 0 -141.5 29.5t-103 80.5t-63 118.5t-21.5 144.5q0 76 21.5 144t63 119t103 81t141.5 30t141.5 -30t103 -81t63 -119t21.5 -144q0 -77 -21.5 -144.5t-63 -118.5t-103 -80.5t-141.5 -29.5zM361 3q72 0 129.5 26.5t97 73.5t61 112t21.5 142v5h-618v-5
q1 -77 22.5 -142t61 -112t96.5 -73.5t129 -26.5zM669 382q-3 72 -26 132.5t-62.5 104t-95 68t-124.5 24.5t-124 -24.5t-94.5 -68t-62.5 -104t-27 -132.5h616z" />
    <glyph glyph-name="uni04E9" unicode="&#x4e9;" horiz-adv-x="519" 
d="M259 -11q-56 0 -99 22t-72.5 59t-44.5 85.5t-15 101.5q0 52 15 101t44.5 86t72.5 59.5t100 22.5q56 0 99 -22.5t72.5 -59.5t44.5 -86t15 -101q0 -53 -15 -101.5t-44.5 -85.5t-72.5 -59t-100 -22zM260 8q51 0 90.5 20.5t66.5 55t40.5 79.5t13.5 94v1h-423v-1
q0 -49 13.5 -94t40.5 -79.5t66.5 -55t91.5 -20.5zM470 278q-3 45 -18 86t-41.5 72.5t-64.5 50.5t-86 19q-50 0 -88 -19t-64.5 -50.5t-41.5 -72.5t-18 -86h422z" />
    <glyph glyph-name="uni04EE" unicode="&#x4ee;" horiz-adv-x="537" 
d="M105 -10q-17 0 -35.5 1.5t-30.5 6.5v22q13 -5 32 -7.5t36 -2.5q35 0 66.5 22t53.5 68l30 62l-264 552h22l254 -527l255 527h21l-302 -627q-26 -54 -61 -75.5t-77 -21.5zM153 806v20h231v-20h-231z" />
    <glyph glyph-name="uni04EF" unicode="&#x4ef;" horiz-adv-x="407" 
d="M46 -156q26 0 44.5 1.5t32.5 8t24 20t19 36.5l37 95l-214 509h21l204 -487l184 487h21l-237 -618q-10 -26 -24 -40.5t-31.5 -21.5t-37.5 -8.5t-43 -1.5v20zM88 606v20h231v-20h-231z" />
    <glyph glyph-name="uni04F0" unicode="&#x4f0;" horiz-adv-x="537" 
d="M105 -10q-17 0 -35.5 1.5t-30.5 6.5v22q13 -5 32 -7.5t36 -2.5q35 0 66.5 22t53.5 68l30 62l-264 552h22l254 -527l255 527h21l-302 -627q-26 -54 -61 -75.5t-77 -21.5zM340 849h20v-81h-20v81zM185 849h20v-81h-20v81z" />
    <glyph glyph-name="uni04F1" unicode="&#x4f1;" horiz-adv-x="407" 
d="M46 -156q26 0 44.5 1.5t32.5 8t24 20t19 36.5l37 95l-214 509h21l204 -487l184 487h21l-237 -618q-10 -26 -24 -40.5t-31.5 -21.5t-37.5 -8.5t-43 -1.5v20zM282 649h20v-81h-20v81zM127 649h20v-81h-20v81z" />
    <glyph glyph-name="uni04F2" unicode="&#x4f2;" horiz-adv-x="537" 
d="M105 -10q-17 0 -35.5 1.5t-30.5 6.5v22q13 -5 32 -7.5t36 -2.5q35 0 66.5 22t53.5 68l30 62l-264 552h22l254 -527l255 527h21l-302 -627q-26 -54 -61 -75.5t-77 -21.5zM320 765h-15l132 144h29zM171 765h-15l131 144h29z" />
    <glyph glyph-name="uni04F3" unicode="&#x4f3;" horiz-adv-x="407" 
d="M46 -156q26 0 44.5 1.5t32.5 8t24 20t19 36.5l37 95l-214 509h21l204 -487l184 487h21l-237 -618q-10 -26 -24 -40.5t-31.5 -21.5t-37.5 -8.5t-43 -1.5v20zM260 565h-15l132 144h29zM111 565h-15l131 144h29z" />
    <glyph glyph-name="uni04F4" unicode="&#x4f4;" horiz-adv-x="578" 
d="M504 353q-20 -9 -48 -19.5t-60.5 -19.5t-68 -15t-69.5 -6q-81 0 -126.5 15t-67 46t-26 77.5t-4.5 109.5v173h20v-171q0 -59 3.5 -102.5t23 -72t61 -42t116.5 -13.5q29 0 62 5.5t65.5 14t63 19t55.5 21.5v341h20v-714h-20v353zM356 849h20v-81h-20v81zM201 849h20v-81h-20
v81z" />
    <glyph glyph-name="uni04F5" unicode="&#x4f5;" horiz-adv-x="462" 
d="M387 245q-34 -15 -83 -29t-106 -14q-39 0 -69.5 7t-51 24t-31.5 45.5t-11 71.5v164h20v-161q0 -75 38.5 -103t104.5 -28q57 0 105.5 14t83.5 31v247h20v-514h-20v245zM298 649h20v-81h-20v81zM143 649h20v-81h-20v81z" />
    <glyph glyph-name="uni04F8" unicode="&#x4f8;" horiz-adv-x="778" 
d="M54 714h20v-315h270q106 0 161.5 -51t55.5 -145q0 -46 -15.5 -83.5t-45 -64t-71.5 -41t-95 -14.5h-280v714zM343 20q45 0 81.5 13.5t62 38t39.5 58t14 74.5q0 85 -50 130t-147 45h-269v-359h269zM704 714h20v-714h-20v714zM456 849h20v-81h-20v81zM301 849h20v-81h-20v81
z" />
    <glyph glyph-name="uni04F9" unicode="&#x4f9;" horiz-adv-x="611" 
d="M55 514h20v-226h197q75 0 115.5 -38t40.5 -104t-43.5 -106t-119.5 -40h-210v514zM265 20q69 0 106 34.5t37 91.5t-33.5 89.5t-102.5 32.5h-197v-248h190zM536 514h20v-514h-20v514zM373 649h20v-81h-20v81zM218 649h20v-81h-20v81z" />
    <glyph glyph-name="afii61352" unicode="&#x2116;" horiz-adv-x="936" 
d="M54 680h28l440 -655h2v655h20v-680h-28l-440 655h-2v-655h-20v680zM619 210h261v-20h-261v20zM749 297q-28 0 -51.5 10.5t-41 29t-27.5 44.5t-10 57q0 66 36.5 105t94.5 39q57 0 93.5 -38.5t36.5 -102.5q0 -33 -10 -59.5t-27 -45t-41.5 -29t-52.5 -10.5zM750 317
q23 0 43 9t35 25.5t23.5 39t8.5 49.5t-8.5 49.5t-23.5 38.5t-35 25t-43 9t-43 -9t-35 -25t-24 -37.5t-9 -46.5q0 -29 8.5 -52t23.5 -40t35 -26t44 -9z" />
    <glyph glyph-name="Aogonek" unicode="&#x104;" horiz-adv-x="575" 
d="M586 0q-56 -43 -79 -71.5t-23 -53.5q0 -16 12 -30.5t40 -14.5q24 0 45 11t32 22l14 -13q-14 -14 -37 -26t-58 -12q-38 0 -54 18t-16 44q0 18 8.5 35t22 32.5t30.5 30t35 28.5h6l-94 235h-364l-95 -235h-22l289 714h26zM292 694h-2l-176 -439h348z" />
    <glyph glyph-name="aogonek" unicode="&#x105;" horiz-adv-x="481" 
d="M54 355q2 36 15 67.5t37.5 54.5t60 36t83.5 13q34 0 64.5 -7t53.5 -24.5t37 -45.5t15 -70v-327q0 -15 6 -22t16 -9.5t21.5 -2t21.5 1.5v-20q-57 -43 -80 -71.5t-23 -53.5q0 -16 12 -30.5t40 -14.5q24 0 45 11t32 22l14 -13q-14 -14 -37 -26t-58 -12q-38 0 -54 18t-16 44
q0 18 8.5 35t22 32.5t30.5 30t35 28.5h-1q-22 0 -38.5 10.5t-16.5 39.5v67h-2q-8 -25 -25.5 -48t-44 -41t-60.5 -28.5t-74 -10.5q-78 0 -125 34.5t-47 103.5q0 48 15.5 77t40.5 45.5t57 23t64 8.5q53 3 91 5.5t62.5 10t36 23t11.5 44.5q0 23 -4 48t-19.5 46t-45.5 34.5
t-81 13.5q-81 0 -126 -39.5t-50 -111.5h-20zM398 302q-10 -14 -31 -21.5t-48 -11.5t-58.5 -5t-61.5 -3t-58.5 -7.5t-50.5 -20t-35 -40t-13 -66.5q0 -22 7.5 -43.5t25.5 -38t46.5 -27t70.5 -10.5q50 0 89 17t65.5 44.5t40 63.5t13.5 74v95h-2z" />
    <glyph glyph-name="Cacute" unicode="&#x106;" horiz-adv-x="685" 
d="M662 280q-9 -65 -34 -119.5t-64.5 -93.5t-93.5 -61t-122 -22q-71 0 -130.5 27.5t-102 76t-66.5 116t-24 147.5q0 65 18.5 132.5t58.5 122.5t104 90t155 35q71 0 124 -23.5t88.5 -59t53.5 -75.5t19 -73h-20q-3 39 -23 76.5t-54.5 67.5t-82 48.5t-105.5 18.5
q-88 0 -148.5 -35.5t-97.5 -89t-53.5 -116.5t-16.5 -119q0 -68 20 -131t59 -111t95.5 -77t128.5 -29q64 0 115 21t88 58t60 88t31 110h20zM317 765h-15l132 144h29z" />
    <glyph glyph-name="cacute" unicode="&#x107;" 
d="M469 175q-4 -43 -21 -77.5t-44.5 -58.5t-64 -37t-80.5 -13q-55 0 -97.5 20.5t-71.5 55.5t-44 81.5t-15 99.5q0 56 14.5 106.5t44 89t75 61.5t106.5 23q36 0 69 -11t59 -32t43.5 -52.5t22.5 -72.5h-20q-6 38 -22 65.5t-39 46t-52 27.5t-61 9q-61 0 -103.5 -23.5t-68 -61
t-37 -84t-11.5 -91.5q0 -47 13.5 -90t39.5 -76t65 -52.5t90 -19.5q38 0 71 11.5t58.5 33.5t41.5 52.5t19 69.5h20zM224 565h-15l132 144h29z" />
    <glyph glyph-name="Eogonek" unicode="&#x118;" horiz-adv-x="537" 
d="M532 20v-20h-43q-57 -43 -80 -71.5t-23 -53.5q0 -16 12 -30.5t40 -14.5q24 0 45 11t32 22l14 -13q-14 -14 -37 -26t-58 -12q-38 0 -54 18t-16 44q0 18 8.5 35t22 32.5t30.5 30t35 28.5h-406v714h474v-20h-454v-312h427v-20h-427v-342h458z" />
    <glyph glyph-name="eogonek" unicode="&#x119;" 
d="M45 253q1 -52 12.5 -96.5t35.5 -77.5t62 -52t93 -19q81 0 134.5 42.5t66.5 127.5h20q-11 -90 -71 -140q-52 -42 -125 -48q-46 -36 -66 -61q-23 -29 -23 -54q0 -16 12 -30.5t40 -14.5q24 0 45 11t32 22l14 -13q-14 -14 -37 -26t-58 -12q-38 0 -54 18t-16 44q0 18 8.5 35
t22 32.5t30.5 30.5q10 8 20 17q-56 0 -96 19q-42 20 -69 56.5t-40 86t-13 106.5q0 64 19 114t50 84.5t72 52.5t84 18q60 0 103.5 -23t71 -61t40 -87t10.5 -102h-430zM455 273q0 47 -13 89.5t-38.5 74.5t-63.5 50.5t-88 18.5q-42 0 -78.5 -16t-64 -46.5t-44.5 -73.5t-20 -97
h410z" />
    <glyph glyph-name="Nacute" unicode="&#x143;" horiz-adv-x="648" 
d="M84 714l488 -689h2v689h20v-714h-30l-488 689h-2v-689h-20v714h30zM298 765h-15l132 144h29z" />
    <glyph glyph-name="nacute" unicode="&#x144;" 
d="M75 514v-127h2q7 30 22.5 55t39 44t54.5 29.5t69 10.5q40 0 73.5 -12t58 -35.5t38 -58t13.5 -79.5v-341h-20v338q0 45 -13 76.5t-35.5 52t-52 30t-62.5 9.5q-46 0 -81 -17.5t-58.5 -47t-35.5 -68.5t-12 -82v-291h-20v514h20zM214 565h-15l132 144h29z" />
    <glyph glyph-name="Sacute" unicode="&#x15a;" horiz-adv-x="611" 
d="M529 514q-2 55 -20.5 92.5t-49 61t-72.5 33.5t-90 10q-37 0 -77 -7.5t-72.5 -26.5t-53.5 -50.5t-21 -79.5t21.5 -77t56 -47t78.5 -28t90 -21q50 -13 94.5 -25t77.5 -32t52.5 -53t19.5 -89q0 -51 -22 -87t-58 -59.5t-81 -34t-91 -10.5q-61 0 -112.5 14t-89 44.5t-58 78.5
t-19.5 116h20q0 -64 19 -108.5t53.5 -72.5t82 -40.5t104.5 -12.5q42 0 83.5 9.5t74.5 30.5t53.5 54t20.5 79q0 54 -23.5 85.5t-60 50t-81 28t-85.5 19.5q-43 10 -86 21t-77.5 30.5t-55.5 52t-21 84.5q0 53 22 88.5t57 56.5t78.5 30t86.5 9q53 0 97.5 -11.5t78 -37t53.5 -67
t23 -101.5h-20zM260 765h-15l132 144h29z" />
    <glyph glyph-name="sacute" unicode="&#x15b;" horiz-adv-x="463" 
d="M390 362q0 39 -12 66t-34 44.5t-52.5 25.5t-67.5 8q-54 0 -85 -14.5t-46 -33t-19 -36.5t-4 -25q0 -38 15.5 -58.5t41.5 -31.5q27 -11 58.5 -19t73.5 -19q30 -8 59.5 -16.5t53 -23.5t38 -38t14.5 -60q0 -39 -16.5 -66t-43 -44t-60 -24.5t-66.5 -7.5q-103 0 -155.5 45
t-52.5 142h20q0 -87 48.5 -127.5t139.5 -40.5q28 0 57.5 6.5t53.5 21t39.5 37.5t15.5 56q0 34 -15.5 55t-40 34.5t-56.5 21.5t-65 16q-37 9 -65 17t-50 18q-32 14 -47 39t-15 67q0 21 9 44t30 42t54 31t81 12q86 0 136 -39t50 -125h-20zM186 565h-15l132 144h29z" />
    <glyph glyph-name="Zacute" unicode="&#x179;" 
d="M508 0h-526v27l498 667h-471v20h491v-27l-499 -667h507v-20zM204 765h-15l132 144h29z" />
    <glyph glyph-name="zacute" unicode="&#x17a;" horiz-adv-x="407" 
d="M402 0h-397v25l360 469h-333v20h354v-25l-360 -469h376v-20zM158 565h-15l132 144h29z" />
    <glyph glyph-name="Zdotaccent" unicode="&#x17b;" 
d="M508 0h-526v27l498 667h-471v20h491v-27l-499 -667h507v-20zM260 768h-20v81h20v-81z" />
    <glyph glyph-name="zdotaccent" unicode="&#x17c;" horiz-adv-x="407" 
d="M402 0h-397v25l360 469h-333v20h354v-25l-360 -469h376v-20zM218 568h-20v81h20v-81z" />
    <glyph glyph-name="uni0316" unicode="&#x316;" horiz-adv-x="0" 
d="M-307 -109l124 -144h-15l-138 144h29z" />
    <glyph glyph-name="uni0317" unicode="&#x317;" horiz-adv-x="0" 
d="M-325 -253h-15l132 144h29z" />
    <glyph glyph-name="uni0312" unicode="&#x312;" horiz-adv-x="0" 
d="M-282 607q0 27 2 44t7.5 29t14 19.5t21.5 14.5v-20q-15 -10 -20 -29.5t-5 -57.5v-118h-20v118z" />
    <glyph glyph-name="uni0313" unicode="&#x313;" horiz-adv-x="0" 
d="M-237 596q0 -27 -2 -44t-7.5 -29t-14 -19.5t-21.5 -14.5v20q15 10 20 29.5t5 57.5v118h20v-118z" />
    <glyph glyph-name="uni0326" unicode="&#x326;" horiz-adv-x="0" 
d="M-237 -244q0 -27 -2 -44t-7.5 -29t-14 -19.5t-21.5 -14.5v20q15 10 20 29.5t5 57.5v118h20v-118z" />
    <glyph glyph-name="dotbelowcomb" unicode="&#x323;" horiz-adv-x="0" 
d="M-250 -250h-20v81h20v-81z" />
    <glyph glyph-name="uni0324" unicode="&#x324;" horiz-adv-x="0" 
d="M-192 -169h20v-81h-20v81zM-347 -169h20v-81h-20v81z" />
    <glyph glyph-name="uni0325" unicode="&#x325;" horiz-adv-x="0" 
d="M-192 -166q0 28 -20 48t-48 20t-47.5 -20t-19.5 -48t19.5 -48t47.5 -20t48 20t20 48zM-172 -166q0 -18 -7 -34t-19 -28t-28 -19t-34 -7q-36 0 -61.5 26t-25.5 62t25.5 62t61.5 26q18 0 34 -7t28 -19t19 -28t7 -34z" />
    <glyph glyph-name="uni0311" unicode="&#x311;" horiz-adv-x="0" 
d="M-157 624q-5 39 -32 63t-67 24q-43 0 -72 -21t-34 -66h-20q6 51 40.5 79t85.5 28q49 0 81 -29.5t38 -77.5h-20v0z" />
    <glyph glyph-name="uni030F" unicode="&#x30f;" horiz-adv-x="0" 
d="M-415 731h29l132 -144h-15zM-265 731h29l131 -144h-15z" />
    <glyph glyph-name="uni032C" unicode="&#x32c;" horiz-adv-x="0" 
d="M-258 -232l99 123h20l-113 -139h-15l-113 139h20z" />
    <glyph glyph-name="uni032D" unicode="&#x32d;" horiz-adv-x="0" 
d="M-262 -125l-98 -123h-20l112 139h15l114 -139h-20z" />
    <glyph glyph-name="uni032E" unicode="&#x32e;" horiz-adv-x="0" 
d="M-362 -109q5 -39 32 -63t67 -24q43 0 72 21t34 66h20q-6 -51 -40.5 -79t-85.5 -28q-49 0 -81 29.5t-38 77.5h20v0z" />
    <glyph glyph-name="uni032F" unicode="&#x32f;" horiz-adv-x="0" 
d="M-157 -216q-5 39 -32 63t-67 24q-43 0 -72 -21t-34 -66h-20q6 51 40.5 79t85.5 28q49 0 81 -29.5t38 -77.5h-20v0z" />
    <glyph glyph-name="quotesinglbase.clone" horiz-adv-x="167" 
d="M93 98h-20v-98q0 -40 -5.5 -62.5t-19.5 -35.5v-20q26 17 35.5 45t9.5 73v98z" />
    <glyph glyph-name="quotesinglbase.mirror" horiz-adv-x="167" 
d="M73.9824 98h19.9941v-98q0 -40 5.49902 -62.5t19.4951 -35.5v-20q-25.9932 17 -35.4912 45q-9.49707 28 -9.49707 73v98z" />
    <glyph glyph-name="quotedblbase.clone" horiz-adv-x="278" 
d="M95 98h-20v-98q0 -40 -5.5 -62.5t-19.5 -35.5v-20q26 17 35.5 45t9.5 73v98zM195 98h-20v-98q0 -40 -5.5 -62.5t-19.5 -35.5v-20q26 17 35.5 45t9.5 73v98z" />
    <glyph glyph-name="quotedblbase.mirror" horiz-adv-x="278" 
d="M182.955 98h19.9951v-98q0 -40 5.49902 -62.5q5.49805 -22.5 19.4951 -35.5v-20q-25.9932 17 -35.4912 45t-9.49805 73v98zM82.9795 98h19.9951v-98q0 -40 5.49902 -62.5t19.4951 -35.5v-20q-25.9941 17 -35.4912 45q-9.49805 28 -9.49805 73v98z" />
    <glyph glyph-name="partialdiff.clone" horiz-adv-x="442" 
d="M199 -13q-42 0 -74.5 21t-54 53.5t-33 71.5t-11.5 76q0 41 11.5 79t34.5 67.5t56.5 47.5t78.5 18q55 0 101.5 -29.5t76.5 -74.5q1 17 1.5 35t0.5 35q0 45 -9 99.5t-31 102t-59 80t-92 32.5q-37 0 -64 -12.5t-56 -33.5l-11 18q31 21 62 34t69 13q64 0 105.5 -35t65 -87.5
t32.5 -113t9 -110.5q0 -33 -3 -74.5t-11.5 -84.5t-23 -84t-37.5 -73t-56 -51.5t-78 -19.5zM200 5q49 0 83.5 31.5t56.5 76t32.5 93.5t10.5 85q-34 47 -77 79t-102 32q-38 0 -67.5 -16.5t-49 -44t-29.5 -62t-10 -70.5q0 -33 10 -69t29 -66t47.5 -49.5t65.5 -19.5z" />
    <glyph glyph-name="partialdiff.mirror" horiz-adv-x="442" 
d="M242.94 -13q41.9902 0 74.4824 21q32.4912 21 53.9863 53.5t32.9922 71.5t11.4971 76q0 41 -11.4971 79t-34.4912 67.5q-22.9951 29.5 -56.4863 47.5q-33.4922 18 -78.4814 18q-54.9863 0 -101.475 -29.5q-46.4893 -29.5 -76.4814 -74.5q-1 17 -1.5 35t-0.5 35
q0 45 8.99805 99.5t30.9922 102q21.9951 47.5 58.9863 80q36.9902 32.5 91.9766 32.5q36.9912 0 63.9844 -12.5q26.9941 -12.5 55.9863 -33.5l10.998 18q-30.9922 21 -61.9854 34q-30.9922 13 -68.9834 13q-63.9844 0 -105.474 -35q-41.4902 -35 -64.9844 -87.5
t-32.4922 -113q-8.99707 -60.5 -8.99707 -110.5q0 -33 2.99902 -74.5t11.4971 -84.5t22.9941 -84t37.4912 -73q22.9941 -32 55.9863 -51.5q32.9912 -19.5 77.9805 -19.5zM241.941 5q-48.9883 0 -83.4805 31.5q-34.4912 31.5 -56.4863 76q-21.9941 44.5 -32.4912 93.5
q-10.498 49 -10.498 85q33.9922 47 76.9814 79t101.975 32q37.9912 0 67.4844 -16.5q29.4922 -16.5 48.9873 -44t29.4932 -62t9.99805 -70.5q0 -33 -9.99805 -69t-28.9932 -66t-47.4883 -49.5t-65.4834 -19.5z" />
    <glyph glyph-name="summation.clone" horiz-adv-x="504" 
d="M0 -196l341 486l-326 478v18h479v-20h-453l324 -475l-340 -485h479v-20h-504v18z" />
    <glyph glyph-name="summation.mirror" horiz-adv-x="504" 
d="M503.877 -196l-340.917 486l325.921 478v18h-478.883v-20h452.889l-323.921 -475l339.917 -485h-478.883v-20h503.877v18z" />
    <glyph glyph-name="radical.clone" horiz-adv-x="490" 
d="M53 167l-44 -21l-9 18l62 30l178 -366l210 952l20 -3l-219 -996h-10z" />
    <glyph glyph-name="radical.mirror" horiz-adv-x="490" 
d="M436.894 167l43.9893 -21l8.99805 18l-61.9854 30l-177.956 -366l-209.949 952l-19.9951 -3l218.946 -996h9.99805z" />
    <glyph glyph-name="integral.clone" horiz-adv-x="252" 
d="M47 -214q-12 0 -22 7t-10 20q0 10 6 16.5t16 6.5q7 0 12.5 -3.5t9 -8t7 -8t6.5 -3.5q13 0 21 18.5t12.5 44.5t5.5 55.5t1 52.5v596q0 31 3 67t12 67t26.5 51.5t47.5 20.5q13 0 24.5 -6.5t11.5 -21.5q0 -10 -6.5 -16t-16.5 -6q-12 0 -17 6.5t-13 14.5q-1 0 -2.5 1t-2.5 1
q-11 0 -18.5 -12t-12.5 -27.5t-7.5 -31.5t-3.5 -23q-3 -33 -4 -66t-1 -66v-553q0 -35 -1.5 -70t-9.5 -62.5t-25 -44.5t-49 -17z" />
    <glyph glyph-name="integral.mirror" horiz-adv-x="252" 
d="M204.95 -214q11.9971 0 21.9941 7q9.99805 7 9.99805 20q0 10 -5.99902 16.5q-5.99805 6.5 -15.9961 6.5q-6.99805 0 -12.4971 -3.5q-5.49805 -3.5 -8.99707 -8q-3.5 -4.5 -6.99902 -8t-6.49805 -3.5q-12.9971 0 -20.9951 18.5t-12.4971 44.5t-5.49805 55.5
q-1 29.5 -1 52.5v596q0 31 -2.99902 67q-3 36 -11.9971 67q-8.99805 31 -26.4941 51.5q-17.4951 20.5 -47.4883 20.5q-12.9971 0 -24.4941 -6.5t-11.4971 -21.5q0 -10 6.49902 -16q6.49805 -6 16.4951 -6q11.998 0 16.9961 6.5q4.99902 6.5 12.9971 14.5q1 0 2.49902 1
q1.5 1 2.5 1q10.9971 0 18.4951 -12t12.4971 -27.5t7.49805 -31.5q2.5 -16 3.49902 -23q2.99902 -33 3.99902 -66t1 -66v-553q0 -35 1.5 -70q1.49902 -35 9.49707 -62.5t24.9941 -44.5t48.9883 -17z" />
    <glyph glyph-name="approxequal.clone" horiz-adv-x="600" 
d="M45 115q5 19 15.5 37.5t25 33t33 23.5t40.5 9q15 0 34 -4.5t40 -11.5t42.5 -14.5t39.5 -14.5q33 -12 67.5 -22t56.5 -10q36 0 59.5 24.5t34.5 56.5h21q-5 -18 -15 -36t-24.5 -32.5t-32.5 -23.5t-39 -9q-33 0 -72.5 13t-70.5 24q-11 4 -29.5 10.5t-39 13t-40.5 11.5t-33 5
q-17 0 -32 -7.5t-26.5 -19t-20 -26.5t-13.5 -30h-21zM45 281q5 19 15.5 37.5t25 33t33 23.5t40.5 9q15 0 34 -4.5t40 -11.5t42.5 -14.5t39.5 -14.5q33 -12 67.5 -22t56.5 -10q36 0 59.5 24.5t34.5 56.5h21q-5 -18 -15 -36t-24.5 -32.5t-32.5 -23.5t-39 -9q-33 0 -72.5 13
t-70.5 24q-11 4 -29.5 10.5t-39 13t-40.5 11.5t-33 5q-17 0 -32 -7.5t-26.5 -19t-20 -26.5t-13.5 -30h-21z" />
    <glyph glyph-name="approxequal.mirror" horiz-adv-x="600" 
d="M554.864 115q-4.99902 19 -15.4961 37.5t-24.9941 33q-14.4961 14.5 -32.9912 23.5q-18.4961 9 -40.4902 9q-14.9961 0 -33.9922 -4.5q-18.9951 -4.5 -39.9902 -11.5q-20.9941 -7 -42.4893 -14.5t-39.4902 -14.5q-32.9922 -12 -67.4834 -22q-34.4922 -10 -56.4863 -10
q-35.9912 0 -59.4854 24.5q-23.4951 24.5 -34.4922 56.5h-20.9951q4.99902 -18 14.9971 -36q9.99707 -18 24.4941 -32.5q14.4961 -14.5 32.4912 -23.5q17.9961 -9 38.9912 -9q32.9912 0 72.4824 13q39.4902 13 70.4824 24q10.9971 4 29.4932 10.5q18.4951 6.5 38.9902 13
t40.4902 11.5t32.9922 5q16.9951 0 31.9922 -7.5q14.9961 -7.5 26.4932 -19t19.9951 -26.5t13.4961 -30h20.9951zM554.864 281q-4.99902 19 -15.4961 37.5t-24.9941 33q-14.4961 14.5 -32.9912 23.5q-18.4961 9 -40.4902 9q-14.9961 0 -33.9922 -4.5
q-18.9951 -4.5 -39.9902 -11.5q-20.9941 -7 -42.4893 -14.5t-39.4902 -14.5q-32.9922 -12 -67.4834 -22q-34.4922 -10 -56.4863 -10q-35.9912 0 -59.4854 24.5q-23.4951 24.5 -34.4922 56.5h-20.9951q4.99902 -18 14.9971 -36q9.99707 -18 24.4941 -32.5
q14.4961 -14.5 32.4912 -23.5q17.9961 -9 38.9912 -9q32.9912 0 72.4824 13q39.4902 13 70.4824 24q10.9971 4 29.4932 10.5q18.4951 6.5 38.9902 13t40.4902 11.5t32.9922 5q16.9951 0 31.9922 -7.5q14.9961 -7.5 26.4932 -19t19.9951 -26.5t13.4961 -30h20.9951z" />
    <glyph glyph-name="notequal.clone" horiz-adv-x="600" 
d="M163 21l67 125h-182v20h192l94 174h-286v20h296l73 135l18 -9l-68 -126h185v-20h-195l-94 -174h289v-20h-299l-72 -134z" />
    <glyph glyph-name="notequal.mirror" horiz-adv-x="600" 
d="M436.894 21l-66.9834 125h181.955v20h-191.953l-93.9766 174h285.93v20h-295.928l-72.9824 135l-17.9951 -9l67.9834 -126h-184.955v-20h194.952l93.9775 -174h-288.93v-20h298.927l71.9824 -134z" />
    <glyph glyph-name="clickdental" unicode="&#x1c0;" horiz-adv-x="222" 
d="M101 -213h20v999h-20v-999z" />
    <glyph glyph-name="clicklateral" unicode="&#x1c1;" horiz-adv-x="444" 
d="M101 -213h20v999h-20v-999zM323 -213h20v999h-20v-999z" />
    <glyph glyph-name="centigrade" unicode="&#x2103;" horiz-adv-x="1085" 
d="M343 549q0 29 -11 55t-30.5 45.5t-45.5 31t-56 11.5t-56 -11.5t-45.5 -31t-30.5 -45.5t-11 -55q0 -31 11 -57.5t30.5 -46t45.5 -30.5t56 -11t56.5 11.5t45.5 31t30 46t11 56.5zM323 549q0 -26 -9.5 -49t-26 -40t-39 -26.5t-48.5 -9.5q-25 0 -47 9.5t-39 26t-27 39.5
t-10 50q0 24 10 46t27 39.5t39 27.5t47 10q27 0 49.5 -10t39 -27t25.5 -39t9 -47zM1062 280h-20q-8 -59 -31 -110t-60 -88t-88 -58t-115 -21q-72 0 -128.5 29t-95.5 77t-59 111t-20 131q0 56 16.5 119t53.5 116.5t97.5 89t148.5 35.5q58 0 105.5 -18.5t82 -48.5t54.5 -67.5
t23 -76.5h20q-1 33 -19 73t-53.5 75.5t-88.5 59t-124 23.5q-91 0 -155 -35t-104 -90t-58.5 -122.5t-18.5 -132.5q0 -80 24 -147.5t66.5 -116t102 -76t130.5 -27.5q68 0 122 22t93.5 61t64.5 93.5t34 119.5z" />
    <glyph glyph-name="fahrenheit" unicode="&#x2109;" horiz-adv-x="881" 
d="M343 549q0 29 -11 55t-30.5 45.5t-45.5 31t-56 11.5t-56 -11.5t-45.5 -31t-30.5 -45.5t-11 -55q0 -31 11 -57.5t30.5 -46t45.5 -30.5t56 -11t56.5 11.5t45.5 31t30 46t11 56.5zM323 549q0 -26 -9.5 -49t-26 -40t-39 -26.5t-48.5 -9.5q-25 0 -47 9.5t-39 26t-27 39.5
t-10 50q0 24 10 46t27 39.5t39 27.5t47 10q27 0 49.5 -10t39 -27t25.5 -39t9 -47zM474 382v312h420v20h-440v-714h20v362h380v20h-380z" />
    <glyph glyph-name="kelvin" unicode="&#x212a;" horiz-adv-x="593" 
d="M74 253l164 145l354 -398h27l-365 410l345 304h-30l-495 -434v434h-20v-714h20v253z" />
    <glyph glyph-name="angstrom" unicode="&#x212b;" horiz-adv-x="575" 
d="M356 824q0 -28 -20 -48t-48 -20t-48 20t-20 48t20 48t48 20t48 -20t20 -48zM376 824q0 18 -7 34t-19 28t-28 19t-34 7t-34 -7t-28 -19t-19 -28t-7 -34t7 -34t19 -28t28 -19t34 -7t34 7t28 19t19 28t7 34zM106 235h364l94 -235h22l-282 714h-26l-289 -714h22zM462 255
h-348l176 439h2z" />
    <glyph glyph-name="Oneroman" unicode="&#x2160;" horiz-adv-x="128" 
d="M54 714v-714h20v714h-20z" />
    <glyph glyph-name="Tworoman" unicode="&#x2161;" horiz-adv-x="256" 
d="M54 714v-714h20v714h-20zM182 714v-714h20v714h-20z" />
    <glyph glyph-name="Threeroman" unicode="&#x2162;" horiz-adv-x="384" 
d="M54 714v-714h20v714h-20zM182 714v-714h20v714h-20zM310 714v-714h20v714h-20z" />
    <glyph glyph-name="Fourroman" unicode="&#x2163;" horiz-adv-x="666" 
d="M54 714v-714h20v714h-20zM664 714l-262 -688h-2l-270 688h-19l279 -714h22l272 714h-20z" />
    <glyph glyph-name="Fiveroman" unicode="&#x2164;" horiz-adv-x="538" 
d="M536 714l-262 -688h-2l-270 688h-19l279 -714h22l272 714h-20z" />
    <glyph glyph-name="Sixroman" unicode="&#x2165;" horiz-adv-x="666" 
d="M536 714l-262 -688h-2l-270 688h-19l279 -714h22l272 714h-20zM592 714v-714h20v714h-20z" />
    <glyph glyph-name="Sevenroman" unicode="&#x2166;" horiz-adv-x="794" 
d="M536 714l-262 -688h-2l-270 688h-19l279 -714h22l272 714h-20zM592 714v-714h20v714h-20zM720 714v-714h20v714h-20z" />
    <glyph glyph-name="Eightroman" unicode="&#x2167;" horiz-adv-x="922" 
d="M536 714l-262 -688h-2l-270 688h-19l279 -714h22l272 714h-20zM592 714v-714h20v714h-20zM720 714v-714h20v714h-20zM848 714v-714h20v714h-20z" />
    <glyph glyph-name="Nineroman" unicode="&#x2168;" horiz-adv-x="648" 
d="M54 714v-714h20v714h-20zM638 714l-249 -331l-247 331h-25l259 -347l-274 -367h25l262 351l261 -351h25l-272 367l260 347h-25z" />
    <glyph glyph-name="Tenroman" unicode="&#x2169;" horiz-adv-x="520" 
d="M510 714l-249 -331l-247 331h-25l259 -347l-274 -367h25l262 351l261 -351h25l-272 367l260 347h-25z" />
    <glyph glyph-name="Elevenroman" unicode="&#x216a;" horiz-adv-x="648" 
d="M510 714l-249 -331l-247 331h-25l259 -347l-274 -367h25l262 351l261 -351h25l-272 367l260 347h-25zM574 714v-714h20v714h-20z" />
    <glyph glyph-name="Twelveroman" unicode="&#x216b;" horiz-adv-x="776" 
d="M510 714l-249 -331l-247 331h-25l259 -347l-274 -367h25l262 351l261 -351h25l-272 367l260 347h-25zM574 714v-714h20v714h-20zM702 714v-714h20v714h-20z" />
    <glyph glyph-name="uni216C" unicode="&#x216c;" horiz-adv-x="481" 
d="M491 20h-417v694h-20v-714h437v20z" />
    <glyph glyph-name="uni216D" unicode="&#x216d;" horiz-adv-x="685" 
d="M662 280h-20q-8 -59 -31 -110t-60 -88t-88 -58t-115 -21q-72 0 -128.5 29t-95.5 77t-59 111t-20 131q0 56 16.5 119t53.5 116.5t97.5 89t148.5 35.5q58 0 105.5 -18.5t82 -48.5t54.5 -67.5t23 -76.5h20q-1 33 -19 73t-53.5 75.5t-88.5 59t-124 23.5q-91 0 -155 -35
t-104 -90t-58.5 -122.5t-18.5 -132.5q0 -80 24 -147.5t66.5 -116t102 -76t130.5 -27.5q68 0 122 22t93.5 61t64.5 93.5t34 119.5z" />
    <glyph glyph-name="uni216E" unicode="&#x216e;" horiz-adv-x="648" 
d="M74 20v674h225q54 0 105.5 -15t92.5 -53.5t66 -103.5t25 -165q0 -86 -24.5 -149.5t-67 -105t-99 -62t-119.5 -20.5h-204zM54 714v-714h219q65 0 125 20t107 62.5t75 110.5t28 164q0 105 -27.5 174t-71 109.5t-98 57t-107.5 16.5h-250z" />
    <glyph glyph-name="uni216F" unicode="&#x216f;" horiz-adv-x="780" 
d="M693 714l-302 -688h-2l-302 688h-33v-714h20v689h2l303 -689h22l303 689h2v-689h20v714h-33z" />
    <glyph glyph-name="oneroman" unicode="&#x2170;" horiz-adv-x="130" 
d="M75 613v101h-20v-101h20zM75 0v514h-20v-514h20z" />
    <glyph glyph-name="tworoman" unicode="&#x2171;" horiz-adv-x="260" 
d="M75 613v101h-20v-101h20zM75 0v514h-20v-514h20zM205 613v101h-20v-101h20zM205 0v514h-20v-514h20z" />
    <glyph glyph-name="threeroman" unicode="&#x2172;" horiz-adv-x="390" 
d="M75 613v101h-20v-101h20zM75 0v514h-20v-514h20zM205 613v101h-20v-101h20zM205 0v514h-20v-514h20zM335 613v101h-20v-101h20zM335 0v514h-20v-514h20z" />
    <glyph glyph-name="fourroman" unicode="&#x2173;" horiz-adv-x="537" 
d="M75 613v101h-20v-101h20zM75 0v514h-20v-514h20zM527 514l-184 -494h-2l-199 494h-23l211 -514h25l194 514h-22z" />
    <glyph glyph-name="fiveroman" unicode="&#x2174;" horiz-adv-x="407" 
d="M397 514l-184 -494h-2l-199 494h-23l211 -514h25l194 514h-22z" />
    <glyph glyph-name="sixroman" unicode="&#x2175;" horiz-adv-x="537" 
d="M397 514l-184 -494h-2l-199 494h-23l211 -514h25l194 514h-22zM482 613v101h-20v-101h20zM482 0v514h-20v-514h20z" />
    <glyph glyph-name="sevenroman" unicode="&#x2176;" horiz-adv-x="667" 
d="M397 514l-184 -494h-2l-199 494h-23l211 -514h25l194 514h-22zM482 613v101h-20v-101h20zM482 0v514h-20v-514h20zM612 613v101h-20v-101h20zM612 0v514h-20v-514h20z" />
    <glyph glyph-name="eightroman" unicode="&#x2177;" horiz-adv-x="797" 
d="M397 514l-184 -494h-2l-199 494h-23l211 -514h25l194 514h-22zM482 613v101h-20v-101h20zM482 0v514h-20v-514h20zM612 613v101h-20v-101h20zM612 0v514h-20v-514h20zM742 613v101h-20v-101h20zM742 0v514h-20v-514h20z" />
    <glyph glyph-name="nineroman" unicode="&#x2178;" horiz-adv-x="537" 
d="M75 613v101h-20v-101h20zM75 0v514h-20v-514h20zM510 514l-177 -233l-173 233h-26l187 -248l-205 -266h24l193 251l194 -251h25l-206 266l188 248h-24z" />
    <glyph glyph-name="tenroman" unicode="&#x2179;" horiz-adv-x="407" 
d="M380 514l-177 -233l-173 233h-26l187 -248l-205 -266h24l193 251l194 -251h25l-206 266l188 248h-24z" />
    <glyph glyph-name="elevenroman" unicode="&#x217a;" horiz-adv-x="537" 
d="M380 514l-177 -233l-173 233h-26l187 -248l-205 -266h24l193 251l194 -251h25l-206 266l188 248h-24zM482 613v101h-20v-101h20zM482 0v514h-20v-514h20z" />
    <glyph glyph-name="twelveroman" unicode="&#x217b;" horiz-adv-x="667" 
d="M380 514l-177 -233l-173 233h-26l187 -248l-205 -266h24l193 251l194 -251h25l-206 266l188 248h-24zM482 613v101h-20v-101h20zM482 0v514h-20v-514h20zM612 613v101h-20v-101h20zM612 0v514h-20v-514h20z" />
    <glyph glyph-name="uni217C" unicode="&#x217c;" horiz-adv-x="130" 
d="M55 714v-714h20v714h-20z" />
    <glyph glyph-name="uni217D" unicode="&#x217d;" 
d="M469 175h-20q-3 -39 -19 -69.5t-41.5 -52.5t-58.5 -33.5t-71 -11.5q-51 0 -90 19.5t-65 52.5t-39.5 76t-13.5 90q0 45 11.5 91.5t37 84t68 61t103.5 23.5q32 0 61 -9t52 -27.5t39 -46t22 -65.5h20q-5 41 -22.5 72.5t-43.5 52.5t-59 32t-69 11q-61 0 -106.5 -23t-75 -61.5
t-44 -89t-14.5 -106.5q0 -53 15 -99.5t44 -81.5t71.5 -55.5t97.5 -20.5q44 0 80.5 13t64 37t44.5 58.5t21 77.5z" />
    <glyph glyph-name="uni217E" unicode="&#x217e;" horiz-adv-x="537" 
d="M455 714v-344h-2q-18 70 -71 113t-135 43q-53 0 -94 -22t-68.5 -59t-42 -86t-14.5 -103q0 -58 15 -107t43.5 -84.5t69 -55.5t91.5 -20q79 0 132.5 43t73.5 112h2v-144h20v714h-20zM455 256q0 -50 -14 -95t-40.5 -79t-65 -54t-88.5 -20t-87.5 20t-62 54.5t-37 79.5
t-12.5 94q0 45 11.5 89.5t35.5 80t62 58t90 22.5q94 0 151 -64.5t57 -185.5z" />
    <glyph glyph-name="thousandroman" unicode="&#x217f;" horiz-adv-x="778" 
d="M55 514v-514h20v291q0 43 11.5 82t33 68.5t52.5 47t69 17.5q43 0 70 -14t42 -38t20.5 -56t5.5 -68v-330h20v326q0 36 11 68.5t32 57.5t51 39.5t67 14.5q42 0 69.5 -12t44 -34t23 -53t6.5 -69v-338h20v338q0 42 -8 76.5t-27 59t-50 38.5t-78 14q-60 0 -104 -33t-59 -87h-2
q-13 57 -53.5 89.5t-100.5 30.5q-30 0 -56.5 -10.5t-48.5 -29.5t-37 -44t-22 -55h-2v127h-20z" />
    <glyph glyph-name="Dcroat" unicode="&#x110;" horiz-adv-x="648" 
d="M74 362h297v20h-297v312h225q54 0 105.5 -15t92.5 -53.5t66 -103.5t25 -165q0 -86 -24.5 -149.5t-67 -105t-99 -62t-119.5 -20.5h-204v342zM-9 362h63v-362h219q65 0 125 20t107 62.5t75 110.5t28 164q0 105 -27.5 174t-71 109.5t-98 57t-107.5 16.5h-250v-332h-63v-20z
" />
    <glyph glyph-name="Ibreve" unicode="&#x12c;" horiz-adv-x="128" 
d="M54 714v-714h20v714h-20zM-37 871h-20q6 -48 38 -77.5t81 -29.5q51 0 85.5 28t40.5 79h-20q-5 -45 -34 -66t-72 -21q-40 0 -67 24t-32 63z" />
    <glyph glyph-name="ibreve" unicode="&#x12d;" horiz-adv-x="130" 
d="M55 0h20v514h-20v-514zM-37 674h-20q6 -48 38 -77.5t81 -29.5q51 0 85.5 28t40.5 79h-20q-5 -45 -34 -66t-72 -21q-40 0 -67 24t-32 63z" />
    <glyph glyph-name="Idotaccent" unicode="&#x130;" horiz-adv-x="128" 
d="M54 714v-714h20v714h-20zM75 845h-20v-81h20v81z" />
    <glyph glyph-name="IJ" unicode="&#x132;" horiz-adv-x="591" 
d="M54 714v-714h20v714h-20zM512 714v-513q0 -56 -11.5 -94t-34 -61t-55 -33t-75.5 -10q-84 0 -127 43.5t-43 131.5v43h-20v-43q0 -42 10.5 -77.5t33.5 -61.5t59 -40.5t87 -14.5q54 0 91.5 14.5t60.5 41.5t33.5 64t10.5 82v528h-20z" />
    <glyph glyph-name="ij" unicode="&#x133;" horiz-adv-x="260" 
d="M75 613v101h-20v-101h20zM75 0v514h-20v-514h20zM205 613v101h-20v-101h20zM205 -74v588h-20v-581q0 -32 -5.5 -50t-17.5 -26.5t-32 -10.5t-48 -2v-20q29 0 52 2.5t39 13t24 31t8 55.5z" />
    <glyph glyph-name="Jcircumflex" unicode="&#x134;" horiz-adv-x="463" 
d="M384 714v-513q0 -56 -11.5 -94t-34 -61t-55 -33t-75.5 -10q-84 0 -127 43.5t-43 131.5v43h-20v-43q0 -42 10.5 -77.5t33.5 -61.5t59 -40.5t87 -14.5q54 0 91.5 14.5t60.5 41.5t33.5 64t10.5 82v528h-20zM486 766h20l-114 139h-15l-112 -139h20l98 123z" />
    <glyph glyph-name="napostrophe" unicode="&#x149;" horiz-adv-x="604" 
d="M99 717h-20v-118q0 -38 -5 -57.5t-20 -29.5v-20q13 7 21.5 14.5t14 19.5t7.5 29t2 44v118zM159 514v-514h20v291q0 43 12 82t35.5 68.5t58.5 47t81 17.5q33 0 62.5 -9.5t52 -30t35.5 -52t13 -76.5v-338h20v341q0 45 -13.5 79.5t-38 58t-58 35.5t-73.5 12q-38 0 -69 -10.5
t-54.5 -29.5t-39 -44t-22.5 -55h-2v127h-20z" />
    <glyph glyph-name="clickretroflex" unicode="&#x1c3;" horiz-adv-x="185" 
d="M83 182h20v532h-20v-532zM83 0h20v98h-20v-98z" />
    <glyph glyph-name="DZcaron" unicode="&#x1c4;" horiz-adv-x="1148" 
d="M74 20v674h225q54 0 105.5 -15t92.5 -53.5t66 -103.5t25 -165q0 -86 -24.5 -149.5t-67 -105t-99 -62t-119.5 -20.5h-204zM54 714v-714h219q65 0 125 20t107 62.5t75 110.5t28 164q0 105 -27.5 174t-71 109.5t-98 57t-107.5 16.5h-250zM1156 20h-507l499 667v27h-491v-20
h471l-498 -667v-27h526v20zM793 903h-20l113 -139h15l113 139h-20l-99 -123z" />
    <glyph glyph-name="Dzcaron" unicode="&#x1c5;" horiz-adv-x="1055" 
d="M74 20v674h225q54 0 105.5 -15t92.5 -53.5t66 -103.5t25 -165q0 -86 -24.5 -149.5t-67 -105t-99 -62t-119.5 -20.5h-204zM54 714v-714h219q65 0 125 20t107 62.5t75 110.5t28 164q0 105 -27.5 174t-71 109.5t-98 57t-107.5 16.5h-250zM1050 20h-376l360 469v25h-354v-20
h333l-360 -469v-25h397v20zM751 706h-20l113 -139h15l113 139h-20l-99 -123z" />
    <glyph glyph-name="dzcaron" unicode="&#x1c6;" horiz-adv-x="944" 
d="M455 714v-344h-2q-18 70 -71 113t-135 43q-53 0 -94 -22t-68.5 -59t-42 -86t-14.5 -103q0 -58 15 -107t43.5 -84.5t69 -55.5t91.5 -20q79 0 132.5 43t73.5 112h2v-144h20v714h-20zM455 256q0 -50 -14 -95t-40.5 -79t-65 -54t-88.5 -20t-87.5 20t-62 54.5t-37 79.5
t-12.5 94q0 45 11.5 89.5t35.5 80t62 58t90 22.5q94 0 151 -64.5t57 -185.5zM939 20h-376l360 469v25h-354v-20h333l-360 -469v-25h397v20zM640 706h-20l113 -139h15l113 139h-20l-99 -123z" />
    <glyph glyph-name="LJ" unicode="&#x1c7;" horiz-adv-x="944" 
d="M491 20h-417v694h-20v-714h437v20zM865 714v-513q0 -56 -11.5 -94t-34 -61t-55 -33t-75.5 -10q-84 0 -127 43.5t-43 131.5v43h-20v-43q0 -42 10.5 -77.5t33.5 -61.5t59 -40.5t87 -14.5q54 0 91.5 14.5t60.5 41.5t33.5 64t10.5 82v528h-20z" />
    <glyph glyph-name="Lj" unicode="&#x1c8;" horiz-adv-x="611" 
d="M491 20h-417v694h-20v-714h437v20zM556 613v101h-20v-101h20zM556 -74v588h-20v-581q0 -32 -5.5 -50t-17.5 -26.5t-32 -10.5t-48 -2v-20q29 0 52 2.5t39 13t24 31t8 55.5z" />
    <glyph glyph-name="lj" unicode="&#x1c9;" horiz-adv-x="260" 
d="M55 714v-714h20v714h-20zM205 613v101h-20v-101h20zM205 -74v588h-20v-581q0 -32 -5.5 -50t-17.5 -26.5t-32 -10.5t-48 -2v-20q29 0 52 2.5t39 13t24 31t8 55.5z" />
    <glyph glyph-name="NJ" unicode="&#x1ca;" horiz-adv-x="1111" 
d="M54 714v-714h20v689h2l488 -689h30v714h-20v-689h-2l-488 689h-30zM1032 714v-513q0 -56 -11.5 -94t-34 -61t-55 -33t-75.5 -10q-84 0 -127 43.5t-43 131.5v43h-20v-43q0 -42 10.5 -77.5t33.5 -61.5t59 -40.5t87 -14.5q54 0 91.5 14.5t60.5 41.5t33.5 64t10.5 82v528h-20
z" />
    <glyph glyph-name="Nj" unicode="&#x1cb;" horiz-adv-x="778" 
d="M54 714v-714h20v689h2l488 -689h30v714h-20v-689h-2l-488 689h-30zM723 613v101h-20v-101h20zM723 -74v588h-20v-581q0 -32 -5.5 -50t-17.5 -26.5t-32 -10.5t-48 -2v-20q29 0 52 2.5t39 13t24 31t8 55.5z" />
    <glyph glyph-name="nj" unicode="&#x1cc;" horiz-adv-x="630" 
d="M55 514v-514h20v291q0 43 12 82t35.5 68.5t58.5 47t81 17.5q33 0 62.5 -9.5t52 -30t35.5 -52t13 -76.5v-338h20v341q0 45 -13.5 79.5t-38 58t-58 35.5t-73.5 12q-38 0 -69 -10.5t-54.5 -29.5t-39 -44t-22.5 -55h-2v127h-20zM575 613v101h-20v-101h20zM575 -74v588h-20
v-581q0 -32 -5.5 -50t-17.5 -26.5t-32 -10.5t-48 -2v-20q29 0 52 2.5t39 13t24 31t8 55.5z" />
    <glyph glyph-name="Acaron" unicode="&#x1cd;" horiz-adv-x="575" 
d="M106 235h364l94 -235h22l-282 714h-26l-289 -714h22zM462 255h-348l176 439h2zM187 903h-20l113 -139h15l113 139h-20l-99 -123z" />
    <glyph glyph-name="acaron" unicode="&#x1ce;" horiz-adv-x="481" 
d="M54 355h20q5 72 50 111.5t126 39.5q51 0 81 -13.5t45.5 -34.5t19.5 -46t4 -48q0 -29 -11.5 -44.5t-36 -23t-62.5 -10t-91 -5.5q-32 -2 -64 -8.5t-57 -23t-40.5 -45.5t-15.5 -77q0 -69 47 -103.5t125 -34.5q40 0 74 10.5t60.5 28.5t44 41t25.5 48h2v-67q0 -29 16.5 -39.5
t38.5 -10.5h30v20q-10 -1 -21.5 -1.5t-21.5 2t-16 9.5t-6 22v327q-1 42 -15 70t-37 45.5t-53.5 24.5t-64.5 7q-48 0 -83.5 -13t-60 -36t-37.5 -54.5t-15 -67.5zM400 302v-95q0 -38 -13.5 -74t-40 -63.5t-65.5 -44.5t-89 -17q-42 0 -70.5 10.5t-46.5 27t-25.5 38t-7.5 43.5
q0 41 13 66.5t35 40t50.5 20t58.5 7.5t61.5 3t58.5 5t48 11.5t31 21.5h2zM153 718h-20l113 -139h15l113 139h-20l-99 -123z" />
    <glyph glyph-name="Icaron" unicode="&#x1cf;" horiz-adv-x="128" 
d="M54 714v-714h20v714h-20zM-35 903h-20l113 -139h15l113 139h-20l-99 -123z" />
    <glyph glyph-name="icaron" unicode="&#x1d0;" horiz-adv-x="130" 
d="M55 0h20v514h-20v-514zM-35 706h-20l113 -139h15l113 139h-20l-99 -123z" />
    <glyph glyph-name="Ocaron" unicode="&#x1d1;" horiz-adv-x="721" 
d="M32 357q0 76 21.5 144t63 119t103 81t141.5 30t141.5 -30t103 -81t63 -119t21.5 -144t-21.5 -144t-63 -119t-103 -80.5t-141.5 -29.5t-141.5 29.5t-103 80.5t-63 119t-21.5 144zM52 357q1 -77 22.5 -142t61 -112t96.5 -73.5t129 -26.5t129 26.5t96.5 73.5t61 112
t22.5 142q-1 77 -22.5 142t-61 112t-96.5 73.5t-129 26.5t-129 -26.5t-96.5 -73.5t-61 -112t-22.5 -142zM261 920h-20l113 -139h15l113 139h-20l-99 -123z" />
    <glyph glyph-name="ocaron" unicode="&#x1d2;" horiz-adv-x="519" 
d="M48 257q0 48 13.5 93t40.5 79.5t66.5 55.5t91.5 21q51 0 90.5 -21t66.5 -55.5t40.5 -79.5t13.5 -93q0 -49 -13.5 -94t-40.5 -79.5t-66.5 -55t-90.5 -20.5q-52 0 -91.5 20.5t-66.5 55t-40.5 79.5t-13.5 94zM28 257q0 -53 15 -101.5t44.5 -85.5t72.5 -59t99 -22
q57 0 100 22t72.5 59t44.5 85.5t15 101.5t-15 101.5t-44.5 85.5t-72.5 59.5t-99 22.5q-57 0 -100 -22.5t-72.5 -59.5t-44.5 -85.5t-15 -101.5zM159 718h-20l113 -139h15l113 139h-20l-99 -123z" />
    <glyph glyph-name="Ucaron" unicode="&#x1d3;" horiz-adv-x="632" 
d="M558 714v-448q0 -129 -59 -196t-183 -67t-183 67t-59 196v448h-20v-448q0 -144 67 -213t195 -69t195 69t67 213v448h-20zM216 903h-20l113 -139h15l113 139h-20l-99 -123z" />
    <glyph glyph-name="ucaron" unicode="&#x1d4;" 
d="M445 0v514h-20v-291q0 -43 -12 -82t-35.5 -68.5t-58.5 -47t-81 -17.5q-33 0 -62.5 9.5t-52 30t-35.5 52t-13 76.5v338h-20v-341q0 -45 13.5 -79.5t38 -58t58 -35t73.5 -11.5q76 0 123.5 39t61.5 99h2v-127h20zM150 706h-20l113 -139h15l113 139h-20l-99 -123z" />
    <glyph glyph-name="Udieresismacron" unicode="&#x1d5;" horiz-adv-x="632" 
d="M558 714v-448q0 -129 -59 -196t-183 -67t-183 67t-59 196v448h-20v-448q0 -144 67 -213t195 -69t195 69t67 213v448h-20zM384 764h20v81h-20v-81zM229 764h20v81h-20v-81zM432 895v20h-231v-20h231z" />
    <glyph glyph-name="udieresismacron" unicode="&#x1d6;" 
d="M445 0v514h-20v-291q0 -43 -12 -82t-35.5 -68.5t-58.5 -47t-81 -17.5q-33 0 -62.5 9.5t-52 30t-35.5 52t-13 76.5v338h-20v-341q0 -45 13.5 -79.5t38 -58t58 -35t73.5 -11.5q76 0 123.5 39t61.5 99h2v-127h20zM318 567h20v81h-20v-81zM163 567h20v81h-20v-81zM366 695v20
h-231v-20h231z" />
    <glyph glyph-name="Udieresisacute" unicode="&#x1d7;" horiz-adv-x="632" 
d="M558 714v-448q0 -129 -59 -196t-183 -67t-183 67t-59 196v448h-20v-448q0 -144 67 -213t195 -69t195 69t67 213v448h-20zM384 764h20v81h-20v-81zM229 764h20v81h-20v-81zM476 1045h-29l-132 -144h15z" />
    <glyph glyph-name="udieresisacute" unicode="&#x1d8;" 
d="M445 0v514h-20v-291q0 -43 -12 -82t-35.5 -68.5t-58.5 -47t-81 -17.5q-33 0 -62.5 9.5t-52 30t-35.5 52t-13 76.5v338h-20v-341q0 -45 13.5 -79.5t38 -58t58 -35t73.5 -11.5q76 0 123.5 39t61.5 99h2v-127h20zM318 567h20v81h-20v-81zM163 567h20v81h-20v-81zM397 842
h-29l-132 -144h15z" />
    <glyph glyph-name="Udieresiscaron" unicode="&#x1d9;" horiz-adv-x="632" 
d="M558 714v-448q0 -129 -59 -196t-183 -67t-183 67t-59 196v448h-20v-448q0 -144 67 -213t195 -69t195 69t67 213v448h-20zM384 764h20v81h-20v-81zM229 764h20v81h-20v-81zM216 1034h-20l113 -139h15l113 139h-20l-99 -123z" />
    <glyph glyph-name="udieresiscaron" unicode="&#x1da;" 
d="M445 0v514h-20v-291q0 -43 -12 -82t-35.5 -68.5t-58.5 -47t-81 -17.5q-33 0 -62.5 9.5t-52 30t-35.5 52t-13 76.5v338h-20v-341q0 -45 13.5 -79.5t38 -58t58 -35t73.5 -11.5q76 0 123.5 39t61.5 99h2v-127h20zM318 567h20v81h-20v-81zM163 567h20v81h-20v-81zM150 834
h-20l113 -139h15l113 139h-20l-99 -123z" />
    <glyph glyph-name="Udieresisgrave" unicode="&#x1db;" horiz-adv-x="632" 
d="M558 714v-448q0 -129 -59 -196t-183 -67t-183 67t-59 196v448h-20v-448q0 -144 67 -213t195 -69t195 69t67 213v448h-20zM384 764h20v81h-20v-81zM229 764h20v81h-20v-81zM180 1036l138 -144h15l-124 144h-29z" />
    <glyph glyph-name="udieresisgrave" unicode="&#x1dc;" 
d="M445 0v514h-20v-291q0 -43 -12 -82t-35.5 -68.5t-58.5 -47t-81 -17.5q-33 0 -62.5 9.5t-52 30t-35.5 52t-13 76.5v338h-20v-341q0 -45 13.5 -79.5t38 -58t58 -35t73.5 -11.5q76 0 123.5 39t61.5 99h2v-127h20zM318 567h20v81h-20v-81zM163 567h20v81h-20v-81zM106 836
l138 -144h15l-124 144h-29z" />
    <glyph glyph-name="Adieresismacron" unicode="&#x1de;" horiz-adv-x="575" 
d="M106 235h364l94 -235h22l-282 714h-26l-289 -714h22zM462 255h-348l176 439h2zM355 764h20v81h-20v-81zM200 764h20v81h-20v-81zM403 895v20h-231v-20h231z" />
    <glyph glyph-name="adieresismacron" unicode="&#x1df;" horiz-adv-x="481" 
d="M54 355h20q5 72 50 111.5t126 39.5q51 0 81 -13.5t45.5 -34.5t19.5 -46t4 -48q0 -29 -11.5 -44.5t-36 -23t-62.5 -10t-91 -5.5q-32 -2 -64 -8.5t-57 -23t-40.5 -45.5t-15.5 -77q0 -69 47 -103.5t125 -34.5q40 0 74 10.5t60.5 28.5t44 41t25.5 48h2v-67q0 -29 16.5 -39.5
t38.5 -10.5h30v20q-10 -1 -21.5 -1.5t-21.5 2t-16 9.5t-6 22v327q-1 42 -15 70t-37 45.5t-53.5 24.5t-64.5 7q-48 0 -83.5 -13t-60 -36t-37.5 -54.5t-15 -67.5zM400 302v-95q0 -38 -13.5 -74t-40 -63.5t-65.5 -44.5t-89 -17q-42 0 -70.5 10.5t-46.5 27t-25.5 38t-7.5 43.5
q0 41 13 66.5t35 40t50.5 20t58.5 7.5t61.5 3t58.5 5t48 11.5t31 21.5h2zM321 579h20v81h-20v-81zM166 579h20v81h-20v-81zM369 707v20h-231v-20h231z" />
    <glyph glyph-name="Adotmacron" unicode="&#x1e0;" horiz-adv-x="575" 
d="M106 235h364l94 -235h22l-282 714h-26l-289 -714h22zM462 255h-348l176 439h2zM297 845h-20v-81h20v81zM403 895v20h-231v-20h231z" />
    <glyph glyph-name="adotmacron" unicode="&#x1e1;" horiz-adv-x="481" 
d="M54 355h20q5 72 50 111.5t126 39.5q51 0 81 -13.5t45.5 -34.5t19.5 -46t4 -48q0 -29 -11.5 -44.5t-36 -23t-62.5 -10t-91 -5.5q-32 -2 -64 -8.5t-57 -23t-40.5 -45.5t-15.5 -77q0 -69 47 -103.5t125 -34.5q40 0 74 10.5t60.5 28.5t44 41t25.5 48h2v-67q0 -29 16.5 -39.5
t38.5 -10.5h30v20q-10 -1 -21.5 -1.5t-21.5 2t-16 9.5t-6 22v327q-1 42 -15 70t-37 45.5t-53.5 24.5t-64.5 7q-48 0 -83.5 -13t-60 -36t-37.5 -54.5t-15 -67.5zM400 302v-95q0 -38 -13.5 -74t-40 -63.5t-65.5 -44.5t-89 -17q-42 0 -70.5 10.5t-46.5 27t-25.5 38t-7.5 43.5
q0 41 13 66.5t35 40t50.5 20t58.5 7.5t61.5 3t58.5 5t48 11.5t31 21.5h2zM263 660h-20v-81h20v81zM369 707v20h-231v-20h231z" />
    <glyph glyph-name="AEmacron" unicode="&#x1e2;" horiz-adv-x="852" 
d="M376 696h47v-402h-258zM155 274h268v-274h412v20h-392v342h360v20h-360v312h392v20h-469l-377 -714h21zM659 767v20h-231v-20h231z" />
    <glyph glyph-name="aemacron" unicode="&#x1e3;" horiz-adv-x="889" 
d="M64 355h20q5 72 50 111.5t126 39.5q51 0 81 -13.5t45.5 -34.5t19.5 -46t4 -48q0 -29 -11.5 -44.5t-36 -23t-62.5 -10t-91 -5.5q-32 -2 -64 -8.5t-57 -23t-40.5 -45.5t-15.5 -77q0 -69 47 -103.5t125 -34.5q41 0 77 11t64.5 32.5t48 52.5t27.5 70h2q20 -81 74 -124
t138 -42q45 0 83.5 13.5t67 38.5t46.5 60t22 77h-20q-5 -42 -22.5 -73.5t-44 -53t-60.5 -32.5t-72 -11q-55 0 -93.5 19t-62.5 52.5t-35.5 78t-13.5 95.5h427q2 54 -10.5 103.5t-39.5 87t-69 60t-101 22.5q-40 0 -73.5 -11.5t-59.5 -31.5t-44 -47.5t-28 -59.5h-2
q-1 43 -15 72t-37 46t-53.5 24.5t-64.5 7.5q-48 0 -83.5 -13t-60 -36t-37.5 -54.5t-15 -67.5zM410 302v-95q0 -38 -13.5 -74t-40 -63.5t-65.5 -44.5t-89 -17q-42 0 -70.5 10.5t-46.5 27t-25.5 38t-7.5 43.5q0 41 13 66.5t35 40t50.5 20t58.5 7.5t61.5 3t58.5 5t48 11.5
t31 21.5h2zM837 273h-407q4 53 19 96t41 73.5t63 47t84 16.5q51 0 88.5 -18.5t62 -50t37 -74t12.5 -90.5zM561 579v20h-231v-20h231z" />
    <glyph glyph-name="Gcaron" unicode="&#x1e6;" horiz-adv-x="722" 
d="M377 314h277v-37q0 -59 -22 -109.5t-60.5 -87t-90.5 -57t-111 -20.5q-79 0 -138.5 28t-99.5 76t-60 112.5t-20 137.5t21 137.5t61.5 112.5t99 76t133.5 28q56 0 102.5 -15.5t82 -44.5t59 -69.5t32.5 -90.5h20q-9 55 -33.5 99t-63 75.5t-89 48.5t-110.5 17q-79 0 -141 -29
t-105 -79.5t-66 -119t-23 -146.5q0 -77 21.5 -145t63.5 -118.5t105 -80t145 -29.5q106 0 181 51t104 142h2v-177h20v334h-297v-20zM253 920h-20l113 -139h15l113 139h-20l-99 -123z" />
    <glyph glyph-name="gcaron" unicode="&#x1e7;" horiz-adv-x="519" 
d="M446 172v-155q0 -96 -50.5 -140.5t-144.5 -44.5q-34 0 -65.5 8t-55.5 25t-38.5 44t-15.5 65h-20q1 -44 17 -74.5t43 -50t62 -28.5t74 -9q102 0 158 49.5t56 155.5v497h-20v-137h-2q-8 32 -25.5 59t-43 47t-57.5 31.5t-69 11.5q-54 0 -95.5 -20t-69.5 -54.5t-42 -80
t-14 -97.5q0 -49 13.5 -94t40 -78.5t66.5 -53.5t94 -20q33 0 65.5 9.5t60 28t48 45.5t28.5 61h2zM445 274q0 -46 -13.5 -87.5t-39 -72t-63.5 -48.5t-88 -18q-47 0 -83 17.5t-60.5 48t-37 71.5t-12.5 89q0 47 12.5 89t38 74t63 50.5t87.5 18.5q48 0 85 -19.5t61.5 -52
t37 -74.5t12.5 -86zM147 718h-20l113 -139h15l113 139h-20l-99 -123z" />
    <glyph glyph-name="Kcaron" unicode="&#x1e8;" horiz-adv-x="593" 
d="M74 253l164 145l354 -398h27l-365 410l345 304h-30l-495 -434v434h-20v-714h20v253zM196 903h-20l113 -139h15l113 139h-20l-99 -123z" />
    <glyph glyph-name="kcaron" unicode="&#x1e9;" horiz-adv-x="444" 
d="M75 194l133 110l241 -304h27l-253 318l236 196h-29l-355 -295v495h-20v-714h20v194zM165 903h-20l113 -139h15l113 139h-20l-99 -123z" />
    <glyph glyph-name="Oogonek" unicode="&#x1ea;" horiz-adv-x="721" 
d="M32 357q0 76 21.5 144t63 119t103 81t141.5 30t141.5 -30t103 -81t63 -119t21.5 -144t-21.5 -144t-63 -119t-103 -80.5t-141.5 -29.5t-141.5 29.5t-103 80.5t-63 119t-21.5 144zM52 357q1 -77 22.5 -142t61 -112t96.5 -73.5t129 -26.5t129 26.5t96.5 73.5t61 112
t22.5 142q-1 77 -22.5 142t-61 112t-96.5 73.5t-129 26.5t-129 -26.5t-96.5 -73.5t-61 -112t-22.5 -142zM404 -13q-57 -43 -80 -71.5t-23 -53.5q0 -16 12 -30.5t40 -14.5q24 0 45 11t32 22l14 -13q-14 -14 -37 -26t-58 -12q-38 0 -54 18t-16 44q0 18 8.5 35t22 32.5t30.5 30
t35 28.5h29v0z" />
    <glyph glyph-name="oogonek" unicode="&#x1eb;" horiz-adv-x="519" 
d="M48 257q0 48 13.5 93t40.5 79.5t66.5 55.5t91.5 21q51 0 90.5 -21t66.5 -55.5t40.5 -79.5t13.5 -93q0 -49 -13.5 -94t-40.5 -79.5t-66.5 -55t-90.5 -20.5q-52 0 -91.5 20.5t-66.5 55t-40.5 79.5t-13.5 94zM28 257q0 -53 15 -101.5t44.5 -85.5t72.5 -59t99 -22
q57 0 100 22t72.5 59t44.5 85.5t15 101.5t-15 101.5t-44.5 85.5t-72.5 59.5t-99 22.5q-57 0 -100 -22.5t-72.5 -59.5t-44.5 -85.5t-15 -101.5zM302 -8q-57 -43 -80 -71.5t-23 -53.5q0 -16 12 -30.5t40 -14.5q24 0 45 11t32 22l14 -13q-14 -14 -37 -26t-58 -12q-38 0 -54 18
t-16 44q0 18 8.5 35t22 32.5t30.5 30t35 28.5h29v0z" />
    <glyph glyph-name="Oogonekmacron" unicode="&#x1ec;" horiz-adv-x="721" 
d="M32 357q0 76 21.5 144t63 119t103 81t141.5 30t141.5 -30t103 -81t63 -119t21.5 -144t-21.5 -144t-63 -119t-103 -80.5t-141.5 -29.5t-141.5 29.5t-103 80.5t-63 119t-21.5 144zM52 357q1 -77 22.5 -142t61 -112t96.5 -73.5t129 -26.5t129 26.5t96.5 73.5t61 112
t22.5 142q-1 77 -22.5 142t-61 112t-96.5 73.5t-129 26.5t-129 -26.5t-96.5 -73.5t-61 -112t-22.5 -142zM404 -13q-57 -43 -80 -71.5t-23 -53.5q0 -16 12 -30.5t40 -14.5q24 0 45 11t32 22l14 -13q-14 -14 -37 -26t-58 -12q-38 0 -54 18t-16 44q0 18 8.5 35t22 32.5t30.5 30
t35 28.5h29v0zM451 778v20h-231v-20h231z" />
    <glyph glyph-name="oogonekmacron" unicode="&#x1ed;" horiz-adv-x="519" 
d="M48 257q0 48 13.5 93t40.5 79.5t66.5 55.5t91.5 21q51 0 90.5 -21t66.5 -55.5t40.5 -79.5t13.5 -93q0 -49 -13.5 -94t-40.5 -79.5t-66.5 -55t-90.5 -20.5q-52 0 -91.5 20.5t-66.5 55t-40.5 79.5t-13.5 94zM28 257q0 -53 15 -101.5t44.5 -85.5t72.5 -59t99 -22
q57 0 100 22t72.5 59t44.5 85.5t15 101.5t-15 101.5t-44.5 85.5t-72.5 59.5t-99 22.5q-57 0 -100 -22.5t-72.5 -59.5t-44.5 -85.5t-15 -101.5zM302 -8q-57 -43 -80 -71.5t-23 -53.5q0 -16 12 -30.5t40 -14.5q24 0 45 11t32 22l14 -13q-14 -14 -37 -26t-58 -12q-38 0 -54 18
t-16 44q0 18 8.5 35t22 32.5t30.5 30t35 28.5h29v0zM375 579v20h-231v-20h231z" />
    <glyph glyph-name="DZ" unicode="&#x1f1;" horiz-adv-x="1148" 
d="M74 20v674h225q54 0 105.5 -15t92.5 -53.5t66 -103.5t25 -165q0 -86 -24.5 -149.5t-67 -105t-99 -62t-119.5 -20.5h-204zM54 714v-714h219q65 0 125 20t107 62.5t75 110.5t28 164q0 105 -27.5 174t-71 109.5t-98 57t-107.5 16.5h-250zM1156 20h-507l499 667v27h-491v-20
h471l-498 -667v-27h526v20z" />
    <glyph glyph-name="Dz" unicode="&#x1f2;" horiz-adv-x="1055" 
d="M74 20v674h225q54 0 105.5 -15t92.5 -53.5t66 -103.5t25 -165q0 -86 -24.5 -149.5t-67 -105t-99 -62t-119.5 -20.5h-204zM54 714v-714h219q65 0 125 20t107 62.5t75 110.5t28 164q0 105 -27.5 174t-71 109.5t-98 57t-107.5 16.5h-250zM1050 20h-376l360 469v25h-354v-20
h333l-360 -469v-25h397v20z" />
    <glyph glyph-name="dz" unicode="&#x1f3;" horiz-adv-x="944" 
d="M455 714v-344h-2q-18 70 -71 113t-135 43q-53 0 -94 -22t-68.5 -59t-42 -86t-14.5 -103q0 -58 15 -107t43.5 -84.5t69 -55.5t91.5 -20q79 0 132.5 43t73.5 112h2v-144h20v714h-20zM455 256q0 -50 -14 -95t-40.5 -79t-65 -54t-88.5 -20t-87.5 20t-62 54.5t-37 79.5
t-12.5 94q0 45 11.5 89.5t35.5 80t62 58t90 22.5q94 0 151 -64.5t57 -185.5zM939 20h-376l360 469v25h-354v-20h333l-360 -469v-25h397v20z" />
    <glyph glyph-name="Gacute" unicode="&#x1f4;" horiz-adv-x="722" 
d="M377 314h277v-37q0 -59 -22 -109.5t-60.5 -87t-90.5 -57t-111 -20.5q-79 0 -138.5 28t-99.5 76t-60 112.5t-20 137.5t21 137.5t61.5 112.5t99 76t133.5 28q56 0 102.5 -15.5t82 -44.5t59 -69.5t32.5 -90.5h20q-9 55 -33.5 99t-63 75.5t-89 48.5t-110.5 17q-79 0 -141 -29
t-105 -79.5t-66 -119t-23 -146.5q0 -77 21.5 -145t63.5 -118.5t105 -80t145 -29.5q106 0 181 51t104 142h2v-177h20v334h-297v-20zM489 931h-29l-132 -144h15z" />
    <glyph glyph-name="gacute" unicode="&#x1f5;" horiz-adv-x="519" 
d="M446 172v-155q0 -96 -50.5 -140.5t-144.5 -44.5q-34 0 -65.5 8t-55.5 25t-38.5 44t-15.5 65h-20q1 -44 17 -74.5t43 -50t62 -28.5t74 -9q102 0 158 49.5t56 155.5v497h-20v-137h-2q-8 32 -25.5 59t-43 47t-57.5 31.5t-69 11.5q-54 0 -95.5 -20t-69.5 -54.5t-42 -80
t-14 -97.5q0 -49 13.5 -94t40 -78.5t66.5 -53.5t94 -20q33 0 65.5 9.5t60 28t48 45.5t28.5 61h2zM445 274q0 -46 -13.5 -87.5t-39 -72t-63.5 -48.5t-88 -18q-47 0 -83 17.5t-60.5 48t-37 71.5t-12.5 89q0 47 12.5 89t38 74t63 50.5t87.5 18.5q48 0 85 -19.5t61.5 -52
t37 -74.5t12.5 -86zM376 726h-29l-132 -144h15z" />
    <glyph glyph-name="Ngrave" unicode="&#x1f8;" horiz-adv-x="648" 
d="M54 714v-714h20v689h2l488 -689h30v714h-20v-689h-2l-488 689h-30zM197 905l138 -144h15l-124 144h-29z" />
    <glyph glyph-name="ngrave" unicode="&#x1f9;" 
d="M55 514v-514h20v291q0 43 12 82t35.5 68.5t58.5 47t81 17.5q33 0 62.5 -9.5t52 -30t35.5 -52t13 -76.5v-338h20v341q0 45 -13.5 79.5t-38 58t-58 35.5t-73.5 12q-38 0 -69 -10.5t-54.5 -29.5t-39 -44t-22.5 -55h-2v127h-20zM137 723l138 -144h15l-124 144h-29z" />
    <glyph glyph-name="Aringacute" unicode="&#x1fa;" horiz-adv-x="575" 
d="M106 235h364l94 -235h22l-282 714h-26l-289 -714h22zM462 255h-348l176 439h2zM355 852q0 -28 -20 -48t-48 -20t-47.5 20t-19.5 48t19.5 48t47.5 20t48 -20t20 -48zM375 852q0 18 -7 34t-19 28t-28 19t-34 7q-36 0 -61.5 -26t-25.5 -62t25.5 -62t61.5 -26q18 0 34 7
t28 19t19 28t7 34zM411 1131h-29l-132 -144h15z" />
    <glyph glyph-name="aringacute" unicode="&#x1fb;" horiz-adv-x="481" 
d="M54 355h20q5 72 50 111.5t126 39.5q51 0 81 -13.5t45.5 -34.5t19.5 -46t4 -48q0 -29 -11.5 -44.5t-36 -23t-62.5 -10t-91 -5.5q-32 -2 -64 -8.5t-57 -23t-40.5 -45.5t-15.5 -77q0 -69 47 -103.5t125 -34.5q40 0 74 10.5t60.5 28.5t44 41t25.5 48h2v-67q0 -29 16.5 -39.5
t38.5 -10.5h30v20q-10 -1 -21.5 -1.5t-21.5 2t-16 9.5t-6 22v327q-1 42 -15 70t-37 45.5t-53.5 24.5t-64.5 7q-48 0 -83.5 -13t-60 -36t-37.5 -54.5t-15 -67.5zM400 302v-95q0 -38 -13.5 -74t-40 -63.5t-65.5 -44.5t-89 -17q-42 0 -70.5 10.5t-46.5 27t-25.5 38t-7.5 43.5
q0 41 13 66.5t35 40t50.5 20t58.5 7.5t61.5 3t58.5 5t48 11.5t31 21.5h2zM321 667q0 -28 -20 -48t-48 -20t-47.5 20t-19.5 48t19.5 48t47.5 20t48 -20t20 -48zM341 667q0 18 -7 34t-19 28t-28 19t-34 7q-36 0 -61.5 -26t-25.5 -62t25.5 -62t61.5 -26q18 0 34 7t28 19t19 28
t7 34zM365 946h-29l-132 -144h15z" />
    <glyph glyph-name="AEacute" unicode="&#x1fc;" horiz-adv-x="852" 
d="M376 696h47v-402h-258zM155 274h268v-274h412v20h-392v342h360v20h-360v312h392v20h-469l-377 -714h21zM630 911h-29l-132 -144h15z" />
    <glyph glyph-name="aeacute" unicode="&#x1fd;" horiz-adv-x="889" 
d="M64 355h20q5 72 50 111.5t126 39.5q51 0 81 -13.5t45.5 -34.5t19.5 -46t4 -48q0 -29 -11.5 -44.5t-36 -23t-62.5 -10t-91 -5.5q-32 -2 -64 -8.5t-57 -23t-40.5 -45.5t-15.5 -77q0 -69 47 -103.5t125 -34.5q41 0 77 11t64.5 32.5t48 52.5t27.5 70h2q20 -81 74 -124
t138 -42q45 0 83.5 13.5t67 38.5t46.5 60t22 77h-20q-5 -42 -22.5 -73.5t-44 -53t-60.5 -32.5t-72 -11q-55 0 -93.5 19t-62.5 52.5t-35.5 78t-13.5 95.5h427q2 54 -10.5 103.5t-39.5 87t-69 60t-101 22.5q-40 0 -73.5 -11.5t-59.5 -31.5t-44 -47.5t-28 -59.5h-2
q-1 43 -15 72t-37 46t-53.5 24.5t-64.5 7.5q-48 0 -83.5 -13t-60 -36t-37.5 -54.5t-15 -67.5zM410 302v-95q0 -38 -13.5 -74t-40 -63.5t-65.5 -44.5t-89 -17q-42 0 -70.5 10.5t-46.5 27t-25.5 38t-7.5 43.5q0 41 13 66.5t35 40t50.5 20t58.5 7.5t61.5 3t58.5 5t48 11.5
t31 21.5h2zM837 273h-407q4 53 19 96t41 73.5t63 47t84 16.5q51 0 88.5 -18.5t62 -50t37 -74t12.5 -90.5zM603 734h-29l-132 -144h15z" />
    <glyph glyph-name="Oslashacute" unicode="&#x1fe;" horiz-adv-x="721" 
d="M113 98l-73 -81l15 -12l71 79q42 -48 100.5 -74t134.5 -26q80 0 141.5 29.5t103 80.5t63 119t21.5 144t-20 142.5t-62 117.5l61 68l-15 12l-59 -65q-42 46 -100.5 72.5t-133.5 26.5q-80 0 -141.5 -30t-103 -81t-63 -119t-21.5 -144q0 -75 20.5 -141.5t60.5 -117.5z
M140 99l454 502q74 -93 76 -244q-1 -77 -22.5 -142t-61 -112t-96.5 -73.5t-129 -26.5t-127 25t-94 71zM581 617l-454 -503q-73 93 -75 243q1 77 22.5 142t61 112t96.5 73.5t129 26.5q70 0 125 -24.5t95 -69.5zM465 927h-29l-132 -144h15z" />
    <glyph glyph-name="oslashacute" unicode="&#x1ff;" horiz-adv-x="519" 
d="M472 496l-45 -47q-29 36 -71 56.5t-96 20.5q-57 0 -100 -22.5t-72.5 -59.5t-44.5 -85.5t-15 -101.5q0 -48 12.5 -93t37.5 -80l-60 -62l14 -14l57 59q29 -36 71 -57t99 -21t100 22t72.5 59t44.5 85.5t15 101.5q0 51 -13 96t-39 80l47 49zM104 83l320 335q23 -34 35 -75
t12 -86q0 -49 -13.5 -94t-40.5 -79.5t-66.5 -55t-90.5 -20.5q-52 0 -91 20t-65 55zM412 434l-320 -335q-44 67 -44 158q0 48 13.5 93t40.5 79.5t66.5 55.5t91.5 21q51 0 88.5 -19.5t63.5 -52.5zM372 726h-29l-132 -144h15z" />
    <glyph glyph-name="Adblgrave" unicode="&#x200;" horiz-adv-x="575" 
d="M106 235h364l94 -235h22l-282 714h-26l-289 -714h22zM462 255h-348l176 439h2zM78 908h29l132 -144h-15zM228 908h29l131 -144h-15z" />
    <glyph glyph-name="adblgrave" unicode="&#x201;" horiz-adv-x="481" 
d="M54 355h20q5 72 50 111.5t126 39.5q51 0 81 -13.5t45.5 -34.5t19.5 -46t4 -48q0 -29 -11.5 -44.5t-36 -23t-62.5 -10t-91 -5.5q-32 -2 -64 -8.5t-57 -23t-40.5 -45.5t-15.5 -77q0 -69 47 -103.5t125 -34.5q40 0 74 10.5t60.5 28.5t44 41t25.5 48h2v-67q0 -29 16.5 -39.5
t38.5 -10.5h30v20q-10 -1 -21.5 -1.5t-21.5 2t-16 9.5t-6 22v327q-1 42 -15 70t-37 45.5t-53.5 24.5t-64.5 7q-48 0 -83.5 -13t-60 -36t-37.5 -54.5t-15 -67.5zM400 302v-95q0 -38 -13.5 -74t-40 -63.5t-65.5 -44.5t-89 -17q-42 0 -70.5 10.5t-46.5 27t-25.5 38t-7.5 43.5
q0 41 13 66.5t35 40t50.5 20t58.5 7.5t61.5 3t58.5 5t48 11.5t31 21.5h2zM44 726h29l132 -144h-15zM194 726h29l131 -144h-15z" />
    <glyph glyph-name="Ainvertedbreve" unicode="&#x202;" horiz-adv-x="575" 
d="M106 235h364l94 -235h22l-282 714h-26l-289 -714h22zM462 255h-348l176 439h2zM389 764q-5 39 -32 63t-67 24q-43 0 -72 -21t-34 -66h-20q6 51 40.5 79t85.5 28q49 0 81 -29.5t38 -77.5h-20v0z" />
    <glyph glyph-name="ainvertedbreve" unicode="&#x203;" horiz-adv-x="481" 
d="M54 355h20q5 72 50 111.5t126 39.5q51 0 81 -13.5t45.5 -34.5t19.5 -46t4 -48q0 -29 -11.5 -44.5t-36 -23t-62.5 -10t-91 -5.5q-32 -2 -64 -8.5t-57 -23t-40.5 -45.5t-15.5 -77q0 -69 47 -103.5t125 -34.5q40 0 74 10.5t60.5 28.5t44 41t25.5 48h2v-67q0 -29 16.5 -39.5
t38.5 -10.5h30v20q-10 -1 -21.5 -1.5t-21.5 2t-16 9.5t-6 22v327q-1 42 -15 70t-37 45.5t-53.5 24.5t-64.5 7q-48 0 -83.5 -13t-60 -36t-37.5 -54.5t-15 -67.5zM400 302v-95q0 -38 -13.5 -74t-40 -63.5t-65.5 -44.5t-89 -17q-42 0 -70.5 10.5t-46.5 27t-25.5 38t-7.5 43.5
q0 41 13 66.5t35 40t50.5 20t58.5 7.5t61.5 3t58.5 5t48 11.5t31 21.5h2zM355 579q-5 39 -32 63t-67 24q-43 0 -72 -21t-34 -66h-20q6 51 40.5 79t85.5 28q49 0 81 -29.5t38 -77.5h-20v0z" />
    <glyph glyph-name="Edblgrave" unicode="&#x204;" horiz-adv-x="537" 
d="M74 20v342h427v20h-427v312h454v20h-474v-714h478v20h-458zM73 911h29l132 -144h-15zM223 911h29l131 -144h-15z" />
    <glyph glyph-name="edblgrave" unicode="&#x205;" 
d="M45 253h430q2 53 -10.5 102t-40 87t-71 61t-103.5 23q-43 0 -84 -18t-72 -52.5t-50 -84.5t-19 -114q0 -57 13 -106.5t40 -86t69.5 -56.5t102.5 -19q88 0 148 49.5t71 139.5h-20q-13 -85 -66.5 -127.5t-134.5 -42.5q-55 0 -93 19t-62 52t-35.5 77.5t-12.5 96.5zM455 273
h-410q3 54 20 97t44.5 73.5t64 46.5t78.5 16q50 0 88 -18.5t63.5 -50.5t38.5 -74.5t13 -89.5zM39 731h29l132 -144h-15zM189 731h29l131 -144h-15z" />
    <glyph glyph-name="Einvertedbreve" unicode="&#x206;" horiz-adv-x="537" 
d="M74 20v342h427v20h-427v312h454v20h-474v-714h478v20h-458zM395 764q-5 39 -32 63t-67 24q-43 0 -72 -21t-34 -66h-20q6 51 40.5 79t85.5 28q49 0 81 -29.5t38 -77.5h-20v0z" />
    <glyph glyph-name="einvertedbreve" unicode="&#x207;" 
d="M45 253h430q2 53 -10.5 102t-40 87t-71 61t-103.5 23q-43 0 -84 -18t-72 -52.5t-50 -84.5t-19 -114q0 -57 13 -106.5t40 -86t69.5 -56.5t102.5 -19q88 0 148 49.5t71 139.5h-20q-13 -85 -66.5 -127.5t-134.5 -42.5q-55 0 -93 19t-62 52t-35.5 77.5t-12.5 96.5zM455 273
h-410q3 54 20 97t44.5 73.5t64 46.5t78.5 16q50 0 88 -18.5t63.5 -50.5t38.5 -74.5t13 -89.5zM353 579q-5 39 -32 63t-67 24q-43 0 -72 -21t-34 -66h-20q6 51 40.5 79t85.5 28q49 0 81 -29.5t38 -77.5h-20v0z" />
    <glyph glyph-name="Idblgrave" unicode="&#x208;" horiz-adv-x="128" 
d="M54 714v-714h20v714h-20zM-165 914h29l132 -144h-15zM-15 914h29l131 -144h-15z" />
    <glyph glyph-name="idblgrave" unicode="&#x209;" horiz-adv-x="130" 
d="M55 0h20v514h-20v-514zM-142 711h29l132 -144h-15zM8 711h29l131 -144h-15z" />
    <glyph glyph-name="Iinvertedbreve" unicode="&#x20a;" horiz-adv-x="128" 
d="M54 714v-714h20v714h-20zM166 764q-5 39 -32 63t-67 24q-43 0 -72 -21t-34 -66h-20q6 51 40.5 79t85.5 28q49 0 81 -29.5t38 -77.5h-20v0z" />
    <glyph glyph-name="iinvertedbreve" unicode="&#x20b;" horiz-adv-x="130" 
d="M55 0h20v514h-20v-514zM167 567q-5 39 -32 63t-67 24q-43 0 -72 -21t-34 -66h-20q6 51 40.5 79t85.5 28q49 0 81 -29.5t38 -77.5h-20v0z" />
    <glyph glyph-name="Odblgrave" unicode="&#x20c;" horiz-adv-x="721" 
d="M32 357q0 76 21.5 144t63 119t103 81t141.5 30t141.5 -30t103 -81t63 -119t21.5 -144t-21.5 -144t-63 -119t-103 -80.5t-141.5 -29.5t-141.5 29.5t-103 80.5t-63 119t-21.5 144zM52 357q1 -77 22.5 -142t61 -112t96.5 -73.5t129 -26.5t129 26.5t96.5 73.5t61 112
t22.5 142q-1 77 -22.5 142t-61 112t-96.5 73.5t-129 26.5t-129 -26.5t-96.5 -73.5t-61 -112t-22.5 -142zM143 928h29l132 -144h-15zM293 928h29l131 -144h-15z" />
    <glyph glyph-name="odblgrave" unicode="&#x20d;" horiz-adv-x="519" 
d="M48 257q0 48 13.5 93t40.5 79.5t66.5 55.5t91.5 21q51 0 90.5 -21t66.5 -55.5t40.5 -79.5t13.5 -93q0 -49 -13.5 -94t-40.5 -79.5t-66.5 -55t-90.5 -20.5q-52 0 -91.5 20.5t-66.5 55t-40.5 79.5t-13.5 94zM28 257q0 -53 15 -101.5t44.5 -85.5t72.5 -59t99 -22
q57 0 100 22t72.5 59t44.5 85.5t15 101.5t-15 101.5t-44.5 85.5t-72.5 59.5t-99 22.5q-57 0 -100 -22.5t-72.5 -59.5t-44.5 -85.5t-15 -101.5zM33 723h29l132 -144h-15zM183 723h29l131 -144h-15z" />
    <glyph glyph-name="Oinvertedbreve" unicode="&#x20e;" horiz-adv-x="721" 
d="M32 357q0 76 21.5 144t63 119t103 81t141.5 30t141.5 -30t103 -81t63 -119t21.5 -144t-21.5 -144t-63 -119t-103 -80.5t-141.5 -29.5t-141.5 29.5t-103 80.5t-63 119t-21.5 144zM52 357q1 -77 22.5 -142t61 -112t96.5 -73.5t129 -26.5t129 26.5t96.5 73.5t61 112
t22.5 142q-1 77 -22.5 142t-61 112t-96.5 73.5t-129 26.5t-129 -26.5t-96.5 -73.5t-61 -112t-22.5 -142zM463 781q-5 39 -32 63t-67 24q-43 0 -72 -21t-34 -66h-20q6 51 40.5 79t85.5 28q49 0 81 -29.5t38 -77.5h-20v0z" />
    <glyph glyph-name="oinvertedbreve" unicode="&#x20f;" horiz-adv-x="519" 
d="M48 257q0 48 13.5 93t40.5 79.5t66.5 55.5t91.5 21q51 0 90.5 -21t66.5 -55.5t40.5 -79.5t13.5 -93q0 -49 -13.5 -94t-40.5 -79.5t-66.5 -55t-90.5 -20.5q-52 0 -91.5 20.5t-66.5 55t-40.5 79.5t-13.5 94zM28 257q0 -53 15 -101.5t44.5 -85.5t72.5 -59t99 -22
q57 0 100 22t72.5 59t44.5 85.5t15 101.5t-15 101.5t-44.5 85.5t-72.5 59.5t-99 22.5q-57 0 -100 -22.5t-72.5 -59.5t-44.5 -85.5t-15 -101.5zM361 579q-5 39 -32 63t-67 24q-43 0 -72 -21t-34 -66h-20q6 51 40.5 79t85.5 28q49 0 81 -29.5t38 -77.5h-20v0z" />
    <glyph glyph-name="Rdblgrave" unicode="&#x210;" horiz-adv-x="611" 
d="M74 0v335h269q62 0 99 -12.5t57 -36t26.5 -58t6.5 -78.5q0 -17 0.5 -38.5t2 -42.5t4.5 -39.5t8 -29.5h22q-5 7 -8 25t-5 40t-3 44.5t-1 37.5q0 43 -5 77t-20 59t-43 40.5t-73 21.5v2q75 17 115 64.5t38 119.5q-2 94 -54 138.5t-164 44.5h-292v-714h20zM74 355v339h277
q102 0 147 -42.5t46 -118.5q0 -47 -17 -80.5t-45 -55.5t-64.5 -32t-76.5 -10h-267zM73 911h29l132 -144h-15zM223 911h29l131 -144h-15z" />
    <glyph glyph-name="rdblgrave" unicode="&#x211;" horiz-adv-x="259" 
d="M75 0v291q0 42 12 82t37 70.5t63.5 48t91.5 14.5v20q-46 1 -80.5 -10t-59.5 -30t-40 -44.5t-22 -54.5h-2v127h-20v-514h20zM-31 727h29l132 -144h-15zM119 727h29l131 -144h-15z" />
    <glyph glyph-name="Rinvertedbreve" unicode="&#x212;" horiz-adv-x="611" 
d="M74 0v335h269q62 0 99 -12.5t57 -36t26.5 -58t6.5 -78.5q0 -17 0.5 -38.5t2 -42.5t4.5 -39.5t8 -29.5h22q-5 7 -8 25t-5 40t-3 44.5t-1 37.5q0 43 -5 77t-20 59t-43 40.5t-73 21.5v2q75 17 115 64.5t38 119.5q-2 94 -54 138.5t-164 44.5h-292v-714h20zM74 355v339h277
q102 0 147 -42.5t46 -118.5q0 -47 -17 -80.5t-45 -55.5t-64.5 -32t-76.5 -10h-267zM413 764q-5 39 -32 63t-67 24q-43 0 -72 -21t-34 -66h-20q6 51 40.5 79t85.5 28q49 0 81 -29.5t38 -77.5h-20v0z" />
    <glyph glyph-name="rinvertedbreve" unicode="&#x213;" horiz-adv-x="259" 
d="M75 0v291q0 42 12 82t37 70.5t63.5 48t91.5 14.5v20q-46 1 -80.5 -10t-59.5 -30t-40 -44.5t-22 -54.5h-2v127h-20v-514h20zM269 580q-5 39 -32 63t-67 24q-43 0 -72 -21t-34 -66h-20q6 51 40.5 79t85.5 28q49 0 81 -29.5t38 -77.5h-20v0z" />
    <glyph glyph-name="Udblgrave" unicode="&#x214;" horiz-adv-x="632" 
d="M558 714v-448q0 -129 -59 -196t-183 -67t-183 67t-59 196v448h-20v-448q0 -144 67 -213t195 -69t195 69t67 213v448h-20zM99 906h29l132 -144h-15zM249 906h29l131 -144h-15z" />
    <glyph glyph-name="udblgrave" unicode="&#x215;" 
d="M445 0v514h-20v-291q0 -43 -12 -82t-35.5 -68.5t-58.5 -47t-81 -17.5q-33 0 -62.5 9.5t-52 30t-35.5 52t-13 76.5v338h-20v-341q0 -45 13.5 -79.5t38 -58t58 -35t73.5 -11.5q76 0 123.5 39t61.5 99h2v-127h20zM49 711h29l132 -144h-15zM199 711h29l131 -144h-15z" />
    <glyph glyph-name="Uinvertedbreve" unicode="&#x216;" horiz-adv-x="632" 
d="M558 714v-448q0 -129 -59 -196t-183 -67t-183 67t-59 196v448h-20v-448q0 -144 67 -213t195 -69t195 69t67 213v448h-20zM418 764q-5 39 -32 63t-67 24q-43 0 -72 -21t-34 -66h-20q6 51 40.5 79t85.5 28q49 0 81 -29.5t38 -77.5h-20v0z" />
    <glyph glyph-name="uinvertedbreve" unicode="&#x217;" 
d="M445 0v514h-20v-291q0 -43 -12 -82t-35.5 -68.5t-58.5 -47t-81 -17.5q-33 0 -62.5 9.5t-52 30t-35.5 52t-13 76.5v338h-20v-341q0 -45 13.5 -79.5t38 -58t58 -35t73.5 -11.5q76 0 123.5 39t61.5 99h2v-127h20zM352 567q-5 39 -32 63t-67 24q-43 0 -72 -21t-34 -66h-20
q6 51 40.5 79t85.5 28q49 0 81 -29.5t38 -77.5h-20v0z" />
    <glyph glyph-name="Scommaaccent" unicode="&#x218;" horiz-adv-x="611" 
d="M531 514h20q-3 60 -23 101.5t-53.5 67t-78 37t-97.5 11.5q-43 0 -86.5 -9t-78.5 -30t-57 -56.5t-22 -88.5q0 -52 21 -84.5t55.5 -52t77.5 -30.5t86 -21q41 -10 85.5 -19.5t81 -28t60 -50t23.5 -85.5q0 -46 -20.5 -79t-53.5 -54t-74.5 -30.5t-83.5 -9.5q-57 0 -104.5 12.5
t-82 40.5t-53.5 72.5t-19 108.5h-20q-1 -68 19.5 -116t58 -78.5t89 -44.5t112.5 -14q46 0 91 10.5t81 34t58 59.5t22 87q0 56 -19.5 89t-52.5 53t-77.5 32t-94.5 25q-46 11 -90 21t-78.5 28t-56 47t-21.5 77t21 79.5t53.5 50.5t72.5 26.5t77 7.5q48 0 90 -10t72.5 -33.5
t49 -61t20.5 -92.5zM321 -184q0 -27 -2 -44t-7.5 -29t-14 -19.5t-21.5 -14.5v20q15 10 20 29.5t5 57.5v118h20v-118z" />
    <glyph glyph-name="scommaaccent" unicode="&#x219;" horiz-adv-x="463" 
d="M390 362h20q0 86 -50 125t-136 39q-48 0 -81 -12t-54 -31t-30 -42t-9 -44q0 -42 15 -67t47 -39q22 -10 50 -18t65 -17q33 -8 65 -16t56.5 -21.5t40 -34.5t15.5 -55q0 -33 -15.5 -56t-39.5 -37.5t-53.5 -21t-57.5 -6.5q-91 0 -139.5 40.5t-48.5 127.5h-20q0 -97 52.5 -142
t155.5 -45q33 0 66.5 7.5t60 24.5t43 44t16.5 66q0 37 -14.5 60t-38 38t-53 23.5t-59.5 16.5q-42 11 -73.5 19t-58.5 19q-26 11 -41.5 31.5t-15.5 58.5q0 7 4 25t19 36.5t46 33t85 14.5q37 0 67.5 -8t52.5 -25.5t34 -44.5t12 -66zM249 -179q0 -27 -2 -44t-7.5 -29t-14 -19.5
t-21.5 -14.5v20q15 10 20 29.5t5 57.5v118h20v-118z" />
    <glyph glyph-name="Tcommaaccent" unicode="&#x21a;" 
d="M-16 694h256v-694h20v694h257v20h-533v-20zM261 -168q0 -27 -2 -44t-7.5 -29t-14 -19.5t-21.5 -14.5v20q15 10 20 29.5t5 57.5v118h20v-118z" />
    <glyph glyph-name="tcommaaccent" unicode="&#x21b;" horiz-adv-x="241" 
d="M110 494h116v20h-116v162h-20v-162h-94v-20h94v-398q0 -55 24.5 -75.5t59.5 -20.5q23 0 31.5 1t17.5 2v20q-5 -2 -17 -2.5t-27 -0.5q-12 0 -24 1.5t-22 9.5t-16.5 24t-6.5 45v394zM133 -168q0 -27 -2 -44t-7.5 -29t-14 -19.5t-21.5 -14.5v20q15 10 20 29.5t5 57.5v118h20
v-118z" />
    <glyph glyph-name="Hcaron" unicode="&#x21e;" horiz-adv-x="648" 
d="M74 362h500v-362h20v714h-20v-332h-500v332h-20v-714h20v362zM224 903h-20l113 -139h15l113 139h-20l-99 -123z" />
    <glyph glyph-name="hcaron" unicode="&#x21f;" 
d="M55 714v-714h20v291q0 43 12 82t35.5 68.5t58.5 47t81 17.5q33 0 62.5 -9.5t52 -30t35.5 -52t13 -76.5v-338h20v341q0 45 -13.5 79.5t-38 58t-58 35.5t-73.5 12q-38 0 -69 -10.5t-54.5 -29.5t-39 -44t-22.5 -55h-2v327h-20zM150 903h-20l113 -139h15l113 139h-20
l-99 -123z" />
    <glyph glyph-name="Adotaccent" unicode="&#x226;" horiz-adv-x="575" 
d="M106 235h364l94 -235h22l-282 714h-26l-289 -714h22zM462 255h-348l176 439h2zM297 845h-20v-81h20v81z" />
    <glyph glyph-name="adotaccent" unicode="&#x227;" horiz-adv-x="481" 
d="M54 355h20q5 72 50 111.5t126 39.5q51 0 81 -13.5t45.5 -34.5t19.5 -46t4 -48q0 -29 -11.5 -44.5t-36 -23t-62.5 -10t-91 -5.5q-32 -2 -64 -8.5t-57 -23t-40.5 -45.5t-15.5 -77q0 -69 47 -103.5t125 -34.5q40 0 74 10.5t60.5 28.5t44 41t25.5 48h2v-67q0 -29 16.5 -39.5
t38.5 -10.5h30v20q-10 -1 -21.5 -1.5t-21.5 2t-16 9.5t-6 22v327q-1 42 -15 70t-37 45.5t-53.5 24.5t-64.5 7q-48 0 -83.5 -13t-60 -36t-37.5 -54.5t-15 -67.5zM400 302v-95q0 -38 -13.5 -74t-40 -63.5t-65.5 -44.5t-89 -17q-42 0 -70.5 10.5t-46.5 27t-25.5 38t-7.5 43.5
q0 41 13 66.5t35 40t50.5 20t58.5 7.5t61.5 3t58.5 5t48 11.5t31 21.5h2zM263 660h-20v-81h20v81z" />
    <glyph glyph-name="Ecedilla" unicode="&#x228;" horiz-adv-x="537" 
d="M74 20v342h427v20h-427v312h454v20h-474v-714h478v20h-458zM213 -146l-9 -19q14 -5 34.5 -11t46.5 -6q20 0 37.5 3t31 11.5t21.5 22.5t8 36q0 33 -23 46.5t-52 13.5q-14 0 -20 -2.5t-13 -3.5l41 55h-20l-57 -72l15 -10q22 13 54 13q8 0 17.5 -2.5t17.5 -7t14 -12.5t6 -18
q0 -15 -7 -25.5t-18 -16.5t-25 -8.5t-28 -2.5q-20 0 -38 5t-34 11z" />
    <glyph glyph-name="ecedilla" unicode="&#x229;" 
d="M45 253h430q2 53 -10.5 102t-40 87t-71 61t-103.5 23q-43 0 -84 -18t-72 -52.5t-50 -84.5t-19 -114q0 -57 13 -106.5t40 -86t69.5 -56.5t102.5 -19q88 0 148 49.5t71 139.5h-20q-13 -85 -66.5 -127.5t-134.5 -42.5q-55 0 -93 19t-62 52t-35.5 77.5t-12.5 96.5zM455 273
h-410q3 54 20 97t44.5 73.5t64 46.5t78.5 16q50 0 88 -18.5t63.5 -50.5t38.5 -74.5t13 -89.5zM171 -155l-9 -19q14 -5 34.5 -11t46.5 -6q20 0 37.5 3t31 11.5t21.5 22.5t8 36q0 33 -23 46.5t-52 13.5q-14 0 -20 -2.5t-13 -3.5l41 55h-20l-57 -72l15 -10q22 13 54 13
q8 0 17.5 -2.5t17.5 -7t14 -12.5t6 -18q0 -15 -7 -25.5t-18 -16.5t-25 -8.5t-28 -2.5q-20 0 -38 5t-34 11z" />
    <glyph glyph-name="Odieresismacron" unicode="&#x22a;" horiz-adv-x="721" 
d="M32 357q0 76 21.5 144t63 119t103 81t141.5 30t141.5 -30t103 -81t63 -119t21.5 -144t-21.5 -144t-63 -119t-103 -80.5t-141.5 -29.5t-141.5 29.5t-103 80.5t-63 119t-21.5 144zM52 357q1 -77 22.5 -142t61 -112t96.5 -73.5t129 -26.5t129 26.5t96.5 73.5t61 112
t22.5 142q-1 77 -22.5 142t-61 112t-96.5 73.5t-129 26.5t-129 -26.5t-96.5 -73.5t-61 -112t-22.5 -142zM429 781h20v81h-20v-81zM274 781h20v81h-20v-81zM477 912v20h-231v-20h231z" />
    <glyph glyph-name="odieresismacron" unicode="&#x22b;" horiz-adv-x="519" 
d="M48 257q0 48 13.5 93t40.5 79.5t66.5 55.5t91.5 21q51 0 90.5 -21t66.5 -55.5t40.5 -79.5t13.5 -93q0 -49 -13.5 -94t-40.5 -79.5t-66.5 -55t-90.5 -20.5q-52 0 -91.5 20.5t-66.5 55t-40.5 79.5t-13.5 94zM28 257q0 -53 15 -101.5t44.5 -85.5t72.5 -59t99 -22
q57 0 100 22t72.5 59t44.5 85.5t15 101.5t-15 101.5t-44.5 85.5t-72.5 59.5t-99 22.5q-57 0 -100 -22.5t-72.5 -59.5t-44.5 -85.5t-15 -101.5zM327 579h20v81h-20v-81zM172 579h20v81h-20v-81zM375 707v20h-231v-20h231z" />
    <glyph glyph-name="Otildemacron" unicode="&#x22c;" horiz-adv-x="721" 
d="M32 357q0 76 21.5 144t63 119t103 81t141.5 30t141.5 -30t103 -81t63 -119t21.5 -144t-21.5 -144t-63 -119t-103 -80.5t-141.5 -29.5t-141.5 29.5t-103 80.5t-63 119t-21.5 144zM52 357q1 -77 22.5 -142t61 -112t96.5 -73.5t129 -26.5t129 26.5t96.5 73.5t61 112
t22.5 142q-1 77 -22.5 142t-61 112t-96.5 73.5t-129 26.5t-129 -26.5t-96.5 -73.5t-61 -112t-22.5 -142zM230 781q0 32 18 54t49 22q17 0 33.5 -9t33 -20.5t32.5 -20.5t33 -9q30 0 38.5 16t8.5 40h17q0 -32 -16.5 -52.5t-49.5 -20.5q-20 0 -36.5 9t-32 20.5t-30.5 20.5
t-31 9q-50 0 -50 -59h-17v0zM477 910v20h-231v-20h231z" />
    <glyph glyph-name="otildemacron" unicode="&#x22d;" horiz-adv-x="519" 
d="M48 257q0 48 13.5 93t40.5 79.5t66.5 55.5t91.5 21q51 0 90.5 -21t66.5 -55.5t40.5 -79.5t13.5 -93q0 -49 -13.5 -94t-40.5 -79.5t-66.5 -55t-90.5 -20.5q-52 0 -91.5 20.5t-66.5 55t-40.5 79.5t-13.5 94zM28 257q0 -53 15 -101.5t44.5 -85.5t72.5 -59t99 -22
q57 0 100 22t72.5 59t44.5 85.5t15 101.5t-15 101.5t-44.5 85.5t-72.5 59.5t-99 22.5q-57 0 -100 -22.5t-72.5 -59.5t-44.5 -85.5t-15 -101.5zM128 579q0 32 18 54t49 22q17 0 33.5 -9t33 -20.5t32.5 -20.5t33 -9q30 0 38.5 16t8.5 40h17q0 -32 -16.5 -52.5t-49.5 -20.5
q-20 0 -36.5 9t-32 20.5t-30.5 20.5t-31 9q-50 0 -50 -59h-17v0zM375 705v20h-231v-20h231z" />
    <glyph glyph-name="Odotaccent" unicode="&#x22e;" horiz-adv-x="721" 
d="M32 357q0 76 21.5 144t63 119t103 81t141.5 30t141.5 -30t103 -81t63 -119t21.5 -144t-21.5 -144t-63 -119t-103 -80.5t-141.5 -29.5t-141.5 29.5t-103 80.5t-63 119t-21.5 144zM52 357q1 -77 22.5 -142t61 -112t96.5 -73.5t129 -26.5t129 26.5t96.5 73.5t61 112
t22.5 142q-1 77 -22.5 142t-61 112t-96.5 73.5t-129 26.5t-129 -26.5t-96.5 -73.5t-61 -112t-22.5 -142zM371 862h-20v-81h20v81z" />
    <glyph glyph-name="odotaccent" unicode="&#x22f;" horiz-adv-x="519" 
d="M48 257q0 48 13.5 93t40.5 79.5t66.5 55.5t91.5 21q51 0 90.5 -21t66.5 -55.5t40.5 -79.5t13.5 -93q0 -49 -13.5 -94t-40.5 -79.5t-66.5 -55t-90.5 -20.5q-52 0 -91.5 20.5t-66.5 55t-40.5 79.5t-13.5 94zM28 257q0 -53 15 -101.5t44.5 -85.5t72.5 -59t99 -22
q57 0 100 22t72.5 59t44.5 85.5t15 101.5t-15 101.5t-44.5 85.5t-72.5 59.5t-99 22.5q-57 0 -100 -22.5t-72.5 -59.5t-44.5 -85.5t-15 -101.5zM269 660h-20v-81h20v81z" />
    <glyph glyph-name="Odotaccentmacron" unicode="&#x230;" horiz-adv-x="721" 
d="M32 357q0 76 21.5 144t63 119t103 81t141.5 30t141.5 -30t103 -81t63 -119t21.5 -144t-21.5 -144t-63 -119t-103 -80.5t-141.5 -29.5t-141.5 29.5t-103 80.5t-63 119t-21.5 144zM52 357q1 -77 22.5 -142t61 -112t96.5 -73.5t129 -26.5t129 26.5t96.5 73.5t61 112
t22.5 142q-1 77 -22.5 142t-61 112t-96.5 73.5t-129 26.5t-129 -26.5t-96.5 -73.5t-61 -112t-22.5 -142zM371 862h-20v-81h20v81zM477 912v20h-231v-20h231z" />
    <glyph glyph-name="odotaccentmacron" unicode="&#x231;" horiz-adv-x="519" 
d="M48 257q0 48 13.5 93t40.5 79.5t66.5 55.5t91.5 21q51 0 90.5 -21t66.5 -55.5t40.5 -79.5t13.5 -93q0 -49 -13.5 -94t-40.5 -79.5t-66.5 -55t-90.5 -20.5q-52 0 -91.5 20.5t-66.5 55t-40.5 79.5t-13.5 94zM28 257q0 -53 15 -101.5t44.5 -85.5t72.5 -59t99 -22
q57 0 100 22t72.5 59t44.5 85.5t15 101.5t-15 101.5t-44.5 85.5t-72.5 59.5t-99 22.5q-57 0 -100 -22.5t-72.5 -59.5t-44.5 -85.5t-15 -101.5zM269 660h-20v-81h20v81zM375 707v20h-231v-20h231z" />
    <glyph glyph-name="Ymacron" unicode="&#x232;" horiz-adv-x="538" 
d="M544 714l-275 -392l-273 392h-25l288 -413v-301h20v301l289 413h-24zM385 764v20h-231v-20h231z" />
    <glyph glyph-name="ymacron" unicode="&#x233;" horiz-adv-x="407" 
d="M398 514l-184 -487l-204 487h-21l214 -509l-37 -95q-9 -23 -19.5 -36.5t-24 -20t-32 -8t-44.5 -1.5v-20q23 0 43.5 1.5t37.5 8.5t31 21.5t24 40.5l237 618h-21zM320 567v20h-231v-20h231z" />
    <glyph glyph-name="commaturnedmod" unicode="&#x2bb;" horiz-adv-x="167" 
d="M73 489h20v118q0 38 5 57.5t20 29.5v20q-13 -7 -21.5 -14.5t-14 -19.5t-7.5 -29t-2 -44v-118z" />
    <glyph glyph-name="afii57929" unicode="&#x2bc;" horiz-adv-x="167" 
d="M94 714h-20v-118q0 -38 -5 -57.5t-20 -29.5v-20q13 7 21.5 14.5t14 19.5t7.5 29t2 44v118z" />
    <glyph glyph-name="uni02EE" unicode="&#x2ee;" horiz-adv-x="278" 
d="M95 714h-20v-118q0 -38 -5 -57.5t-20 -29.5v-20q13 7 21.5 14.5t14 19.5t7.5 29t2 44v118zM195 714h-20v-118q0 -38 -5 -57.5t-20 -29.5v-20q13 7 21.5 14.5t14 19.5t7.5 29t2 44v118z" />
    <glyph glyph-name="Aringbelow" unicode="&#x1e00;" horiz-adv-x="575" 
d="M106 235h364l94 -235h22l-282 714h-26l-289 -714h22zM462 255h-348l176 439h2zM355 -135q0 -28 -20 -48t-48 -20t-47.5 20t-19.5 48t19.5 48t47.5 20t48 -20t20 -48zM375 -135q0 18 -7 34t-19 28t-28 19t-34 7q-36 0 -61.5 -26t-25.5 -62t25.5 -62t61.5 -26q18 0 34 7
t28 19t19 28t7 34z" />
    <glyph glyph-name="aringbelow" unicode="&#x1e01;" horiz-adv-x="481" 
d="M54 355h20q5 72 50 111.5t126 39.5q51 0 81 -13.5t45.5 -34.5t19.5 -46t4 -48q0 -29 -11.5 -44.5t-36 -23t-62.5 -10t-91 -5.5q-32 -2 -64 -8.5t-57 -23t-40.5 -45.5t-15.5 -77q0 -69 47 -103.5t125 -34.5q40 0 74 10.5t60.5 28.5t44 41t25.5 48h2v-67q0 -29 16.5 -39.5
t38.5 -10.5h30v20q-10 -1 -21.5 -1.5t-21.5 2t-16 9.5t-6 22v327q-1 42 -15 70t-37 45.5t-53.5 24.5t-64.5 7q-48 0 -83.5 -13t-60 -36t-37.5 -54.5t-15 -67.5zM400 302v-95q0 -38 -13.5 -74t-40 -63.5t-65.5 -44.5t-89 -17q-42 0 -70.5 10.5t-46.5 27t-25.5 38t-7.5 43.5
q0 41 13 66.5t35 40t50.5 20t58.5 7.5t61.5 3t58.5 5t48 11.5t31 21.5h2zM321 -146q0 -28 -20 -48t-48 -20t-47.5 20t-19.5 48t19.5 48t47.5 20t48 -20t20 -48zM341 -146q0 18 -7 34t-19 28t-28 19t-34 7q-36 0 -61.5 -26t-25.5 -62t25.5 -62t61.5 -26q18 0 34 7t28 19
t19 28t7 34z" />
    <glyph glyph-name="Bdotaccent" unicode="&#x1e02;" horiz-adv-x="611" 
d="M67 382v312h287q38 0 71 -9.5t57.5 -29t38.5 -49t14 -70.5q0 -38 -15 -67t-40 -48.5t-57.5 -29t-68.5 -9.5h-287zM47 714v-714h295q51 0 94.5 12.5t74.5 36.5t48.5 60.5t17.5 84.5q0 41 -14 73.5t-37.5 55t-55 35t-66.5 13.5v2q33 2 60.5 15.5t47.5 35.5t31.5 51t11.5 61
q0 45 -15.5 78t-43 55.5t-64 33.5t-78.5 11h-307zM67 20v342h287q38 0 74.5 -9t65 -29t46 -52t17.5 -79q0 -44 -16 -76.5t-43.5 -54t-65 -32t-81.5 -10.5h-284zM302 842h-20v-81h20v81z" />
    <glyph glyph-name="bdotaccent" unicode="&#x1e03;" horiz-adv-x="537" 
d="M75 370v344h-20v-714h20v144h2q20 -69 73.5 -112t132.5 -43q51 0 91.5 20t69 55.5t43.5 84.5t15 107q0 54 -14.5 103t-42 86t-68.5 59t-94 22q-82 0 -135 -43t-71 -113h-2zM75 256q0 121 57 185.5t151 64.5q53 0 90.5 -22.5t61.5 -58t35.5 -80t11.5 -89.5
q0 -49 -12.5 -94t-37 -79.5t-62 -54.5t-87.5 -20q-49 0 -88 20t-65.5 54t-40.5 79t-14 95zM288 845h-20v-81h20v81z" />
    <glyph glyph-name="Bdotbelow" unicode="&#x1e04;" horiz-adv-x="611" 
d="M67 382v312h287q38 0 71 -9.5t57.5 -29t38.5 -49t14 -70.5q0 -38 -15 -67t-40 -48.5t-57.5 -29t-68.5 -9.5h-287zM47 714v-714h295q51 0 94.5 12.5t74.5 36.5t48.5 60.5t17.5 84.5q0 41 -14 73.5t-37.5 55t-55 35t-66.5 13.5v2q33 2 60.5 15.5t47.5 35.5t31.5 51t11.5 61
q0 45 -15.5 78t-43 55.5t-64 33.5t-78.5 11h-307zM67 20v342h287q38 0 74.5 -9t65 -29t46 -52t17.5 -79q0 -44 -16 -76.5t-43.5 -54t-65 -32t-81.5 -10.5h-284zM322 -47h-20v-81h20v81z" />
    </font>
</defs>
</svg>
