<?xml version="1.0" standalone="no"?>
<!DOCTYPE svg PUBLIC "-//W3C//DTD SVG 1.1//EN" "http://www.w3.org/Graphics/SVG/1.1/DTD/svg11.dtd" >
<svg xmlns="http://www.w3.org/2000/svg" xmlns:xlink="http://www.w3.org/1999/xlink" version="1.1">
<metadata>
Created by FontForge 20141024 at Wed Feb 11 16:08:00 2015
 By System Administrator
Copyright (c) 1981, 1982, 1983, 1989 and 1993, Linotype Library GmbH or its affiliated Linotype-Hell companies. All rights reserved.

The digitally encoded machine readable software for producing the Typefaces licensed to you is now the property of Heidelberger Druckmaschinen AG and its licensors, and may not be reproduced, used, displayed, modified, disclosed or transferred without the express written approval of Heidelberger Druckmaschinen AG.

Copyright (c) 1988, 1990, 1993 Adobe Systems Incorporated. All Rights Reserved.
</metadata>
<defs>
<font id="HelveticaNeue-UltraLightItalic" horiz-adv-x="500" >
  <font-face 
    font-family="Helvetica Neue"
    font-weight="100"
    font-style="italic"
    font-stretch="normal"
    units-per-em="1000"
    panose-1="2 0 2 6 0 0 0 9 0 4"
    ascent="800"
    descent="-200"
    x-height="514"
    cap-height="714"
    bbox="-338 -325 1246 1138"
    underline-thickness="50"
    underline-position="-75"
    unicode-range="U+0008-FE48"
  />
<missing-glyph 
d="M442 8h-384v496h384v-496zM50 512v-512h400v512h-400z" />
    <glyph glyph-name="fi" unicode="fi" horiz-adv-x="333" 
d="M332 714l-23 -104h22l23 104h-22zM204 0l110 514h-22l-110 -514h22zM114 514h-90l-5 -20h90l-109 -494h21l109 494h110l5 20h-110l11 45q5 17 9.5 40t15 44t30 36t53.5 15h25h11t11 -1l4 20q-14 0 -26 0.5t-25 0.5q-40 0 -63.5 -17t-36.5 -41.5t-18.5 -51t-9.5 -45.5z
" />
    <glyph glyph-name="fl" unicode="fl" horiz-adv-x="333" 
d="M182 0h22l150 714h-22zM114 514h-90l-5 -20h90l-109 -494h21l109 494h110l5 20h-110l11 45q5 17 9.5 40t15 44t30 36t53.5 15h25h11t11 -1l4 20q-14 0 -26 0.5t-25 0.5q-40 0 -63.5 -17t-36.5 -41.5t-18.5 -51t-9.5 -45.5z" />
    <glyph glyph-name=".notdef" 
d="M442 8h-384v496h384v-496zM50 512v-512h400v512h-400z" />
    <glyph glyph-name=".null" horiz-adv-x="0" 
 />
    <glyph glyph-name="uniE001" horiz-adv-x="278" 
 />
    <glyph glyph-name="space" unicode=" " horiz-adv-x="278" 
 />
    <glyph glyph-name="controlBS" horiz-adv-x="0" 
 />
    <glyph glyph-name="controlHT" unicode="&#x9;" horiz-adv-x="278" 
 />
    <glyph glyph-name="controlCR" unicode="&#xd;" horiz-adv-x="278" 
 />
    <glyph glyph-name="controlGS" horiz-adv-x="0" 
 />
    <glyph glyph-name="exclam" unicode="!" horiz-adv-x="185" 
d="M163 714l-118 -532h21l118 532h-21zM28 98l-22 -98h21l22 98h-21z" />
    <glyph glyph-name="quotedbl" unicode="&#x22;" horiz-adv-x="278" 
d="M258 714h-20v-225h20v225zM146 714h-20v-225h20v225z" />
    <glyph glyph-name="numbersign" unicode="#" horiz-adv-x="556" 
d="M185 249l24 177h171l-24 -177h-171zM245 680h-20l-31 -234h-131v-20h126l-24 -177h-130v-20h125l-31 -229h20l31 229h172l-31 -229h20l31 229h121v20h-117l24 177h121v20h-116l31 234h-20l-31 -234h-171z" />
    <glyph glyph-name="dollar" unicode="$" horiz-adv-x="556" 
d="M187 -12l-23 -100h20l23 97q5 -1 10.5 -1.5t10.5 -0.5h22q39 0 83.5 10.5t82.5 35t63.5 64.5t25.5 99q1 68 -37.5 103.5t-112.5 58.5q-13 4 -28 8t-32 10l77 338q41 -3 74.5 -14.5t57.5 -33t37.5 -53t13.5 -75.5v-12q0 -7 -1 -12h20q1 5 1 12v11q0 96 -54 142t-144 54
l16 71h-20l-16 -70q-3 1 -11 1h-12q-46 0 -90 -11.5t-78.5 -35.5t-56 -62t-22.5 -92q-1 -42 14 -70t40.5 -46.5t59.5 -31.5t71 -25l-81 -348q-42 6 -77 21.5t-59.5 40.5t-38 59t-12.5 76v17q0 10 1 14h-19q-1 -4 -1 -8v-8v-14q-1 -49 13.5 -87t41.5 -65.5t64.5 -44
t82.5 -22.5zM352 711l-76 -333q-29 9 -52.5 17t-52.5 24q-66 36 -64 114q1 48 21.5 82t52.5 55.5t72.5 31t80.5 9.5q9 2 18 0zM211 6l80 346q42 -13 78 -24.5t62 -28t40.5 -41.5t13.5 -66q0 -55 -25 -91t-61 -57.5t-76.5 -30.5t-72.5 -9h-20q-5 0 -9.5 0.5t-9.5 1.5z" />
    <glyph glyph-name="percent" unicode="%" horiz-adv-x="685" 
d="M561 714l-476 -747h23l476 747h-23zM468 8q-48 0 -80.5 29t-32.5 80q0 34 9.5 67.5t29 60.5t48 43.5t67.5 16.5q60 0 87 -31.5t27 -82.5q0 -34 -11 -67t-31.5 -59t-49 -41.5t-63.5 -15.5zM468 -11q41 0 73.5 18t55 46.5t34.5 65t12 72.5q0 67 -36.5 100.5t-97.5 33.5
q-42 0 -74.5 -18t-54.5 -47t-33.5 -66.5t-11.5 -76.5q0 -29 10 -52.5t28 -40.5t42.5 -26t52.5 -9zM175 375q-48 0 -80.5 29t-32.5 80q0 34 9.5 67.5t29 60.5t48 43.5t67.5 16.5q60 0 87 -31.5t27 -82.5q0 -34 -11 -67t-31.5 -59t-49 -41.5t-63.5 -15.5zM175 355
q41 0 73.5 18t55 47.5t34.5 65.5t12 72q0 67 -36.5 100.5t-97.5 33.5q-42 0 -74.5 -18t-54.5 -47t-33.5 -66.5t-11.5 -76.5q0 -28 10 -52t28 -41t42.5 -26.5t52.5 -9.5z" />
    <glyph glyph-name="ampersand" unicode="&#x26;" horiz-adv-x="574" 
d="M438 566q0 -31 -18.5 -56t-46.5 -45.5t-60 -37t-58 -29.5q-12 19 -24.5 39.5t-23 40.5t-17 39t-6.5 36q0 30 11.5 52t29.5 37t41.5 22.5t47.5 7.5q25 0 47.5 -7t39.5 -20.5t27 -33t10 -45.5zM418 148l-152 233q30 15 63.5 33t62 40.5t47.5 50t19 61.5q0 31 -12 54.5
t-32 39.5t-46 24t-54 8q-32 0 -59.5 -10.5t-47.5 -29t-31.5 -44t-11.5 -55.5q0 -21 8 -43t19 -43.5t23.5 -41.5t21.5 -36q-39 -19 -79 -38.5t-71.5 -45.5t-51.5 -62t-20 -87q0 -42 15.5 -74t41 -53.5t60 -33t71.5 -11.5q75 0 126 35t92 92l72 -111h25l-85 131q17 31 32 68.5
t21 74.5h-20q-9 -33 -20 -63.5t-27 -62.5zM247 373l160 -244q-34 -55 -86.5 -90.5t-118.5 -35.5q-34 0 -65 10.5t-53.5 30.5t-36 48.5t-13.5 63.5q0 48 20 80.5t51.5 56.5t69 42.5t72.5 37.5z" />
    <glyph glyph-name="quotesingle" unicode="'" horiz-adv-x="167" 
d="M146 714h-20v-225h20v225z" />
    <glyph glyph-name="parenleft" unicode="(" horiz-adv-x="222" 
d="M289 731h-25q-112 -137 -166.5 -296.5t-54.5 -339.5q0 -66 12 -135.5t30 -135.5h20q-16 63 -29 129.5t-13 141.5q0 175 54.5 335t171.5 301z" />
    <glyph glyph-name="parenright" unicode=")" horiz-adv-x="222" 
d="M-86 -176h25q112 137 166 296t54 339q0 66 -12 136t-30 136h-20q16 -63 29 -130t13 -142q0 -175 -55 -334.5t-170 -300.5z" />
    <glyph glyph-name="asterisk" unicode="*" horiz-adv-x="352" 
d="M93 457l14 -14l101 103l83 -110l15 14l-77 102l133 48l-6 19l-133 -48l23 143h-20l-23 -140l-110 64l-12 -16l111 -65z" />
    <glyph glyph-name="plus" unicode="+" horiz-adv-x="600" 
d="M290 243v-243h20v243h242v20h-242v243h-20v-243h-242v-20h242z" />
    <glyph glyph-name="comma" unicode="," horiz-adv-x="278" 
d="M111 98h-21l-27 -120q-5 -23 -15 -43.5t-36 -34.5l-4 -26q32 12 49 37.5t25 56.5z" />
    <glyph glyph-name="hyphen" unicode="-" horiz-adv-x="333" 
d="M59 278l-4 -20h184l4 20h-184z" />
    <glyph glyph-name="period" unicode="." horiz-adv-x="278" 
d="M68 0h21l22 98h-21z" />
    <glyph glyph-name="slash" unicode="/" horiz-adv-x="333" 
d="M-6 -16h19l327 747h-20z" />
    <glyph glyph-name="zero" unicode="0" horiz-adv-x="556" 
d="M536 456q0 51 -11.5 94t-37 74.5t-66.5 49.5t-100 18q-55 0 -99 -23.5t-77.5 -62t-57.5 -88t-39.5 -102.5t-22.5 -105t-7 -95q0 -47 12.5 -88.5t38 -72t64 -48.5t89.5 -18q57 0 102.5 21.5t80.5 58t59.5 84t40.5 99.5t23.5 105t7.5 99zM516 456q0 -43 -7 -93t-21.5 -99.5
t-37.5 -96t-55.5 -82t-75.5 -56.5t-97 -21q-46 0 -81 16t-57.5 44.5t-34 66.5t-11.5 81q0 40 6.5 89.5t21 100t36.5 98.5t53.5 85.5t72.5 60t93 22.5q54 0 91.5 -16.5t60.5 -45t33 -68t10 -86.5z" />
    <glyph glyph-name="one" unicode="1" horiz-adv-x="556" 
d="M223 0h21l148 680h-29q-45 -42 -94.5 -77.5t-110.5 -50.5l-6 -22q64 15 115.5 50t96.5 80l2 -2z" />
    <glyph glyph-name="two" unicode="2" horiz-adv-x="556" 
d="M438 20h-433q8 45 34.5 80.5t64.5 65t83.5 54.5t92 49t90 49.5t77.5 56t54.5 67.5t20.5 84q0 42 -15.5 73.5t-42 52t-62 30.5t-74.5 10q-51 0 -93 -16t-72 -45.5t-47.5 -71.5t-20.5 -94h20q1 46 17 84t43.5 65.5t66.5 42.5t86 15q36 0 67.5 -9t55.5 -27t37.5 -45.5
t13.5 -64.5q0 -51 -28.5 -91t-70 -71t-88.5 -54.5t-83 -42.5q-41 -21 -84 -46.5t-78.5 -57.5t-59.5 -72t-28 -91h452z" />
    <glyph glyph-name="three" unicode="3" horiz-adv-x="556" 
d="M38 230h-21q-2 -14 -3 -28.5t-1 -31.5q0 -45 17 -79t45.5 -56.5t67.5 -34t82 -11.5q51 0 96.5 14t79.5 41t54 67t20 93q-1 29 -10.5 55.5t-26 47t-40 33.5t-53.5 16v2q39 3 72 14t57.5 32t38.5 51.5t14 72.5t-16 73t-43 51.5t-62.5 30t-74.5 9.5q-100 0 -159.5 -55.5
t-73.5 -151.5h20q15 88 67.5 137.5t145.5 49.5q35 0 66.5 -8t56 -25.5t39 -45t14.5 -65.5q0 -56 -26 -88t-65 -47.5t-85.5 -19.5t-87.5 -4l-5 -19q38 2 76.5 -3.5t69.5 -22t51 -46t20 -74.5q0 -50 -19 -87t-51 -61t-73.5 -36t-86.5 -12q-39 0 -74 10.5t-61 30.5t-41.5 50.5
t-15.5 70.5q0 15 1 30t4 30z" />
    <glyph glyph-name="four" unicode="4" horiz-adv-x="556" 
d="M4 178h347l-37 -178h22l37 178h121l3 20h-121l100 482h-23l-445 -480zM448 643l-94 -445h-321l413 447z" />
    <glyph glyph-name="five" unicode="5" horiz-adv-x="556" 
d="M544 660l6 20h-357l-126 -335h28q32 46 82 70t104 24q40 0 74 -11.5t59 -34t39.5 -54t14.5 -72.5q0 -53 -15.5 -100t-45.5 -82.5t-74.5 -56t-102.5 -20.5q-81 0 -131 40t-50 118q0 14 0.5 23.5t2.5 23.5h-20q-3 -30 -3 -47q0 -44 15 -77t41.5 -55.5t63.5 -33.5t81 -11
q60 0 108 21t81.5 58.5t51 88.5t17.5 110q0 46 -16 81.5t-44 60t-65.5 37.5t-81.5 13q-55 0 -104 -21.5t-77 -63.5l-2 2l16 36l93 248h337z" />
    <glyph glyph-name="six" unicode="6" horiz-adv-x="556" 
d="M473 252q0 -50 -15 -94.5t-44 -77.5t-71 -52.5t-95 -19.5q-94 0 -144 50.5t-50 143.5q0 47 16.5 89.5t46.5 74.5t72 51t93 19q40 0 75 -12.5t60.5 -36.5t40.5 -58t15 -77zM515 514h20q4 45 -9.5 78t-40 55.5t-62 33.5t-75.5 11q-55 0 -99 -18.5t-77.5 -50t-56.5 -72.5
t-37 -87q-17 -57 -30.5 -123.5t-13.5 -130.5q0 -50 13 -91t39 -70t66.5 -44.5t95.5 -15.5q57 0 102 20t77 55.5t49 83.5t17 104q0 45 -15.5 82.5t-43.5 64.5t-66.5 42t-85.5 15q-38 0 -72.5 -10.5t-63 -29.5t-50 -45t-33.5 -58h-2q1 5 4.5 21.5t9 38t11.5 45t12 42.5
q8 23 23.5 58.5t44.5 70t73.5 59t108.5 24.5q38 0 70.5 -11t55.5 -31t34.5 -49.5t6.5 -66.5z" />
    <glyph glyph-name="seven" unicode="7" horiz-adv-x="556" 
d="M128 680l-3 -20h403q-144 -138 -252.5 -304t-171.5 -356h22q64 194 172.5 355t253.5 303l6 22h-430z" />
    <glyph glyph-name="eight" unicode="8" horiz-adv-x="556" 
d="M257 -11q42 0 83.5 10t75 33.5t54.5 61t21 92.5q0 72 -39.5 116t-108.5 56v2q14 0 45.5 7t63 26.5t55.5 53.5t24 89q0 42 -18 71.5t-47 48.5t-67 27.5t-77 8.5q-45 0 -85 -9.5t-70.5 -30.5t-48 -54t-17.5 -81q0 -60 33.5 -97t88.5 -48v-2q-45 -3 -84.5 -16.5t-68.5 -38.5
t-46 -61t-17 -84t20 -82t54 -56t79.5 -32.5t96.5 -10.5zM471 186q0 -41 -15.5 -74t-43 -56t-66.5 -35.5t-87 -12.5q-46 0 -87.5 8.5t-73 28t-50.5 50t-21 75.5q0 48 19.5 83t52 57.5t73.5 33.5t84 11q38 0 76.5 -8.5t69 -28.5t50 -52.5t19.5 -79.5zM511 536q0 -41 -18 -71.5
t-47 -50.5t-65.5 -29.5t-74.5 -9.5q-33 0 -66.5 8t-59.5 25t-42.5 44t-16.5 65q0 43 16 72.5t43.5 48t64 26.5t77.5 8q33 0 66.5 -7t61 -22.5t44.5 -41.5t17 -65z" />
    <glyph glyph-name="nine" unicode="9" horiz-adv-x="556" 
d="M41 166h-20q-4 -45 9.5 -78.5t40 -55t62 -32.5t75.5 -11q56 0 99.5 18.5t77 49.5t56.5 72t37 87q17 57 30.5 123.5t13.5 130.5q0 50 -13 91t-39 70t-66.5 45t-95.5 16q-57 0 -102 -20.5t-77 -56t-49 -83.5t-17 -104q0 -45 15.5 -82.5t43.5 -64.5t67 -42t85 -15
q37 0 71.5 10t63.5 29.5t51.5 47.5t35.5 63l2 -2q-2 -7 -6 -24.5t-9.5 -39.5t-12 -45.5t-12.5 -42.5q-5 -15 -13.5 -36.5t-22 -45t-32.5 -47t-45 -42t-60 -30t-77 -11.5q-37 0 -70 11t-56 31t-34.5 49.5t-6.5 66.5zM502 478q0 -47 -16.5 -89.5t-46.5 -74.5t-72 -51t-93 -19
q-40 0 -75 12.5t-60.5 36.5t-40.5 58t-15 77q0 50 15 94.5t44 77.5t71 52.5t95 19.5q94 0 144 -50.5t50 -143.5z" />
    <glyph glyph-name="colon" unicode=":" horiz-adv-x="278" 
d="M68 0h21l22 98h-21zM155 394h21l22 98h-21z" />
    <glyph glyph-name="semicolon" unicode=";" horiz-adv-x="278" 
d="M155 394h21l22 98h-21zM111 98h-21l-27 -120q-5 -23 -15 -43.5t-36 -34.5l-4 -26q32 12 49 37.5t25 56.5z" />
    <glyph glyph-name="less" unicode="&#x3c;" horiz-adv-x="600" 
d="M554 -7v20l-490 240l490 240v21l-508 -249v-24z" />
    <glyph glyph-name="equal" unicode="=" horiz-adv-x="600" 
d="M48 146h504v20h-504v-20zM48 340h504v20h-504v-20z" />
    <glyph glyph-name="greater" unicode="&#x3e;" horiz-adv-x="600" 
d="M536 253l-490 -240v-20l508 248v24l-508 249v-21z" />
    <glyph glyph-name="question" unicode="?" 
d="M160 0h21l22 98h-21zM81 495h20q3 44 16 83.5t38 69t61.5 46.5t85.5 17q33 0 63 -8.5t53 -25.5t36.5 -44t13.5 -65q0 -31 -7.5 -55t-24 -45t-41 -40.5t-59.5 -40.5q-24 -15 -44 -28t-35 -29.5t-26.5 -39t-19.5 -56.5l-13 -53h21l12 50q7 30 16.5 49.5t23 34t32 27
t43.5 28.5q29 18 54.5 36.5t45 41.5t31 52t11.5 68q0 40 -14.5 70.5t-39.5 51t-59 31t-73 10.5q-52 0 -92 -18t-67.5 -49.5t-43 -74.5t-18.5 -94z" />
    <glyph glyph-name="at" unicode="@" horiz-adv-x="800" 
d="M594 547l-24 -66h-2q-13 40 -51 62.5t-86 22.5q-53 0 -97 -27.5t-75 -70.5t-48 -93.5t-17 -97.5q0 -30 10.5 -56.5t28.5 -46t43 -31t54 -11.5q35 0 71.5 12.5t64.5 50.5h2q-5 -28 12.5 -45.5t46.5 -17.5q36 0 74.5 22t70 60t51.5 88.5t20 108.5q0 69 -25.5 125t-69.5 95
t-103 60t-126 21q-74 0 -140 -27t-115.5 -75t-78 -113.5t-28.5 -143.5q0 -95 31.5 -164t82.5 -113.5t116 -65.5t132 -21q46 0 91.5 12.5t86.5 35.5t76 56t59 73h-23q-23 -33 -54 -62t-68.5 -50.5t-79.5 -33.5t-88 -12q-69 0 -131 22t-109 65.5t-74.5 108t-27.5 149.5
q0 71 26 132.5t72 107.5t108.5 72.5t135.5 26.5q65 0 121 -20.5t96.5 -57.5t63.5 -89t23 -114q0 -55 -19 -102.5t-47.5 -82t-62.5 -54.5t-65 -20q-20 0 -30 8.5t-12 23t3 34t14 41.5l111 288h-21zM559 456l-71 -184q-14 -36 -32.5 -59.5t-38.5 -37t-41.5 -18.5t-41.5 -5
q-26 0 -48 9.5t-38 26.5t-25 39.5t-9 49.5q0 42 15.5 89t43.5 87t67.5 66.5t86.5 26.5q19 0 39.5 -4.5t39 -15t32.5 -27.5t21 -43z" />
    <glyph glyph-name="A" unicode="A" horiz-adv-x="574" 
d="M458 235l44 -235h20l-132 714h-20l-446 -714h22l146 235h366zM455 255h-350l269 431h2z" />
    <glyph glyph-name="B" unicode="B" horiz-adv-x="611" 
d="M93 382l69 312h265q28 0 55.5 -5.5t49.5 -20.5t36 -42t14 -71q0 -41 -16.5 -73.5t-47 -54.5t-73 -33.5t-94.5 -11.5h-258zM144 714l-150 -714h313q57 0 104 14.5t80 42t51.5 68t18.5 92.5q0 66 -32.5 107t-101.5 47v2q30 3 61 15t56.5 34.5t41.5 55.5t16 77
q0 56 -19.5 87.5t-47.5 47.5t-59.5 20t-54.5 4h-277zM17 20l73 342h248q38 0 74 -4t65 -19t46.5 -43.5t17.5 -78.5q0 -57 -22 -94.5t-55 -60.5t-72 -32.5t-73 -9.5h-302z" />
    <glyph glyph-name="C" unicode="C" horiz-adv-x="685" 
d="M648 252h-20q-17 -57 -47 -103t-71.5 -78.5t-92.5 -50t-109 -17.5q-54 0 -100.5 17t-81 51t-54 84.5t-19.5 117.5q0 83 24.5 161.5t71 140t114.5 99t156 37.5q47 0 91 -14.5t78.5 -41.5t55.5 -66.5t21 -89.5h20q0 55 -22 98t-59 73t-85 45.5t-100 15.5
q-94 -1 -166.5 -41.5t-121 -105.5t-73.5 -146.5t-25 -164.5q0 -66 19 -119.5t54.5 -91t86.5 -58t115 -20.5q63 0 118.5 20t100 55.5t75.5 84.5t46 108z" />
    <glyph glyph-name="D" unicode="D" horiz-adv-x="667" 
d="M150 714l-156 -714h220q46 0 87 3.5t79 15.5t73.5 35t69.5 61q27 30 47.5 68.5t34.5 80.5t21 85.5t7 84.5q0 69 -15 117t-41 79t-59.5 48t-70.5 25t-75 9.5t-72 1.5h-150zM18 20l148 674h134q41 0 80 -2.5t74 -11.5t64 -26t50 -45.5t33 -71.5t12 -103q0 -47 -8.5 -92
t-23.5 -85t-34.5 -73.5t-41.5 -57.5q-33 -35 -64.5 -56t-66 -32t-73.5 -14.5t-87 -3.5h-196z" />
    <glyph glyph-name="E" unicode="E" horiz-adv-x="519" 
d="M465 20h-451l73 342h405l4 20h-404l67 312h433l4 20h-453l-152 -714h469z" />
    <glyph glyph-name="F" unicode="F" horiz-adv-x="481" 
d="M465 362l3 20h-376l67 312h416l4 20h-436l-152 -714h19l78 362h377z" />
    <glyph glyph-name="G" unicode="G" horiz-adv-x="722" 
d="M608 99l-21 -99h20l71 334h-295l-4 -20h277q-15 -64 -42 -120.5t-67.5 -98.5t-96 -66.5t-128.5 -25.5q-55 2 -105 17.5t-89 54.5q-19 19 -33 43.5t-23.5 51.5t-14 55t-4.5 54q0 82 24 160.5t71 139t116.5 97t159.5 35.5q104 2 169.5 -50.5t76.5 -160.5h20
q-5 57 -26.5 100.5t-56 73t-81 44t-102.5 13.5q-95 1 -168 -36.5t-122.5 -100.5t-75 -145t-25.5 -170q-1 -57 16 -110.5t55 -98.5q42 -49 98 -66.5t120 -19.5q115 2 189.5 55.5t119.5 158.5l2 -2z" />
    <glyph glyph-name="H" unicode="H" horiz-adv-x="648" 
d="M574 382h-479l71 332h-20l-152 -714h19l78 362h479l-77 -362h20l153 714h-20z" />
    <glyph glyph-name="I" unicode="I" horiz-adv-x="148" 
d="M-6 0h19l153 714h-20z" />
    <glyph glyph-name="J" unicode="J" horiz-adv-x="463" 
d="M481 714h-21l-111 -520q-9 -40 -21.5 -75t-33.5 -61t-52.5 -40.5t-78.5 -14.5q-75 0 -119 34.5t-44 106.5q0 16 2 35.5t6 40.5h-19q-5 -17 -7 -35t-2 -41q0 -72 44.5 -116t138.5 -44q54 0 89.5 17.5t58.5 46t36 64.5t21 73z" />
    <glyph glyph-name="K" unicode="K" horiz-adv-x="593" 
d="M69 262l183 133l284 -395h24l-292 407l416 307h-33l-576 -424l90 424h-20l-151 -714h19z" />
    <glyph glyph-name="L" unicode="L" horiz-adv-x="481" 
d="M431 20h-413l149 694h-21l-152 -714h432z" />
    <glyph glyph-name="M" unicode="M" horiz-adv-x="796" 
d="M144 714l-150 -714h20l145 685h2l154 -685h26l444 685l2 -2l-146 -683h21l152 714h-32l-450 -692h-2l-156 692h-30z" />
    <glyph glyph-name="N" unicode="N" horiz-adv-x="667" 
d="M505 0h27l153 714h-21l-146 -691h-2l-344 691h-27l-151 -714h20l145 691h2z" />
    <glyph glyph-name="O" unicode="O" horiz-adv-x="722" 
d="M677 434q0 -78 -23.5 -155.5t-69 -138.5t-112.5 -99t-153 -38q-63 0 -112.5 20t-83.5 56.5t-52 87.5t-18 113q0 79 23.5 156t68.5 138t112 99t154 38q65 0 114.5 -19.5t83.5 -56t51 -87.5t17 -114zM697 434q0 68 -19 123t-56 93.5t-90 59.5t-121 21q-92 0 -162.5 -39
t-118.5 -103t-72.5 -144.5t-24.5 -164.5q0 -68 19 -122.5t55 -93t89.5 -59.5t122.5 -21q91 0 161.5 39t118.5 102t73 144t25 165z" />
    <glyph glyph-name="P" unicode="P" horiz-adv-x="574" 
d="M9 0l70 325h246q84 0 136.5 22.5t81.5 55.5t39.5 72t10.5 72q0 74 -44 120.5t-138 46.5h-270l-152 -714h20zM82 345l75 349h250q27 0 56.5 -5.5t53.5 -21.5t40 -44.5t16 -75.5q0 -50 -17.5 -88t-49.5 -63.5t-76.5 -38t-98.5 -12.5h-249z" />
    <glyph glyph-name="Q" unicode="Q" horiz-adv-x="722" 
d="M390 153l106 -96q-37 -26 -81 -40t-96 -14q-63 0 -112.5 20t-83.5 56.5t-52 87.5t-18 113q0 79 23.5 156t68.5 138t112 99t154 38q65 0 114.5 -19.5t83.5 -56t51 -87.5t17 -114q0 -52 -10.5 -104t-31 -100t-51 -89.5t-70.5 -71.5l-109 99zM512 43l104 -92l14 15l-100 89
q41 31 72 73.5t52 92.5t32 104.5t11 108.5q0 68 -19 123t-56 93.5t-90 59.5t-121 21q-92 0 -162.5 -39t-118.5 -103t-72.5 -144.5t-24.5 -164.5q0 -68 19 -122.5t55 -93t89.5 -59.5t122.5 -21q113 0 193 59z" />
    <glyph glyph-name="R" unicode="R" horiz-adv-x="593" 
d="M142 714l-148 -714h19l70 335h245q23 0 49.5 -5.5t49 -21t37 -43.5t13.5 -74q-2 -30 -3 -58t-2 -57q0 -20 2 -38.5t9 -37.5h20q-6 18 -8 37t-2 38q1 30 2 59t2 57q1 69 -26.5 104.5t-81.5 43.5v2q45 1 82.5 15t65 40.5t43.5 64t17 85.5q1 51 -16 84t-43.5 51.5
t-58.5 25.5t-62 7h-275zM89 355l71 339h250q24 0 53.5 -4.5t55 -20t42.5 -44.5t16 -79q-1 -66 -28.5 -104t-66.5 -57.5t-81.5 -24.5t-72.5 -5h-239z" />
    <glyph glyph-name="S" unicode="S" horiz-adv-x="611" 
d="M27 237h-20q-6 -65 12.5 -112.5t55.5 -79t88.5 -46.5t111.5 -15q37 0 81 9t82.5 32.5t64 64t25.5 102.5q0 43 -17.5 72t-46 49t-65 33t-74.5 24t-74 23t-64 29.5t-45 43.5t-16 65q1 48 21 82t51.5 56t71.5 32t81 10q50 0 92.5 -10.5t72.5 -34.5t45.5 -62t11.5 -94h20
q4 60 -12.5 102t-49 68.5t-78.5 38.5t-102 12q-46 0 -90 -11.5t-78 -35.5t-55 -62t-22 -91q0 -43 17.5 -72t45.5 -48.5t64 -32.5t74 -24t74 -22.5t64 -29.5t45.5 -44t17.5 -66q0 -59 -25 -96t-61 -57.5t-76.5 -28t-70.5 -7.5q-58 0 -106 15.5t-81.5 45.5t-50 73.5
t-10.5 99.5z" />
    <glyph glyph-name="T" unicode="T" 
d="M60 694h258l-148 -694h21l148 694h258l4 20h-537z" />
    <glyph glyph-name="U" unicode="U" horiz-adv-x="648" 
d="M161 714h-21l-94 -430q-5 -28 -8 -49t-3 -50q0 -52 19 -90t51 -63t74.5 -36.5t90.5 -11.5q57 0 100 13t74.5 34t53 49t36 58t23 60t14.5 55l100 461h-21l-102 -467q-18 -85 -52 -134t-73.5 -73.5t-80 -30.5t-72.5 -6q-46 -1 -85 10.5t-68 34.5t-45.5 57.5t-16.5 79.5
q0 18 2 34.5t5 38.5z" />
    <glyph glyph-name="V" unicode="V" horiz-adv-x="556" 
d="M193 0h28l422 714h-22l-410 -694h-2l-122 694h-20z" />
    <glyph glyph-name="W" unicode="W" horiz-adv-x="889" 
d="M139 0h26l352 696h2l63 -696h26l363 714h-23l-347 -688h-2l-62 688h-32l-347 -688h-2l-62 688h-20z" />
    <glyph glyph-name="X" unicode="X" horiz-adv-x="519" 
d="M449 0h23l-192 365l331 349h-26l-314 -331l-175 331h-23l182 -345l-348 -369h26l331 351z" />
    <glyph glyph-name="Y" unicode="Y" horiz-adv-x="519" 
d="M253 322l-184 392h-23l194 -411l-65 -303h21l65 303l366 411h-25z" />
    <glyph glyph-name="Z" unicode="Z" 
d="M457 20h-508l626 670l4 24h-497l-5 -20h475l-626 -670l-4 -24h532z" />
    <glyph glyph-name="bracketleft" unicode="[" horiz-adv-x="222" 
d="M300 731h-120l-199 -907h119l5 20h-99l191 867h98z" />
    <glyph glyph-name="backslash" unicode="\" horiz-adv-x="333" 
d="M320 -16h20l-327 747h-19z" />
    <glyph glyph-name="bracketright" unicode="]" horiz-adv-x="222" 
d="M-99 -176h119l196 907h-120l-5 -20h100l-188 -867h-97z" />
    <glyph glyph-name="asciicircum" unicode="^" horiz-adv-x="600" 
d="M541 227l-231 453h-20l-231 -453h20l221 433l221 -433h20z" />
    <glyph glyph-name="underscore" unicode="_" 
d="M0 -124h500v50h-500v-50z" />
    <glyph glyph-name="grave" unicode="`" horiz-adv-x="130" 
d="M83 731h-25l112 -144h25z" />
    <glyph glyph-name="a" unicode="a" horiz-adv-x="481" 
d="M59 365h20q17 67 64.5 104.5t125.5 36.5q30 0 55 -5t43 -17.5t28.5 -33t10.5 -52.5q0 -36 -9.5 -58t-27 -35t-40.5 -17.5t-50 -4.5q-18 0 -36.5 -0.5t-38.5 -1.5q-43 0 -83 -6.5t-71 -24.5t-50 -50.5t-19 -84.5q0 -34 12.5 -58t33.5 -39t48.5 -22t57.5 -7q75 0 124.5 28
t85.5 88h2q-3 -13 -6.5 -24.5t-3.5 -31.5q0 -52 52 -52q18 0 34 3v20q-13 -4 -35 -4q-12 0 -21.5 6t-9.5 27q0 11 1 18.5t3 16.5l59 251q3 15 5.5 30t2.5 33q0 67 -42.5 97.5t-114.5 30.5q-81 -1 -135.5 -38t-74.5 -123zM386 290l-21 -89q-11 -42 -30.5 -77.5t-48.5 -61
t-67 -40t-86 -14.5q-27 0 -51 6.5t-42.5 19.5t-29 33t-10.5 48q0 47 18.5 75.5t47.5 43.5t65.5 20.5t73.5 7.5q22 0 49 0.5t52.5 3.5t46.5 9t31 17z" />
    <glyph glyph-name="b" unicode="b" horiz-adv-x="537" 
d="M91 389l69 325h-21l-151 -714h20l32 148h2q6 -71 53 -115t123 -44q68 0 118 30.5t83 79t49.5 109t16.5 120.5q0 40 -11 76t-33.5 63t-56 43t-78.5 16q-36 0 -68.5 -10.5t-59.5 -29.5t-48.5 -44t-36.5 -55zM465 328q0 -54 -15 -110.5t-46 -103t-77 -76.5t-109 -30
q-39 0 -70 14t-52 39t-31.5 60t-9.5 77q1 51 18 105.5t49 99.5t78 74t106 29q39 0 68.5 -13.5t49.5 -37.5t30.5 -56.5t10.5 -70.5z" />
    <glyph glyph-name="c" unicode="c" 
d="M443 359h20q0 81 -49 124t-134 43q-65 0 -115 -28.5t-84 -76t-51.5 -107.5t-17.5 -123q0 -94 50.5 -148t146.5 -54q39 0 74.5 12t65 35t51 55.5t32.5 73.5h-20q-29 -81 -81 -118t-122 -39q-88 0 -132.5 49.5t-44.5 133.5q0 56 15.5 112.5t46.5 101.5t77.5 73t108.5 28
q75 0 119 -37.5t44 -109.5z" />
    <glyph glyph-name="d" unicode="d" horiz-adv-x="537" 
d="M392 76l-16 -76h21l154 714h-21l-62 -285l-12 -65h-2q0 78 -49.5 120t-127.5 42q-64 0 -114.5 -32.5t-85.5 -83t-53 -111t-18 -116.5q0 -90 47 -142t137 -52q41 0 74.5 11.5t60.5 32t47 48.5t34 60l2 -2zM440 336q-1 -54 -17 -112t-47.5 -106t-78 -79t-108.5 -31
q-40 0 -71 13t-51 36.5t-30.5 55.5t-10.5 70q0 53 16 110t48 104.5t79 78t108 30.5q81 0 122 -46t41 -124z" />
    <glyph glyph-name="e" unicode="e" 
d="M433 273h-402q9 48 28.5 90t49.5 74t71 50.5t92 18.5q42 0 73 -14.5t52 -39t31 -57.5t10 -69q0 -15 -1 -27t-4 -26zM27 253h427q2 21 3 37.5t1 35.5q0 42 -12 78.5t-35 63.5t-58 42.5t-81 15.5q-67 0 -117.5 -28.5t-84 -75t-50 -105t-16.5 -118.5q0 -44 11.5 -82.5
t35.5 -67t60 -44.5t84 -16q94 0 151.5 46t80.5 134h-21q-23 -84 -77 -122.5t-135 -38.5q-24 0 -53.5 7.5t-55.5 28t-43.5 57.5t-17.5 97q0 33 3 55z" />
    <glyph glyph-name="f" unicode="f" horiz-adv-x="204" 
d="M114 514h-90l-5 -20h90l-109 -494h21l109 494h110l5 20h-110l11 45q5 17 9.5 40t15 44t30 36t53.5 15h25h11t11 -1l4 20q-14 0 -26 0.5t-25 0.5q-40 0 -63.5 -17t-36.5 -41.5t-18.5 -51t-9.5 -45.5z" />
    <glyph glyph-name="g" unicode="g" horiz-adv-x="519" 
d="M499 514h-20l-16 -78l-14 -75h-2q-7 81 -53.5 123t-118.5 42q-64 0 -112.5 -26.5t-81.5 -68.5t-49.5 -94.5t-16.5 -103.5q0 -45 12 -83t36 -66t59.5 -43.5t82.5 -15.5q63 0 114 32t78 86l2 -2q-12 -62 -26 -118t-40 -98.5t-69.5 -67.5t-114.5 -25q-34 0 -62.5 8t-48.5 25
t-30 43.5t-8 62.5h-19q-4 -81 42.5 -120t125.5 -39q106 0 164.5 54.5t83.5 171.5zM433 330q0 -49 -15 -100t-44 -92t-71.5 -67t-97.5 -26q-44 0 -76 14.5t-53 40t-31 59.5t-10 74q0 51 16 100t46 87.5t72 62t94 23.5q45 0 76.5 -12.5t51.5 -35t30 -55t12 -73.5z" />
    <glyph glyph-name="h" unicode="h" 
d="M135 714l-153 -714h20l51 237q10 48 28 96.5t47 86.5t70.5 62t98.5 24t93.5 -30t37.5 -90q0 -19 -4 -38l-8 -38l-65 -310h21l64 305q4 20 8 40.5t4 40.5q0 69 -42 104.5t-109 35.5q-75 0 -124 -36.5t-84 -99.5l-2 2l13 58l56 264h-21z" />
    <glyph glyph-name="i" unicode="i" horiz-adv-x="130" 
d="M129 714l-23 -104h22l23 104h-22zM1 0l110 514h-22l-109 -514h21z" />
    <glyph glyph-name="j" unicode="j" horiz-adv-x="130" 
d="M129 714l-23 -104h22l23 104h-22zM-8 -42l119 556h-22l-117 -548l-10.5 -42t-16 -40t-27 -30t-43.5 -12q-4 1 -8 1h-9h-10q-6 0 -11 1l-3 -18q10 -1 19.5 -1.5t21.5 -0.5q32 0 52 11t32.5 29.5t19.5 42.5t13 51z" />
    <glyph glyph-name="k" unicode="k" horiz-adv-x="444" 
d="M36 202l126 87l204 -289h27l-214 300l306 214h-34l-408 -283l104 483h-21l-154 -714h21z" />
    <glyph glyph-name="l" unicode="l" horiz-adv-x="130" 
d="M-20 0h21l150 714h-22z" />
    <glyph glyph-name="m" unicode="m" horiz-adv-x="778" 
d="M88 514l-110 -514h21l60 279q7 37 25 77t44.5 73.5t61.5 55t76 21.5q51 0 81 -31t30 -82q0 -13 -1.5 -25t-3.5 -24l-73 -344h21l64 292q7 34 21.5 71.5t38.5 69t57.5 52.5t78.5 21q57 0 89.5 -31t32.5 -85q0 -20 -2.5 -33t-6.5 -30l-72 -327h21l68 308q5 21 8.5 42
t3.5 40q0 66 -39.5 101t-102.5 35q-33 0 -62 -11t-52 -30t-40 -44.5t-27 -55.5l-2 2q1 30 -7 55t-24.5 44t-41.5 29.5t-58 10.5q-31 0 -58 -10.5t-49.5 -28.5t-40.5 -41.5t-31 -49.5h-2l25 118h-22z" />
    <glyph glyph-name="n" unicode="n" 
d="M92 514l-110 -514h20l51 237q10 48 28 96.5t47 86.5t70.5 62t98.5 24t93.5 -30t37.5 -90q0 -19 -4 -38l-8 -38l-65 -310h21l64 305q4 20 8 40.5t4 40.5q0 69 -42 104.5t-109 35.5q-75 0 -124 -36.5t-84 -99.5l-2 2l13 58l13 64h-21z" />
    <glyph glyph-name="o" unicode="o" horiz-adv-x="519" 
d="M26 191q0 56 15.5 112.5t46.5 101.5t77.5 73t108.5 28q81 0 129.5 -50t48.5 -141q0 -52 -16 -106.5t-47 -99t-77.5 -73t-108.5 -28.5q-88 0 -132.5 49.5t-44.5 133.5zM6 191q0 -94 50.5 -148t146.5 -54q66 0 116 29.5t84 76.5t51.5 105t17.5 115q0 47 -13.5 86t-39 66.5
t-62 43t-83.5 15.5q-65 0 -115 -28.5t-84 -76t-51.5 -107.5t-17.5 -123z" />
    <glyph glyph-name="p" unicode="p" horiz-adv-x="537" 
d="M101 514l-145 -690h21l65 311h2q5 -69 51 -107.5t125 -38.5q63 0 113 29.5t85 77t53.5 106t18.5 115.5q0 43 -10.5 81t-32.5 66.5t-56.5 45t-82.5 16.5q-40 0 -72.5 -12t-58.5 -32t-46.5 -47t-35.5 -57h-2l29 136h-21zM470 313q0 -52 -17.5 -106t-50 -98.5t-78.5 -72.5
t-104 -28q-81 0 -122 44.5t-41 120.5q0 52 16.5 110.5t48 108t78.5 82t108 32.5q44 0 75 -15t50.5 -41.5t28 -61.5t8.5 -75z" />
    <glyph glyph-name="q" unicode="q" horiz-adv-x="537" 
d="M442 327q0 -52 -15.5 -108.5t-45.5 -103.5t-75 -77t-104 -30q-37 0 -68 12.5t-53 35t-34 53.5t-12 68q0 54 14.5 112.5t44.5 106.5t76 79t108 31q41 0 71.5 -14.5t51 -39t31 -57t10.5 -68.5zM363 -176l150 690h-21l-24 -110l-10 -53h-2q-1 39 -14.5 71.5t-36.5 55.5
t-55.5 35.5t-71.5 12.5q-67 0 -117 -33.5t-82 -85t-48 -113t-16 -117.5q0 -42 13.5 -76.5t38 -59t58.5 -38.5t76 -14q75 0 125.5 37t80.5 100l2 -2l-23 -98l-44 -202h21z" />
    <glyph glyph-name="r" unicode="r" horiz-adv-x="259" 
d="M-22 0h21l54 258q8 33 16.5 57.5t18.5 45.5q8 17 24 41t39 46t52.5 38t65.5 16q25 0 36 -4l4 20q-15 4 -41 4q-63 0 -109.5 -39t-77.5 -100l-2 2l15 63l14 66h-22z" />
    <glyph glyph-name="s" unicode="s" horiz-adv-x="463" 
d="M392 360h20q5 47 -6 78.5t-34.5 51t-57 28t-72.5 8.5q-33 0 -64.5 -8t-56 -25t-39.5 -42.5t-15 -61.5t15.5 -58.5t39 -37.5t52 -24.5t54.5 -19.5q22 -9 44 -17.5t40 -21t29 -30.5t11 -45q0 -35 -15 -59.5t-39 -39.5t-54 -21.5t-61 -6.5q-43 0 -76 9t-54.5 28.5t-30.5 51
t-3 77.5h-20q0 -10 -1 -19t-1 -19q0 -43 14.5 -71t40 -45t59.5 -24t72 -7q36 0 70 7.5t60.5 24.5t42.5 45t16 69q0 37 -16.5 60t-41 38t-53.5 24.5t-55 19.5q-22 9 -43.5 18t-38 21t-27 29.5t-10.5 43.5q0 33 14.5 55t37 36t50 20t53.5 6q37 0 67 -8.5t50 -26t29 -45
t4 -66.5z" />
    <glyph glyph-name="t" unicode="t" horiz-adv-x="241" 
d="M156 676l-34 -162h-97l-4 -20h97l-81 -381q-2 -15 -5 -29.5t-3 -29.5q0 -18 6.5 -29.5t17.5 -17.5t25 -8t29 -2q14 0 27.5 1t27.5 2l4 20q-17 -4 -48 -4q-11 0 -23.5 0.5t-22.5 4t-16.5 12.5t-6.5 27q1 15 4 30t6 29l80 375h112l4 20h-112l34 162h-21z" />
    <glyph glyph-name="u" unicode="u" 
d="M368 0l111 514h-22l-50 -237q-10 -48 -28 -96.5t-47 -86.5t-70.5 -62t-98.5 -24t-93.5 30t-37.5 90q0 19 4 38l8 38l65 310h-21l-64 -305q-4 -20 -8 -40.5t-4 -40.5q0 -69 42 -104t109 -35q75 0 124 36t84 99l2 -2l-13 -58l-13 -64h21z" />
    <glyph glyph-name="v" unicode="v" horiz-adv-x="407" 
d="M115 0h27l296 514h-23l-283 -494h-2l-88 494h-21z" />
    <glyph glyph-name="w" unicode="w" horiz-adv-x="685" 
d="M448 0l273 514h-23l-261 -494h-2l-56 494h-30l-262 -494h-2l-55 494h-21l59 -514h30l262 494h2l56 -494h30z" />
    <glyph glyph-name="x" unicode="x" horiz-adv-x="407" 
d="M-50 0l240 252l139 -252h23l-146 265l232 249h-26l-218 -232l-126 232h-23l133 -246l-255 -268h27z" />
    <glyph glyph-name="y" unicode="y" horiz-adv-x="407" 
d="M138 26l-95 488h-22l100 -514l-44 -77q-15 -24 -28 -40t-28.5 -25t-35 -12t-48.5 -2l-3 -20h17h9t8 1q29 1 49 9t35 21.5t27.5 33t27.5 43.5l337 582h-25z" />
    <glyph glyph-name="z" unicode="z" horiz-adv-x="407" 
d="M331 20h-366l473 471l6 23h-384l-4 -20h355l-469 -467l-6 -27h390z" />
    <glyph glyph-name="braceleft" unicode="{" horiz-adv-x="333" 
d="M105 -176h46l4 20h-49q-20 0 -30 6.5t-10 29.5q0 14 2 30t6 35l35 169q4 18 6 33.5t1 29.5q0 38 -12 61.5t-32 37.5q23 7 41 23t31 38.5t22 49.5t15 55l37 173q11 54 26.5 75t46.5 21h45l4 20h-49q-40 0 -60.5 -26t-33.5 -86l-35 -171q-6 -33 -16.5 -61t-24.5 -49
t-31 -33.5t-37 -13.5l-4 -20q27 -15 37 -42t10 -57q-1 -14 -2.5 -28t-4.5 -27l-35 -169q-5 -27 -6.5 -43t-1.5 -25q0 -29 13.5 -42.5t45.5 -13.5z" />
    <glyph glyph-name="bar" unicode="|" horiz-adv-x="222" 
d="M101 -213h20v999h-20v-999z" />
    <glyph glyph-name="braceright" unicode="}" horiz-adv-x="333" 
d="M-65 -156l-4 -20h50q42 0 62.5 24t27.5 66l43 197q6 26 16 52t23.5 47.5t29.5 37t34 20.5l5 22q-22 4 -34 27t-12 61q0 16 2 32.5t5 34.5l35 172q4 19 6 32.5t2 23.5q0 28 -15.5 43t-43.5 15h-48l-4 -20h50q41 0 41 -38q0 -16 -2.5 -30t-4.5 -21l-36 -172
q-3 -17 -5 -35.5t-2 -36.5q0 -34 10 -61t34 -37q-39 -16 -66 -62.5t-40 -103.5l-43 -198q-8 -39 -24 -55.5t-44 -16.5h-48z" />
    <glyph glyph-name="asciitilde" unicode="~" horiz-adv-x="600" 
d="M78 216l15 -13q17 31 38.5 52.5t57.5 21.5q34 0 62 -11.5t52 -23.5q26 -13 51 -23t51 -10q22 0 39.5 7.5t31 19.5t25 26.5t21.5 28.5l-16 12q-20 -28 -44 -51t-57 -23q-21 0 -47.5 10.5t-53.5 24.5q-28 14 -57 23.5t-58 9.5q-22 0 -39.5 -7.5t-31 -19t-23.5 -26
t-17 -28.5z" />
    <glyph glyph-name="Adieresis" unicode="&#xc4;" horiz-adv-x="574" 
d="M321 835h-21l-13 -81h21zM479 835h-21l-13 -81h21zM458 235l44 -235h20l-132 714h-20l-446 -714h22l146 235h366zM455 255h-350l269 431h2z" />
    <glyph glyph-name="Aring" unicode="&#xc5;" horiz-adv-x="574" 
d="M303 828q0 32 22 54t54 22t54 -22t22 -54t-22 -54t-54 -22t-54 22t-22 54zM283 828q0 -40 28 -68t68 -28t68 28t28 68t-28 68t-68 28t-68 -28t-28 -68zM458 235l44 -235h20l-132 714h-20l-446 -714h22l146 235h366zM455 255h-350l269 431h2z" />
    <glyph glyph-name="Ccedilla" unicode="&#xc7;" horiz-adv-x="685" 
d="M648 252h-20q-17 -57 -47 -103t-71.5 -78.5t-92.5 -50t-109 -17.5q-54 0 -100.5 17t-81 51t-54 84.5t-19.5 117.5q0 83 24.5 161.5t71 140t114.5 99t156 37.5q47 0 91 -14.5t78.5 -41.5t55.5 -66.5t21 -89.5h20q0 55 -22 98t-59 73t-85 45.5t-100 15.5
q-94 -1 -166.5 -41.5t-121 -105.5t-73.5 -146.5t-25 -164.5q0 -63 17 -114t49.5 -88t79 -59t105.5 -26l-58 -58l15 -9q11 4 26 8.5t29 4.5q18 0 35.5 -9.5t17.5 -32.5q0 -14 -7 -24t-17.5 -16.5t-23.5 -9.5t-25 -3q-20 0 -40.5 5.5t-39.5 15.5l-8 -19q20 -9 42 -15.5
t45 -6.5q17 0 33.5 4t30 13t22 22.5t8.5 33.5q0 31 -21.5 46.5t-51.5 15.5q-13 0 -22 -4l-2 2l13 9l24 25q63 0 118 20t99.5 55.5t75.5 84.5t46 108z" />
    <glyph glyph-name="Eacute" unicode="&#xc9;" horiz-adv-x="519" 
d="M298 751l163 144h-28l-163 -144h28zM465 20h-451l73 342h405l4 20h-404l67 312h433l4 20h-453l-152 -714h469z" />
    <glyph glyph-name="Ntilde" unicode="&#xd1;" horiz-adv-x="667" 
d="M552 842h-19q-3 -8 -7.5 -18t-10.5 -18.5t-14 -14.5t-19 -6q-19 0 -34.5 9.5t-30 21t-30 21t-33.5 9.5q-35 0 -54 -24.5t-25 -55.5h20q3 9 7 19.5t10.5 19.5t15 15t20.5 6q18 0 33.5 -9.5t30.5 -21t31 -21t34 -9.5q16 0 28.5 7t22 18t15.5 25t9 27zM505 0h27l153 714h-21
l-146 -691h-2l-344 691h-27l-151 -714h20l145 691h2z" />
    <glyph glyph-name="Odieresis" unicode="&#xd6;" horiz-adv-x="722" 
d="M377 835h-21l-13 -81h21zM535 835h-21l-13 -81h21zM677 434q0 -78 -23.5 -155.5t-69 -138.5t-112.5 -99t-153 -38q-63 0 -112.5 20t-83.5 56.5t-52 87.5t-18 113q0 79 23.5 156t68.5 138t112 99t154 38q65 0 114.5 -19.5t83.5 -56t51 -87.5t17 -114zM697 434
q0 68 -19 123t-56 93.5t-90 59.5t-121 21q-92 0 -162.5 -39t-118.5 -103t-72.5 -144.5t-24.5 -164.5q0 -68 19 -122.5t55 -93t89.5 -59.5t122.5 -21q91 0 161.5 39t118.5 102t73 144t25 165z" />
    <glyph glyph-name="Udieresis" unicode="&#xdc;" horiz-adv-x="648" 
d="M353 835h-21l-13 -81h21zM511 835h-21l-13 -81h21zM161 714h-21l-94 -430q-5 -28 -8 -49t-3 -50q0 -52 19 -90t51 -63t74.5 -36.5t90.5 -11.5q57 0 100 13t74.5 34t53 49t36 58t23 60t14.5 55l100 461h-21l-102 -467q-18 -85 -52 -134t-73.5 -73.5t-80 -30.5t-72.5 -6
q-46 -1 -85 10.5t-68 34.5t-45.5 57.5t-16.5 79.5q0 18 2 34.5t5 38.5z" />
    <glyph glyph-name="aacute" unicode="&#xe1;" horiz-adv-x="481" 
d="M225 587l163 144h-28l-163 -144h28zM59 365h20q17 67 64.5 104.5t125.5 36.5q30 0 55 -5t43 -17.5t28.5 -33t10.5 -52.5q0 -36 -9.5 -58t-27 -35t-40.5 -17.5t-50 -4.5q-18 0 -36.5 -0.5t-38.5 -1.5q-43 0 -83 -6.5t-71 -24.5t-50 -50.5t-19 -84.5q0 -34 12.5 -58
t33.5 -39t48.5 -22t57.5 -7q75 0 124.5 28t85.5 88h2q-3 -13 -6.5 -24.5t-3.5 -31.5q0 -52 52 -52q18 0 34 3v20q-13 -4 -35 -4q-12 0 -21.5 6t-9.5 27q0 11 1 18.5t3 16.5l59 251q3 15 5.5 30t2.5 33q0 67 -42.5 97.5t-114.5 30.5q-81 -1 -135.5 -38t-74.5 -123zM386 290
l-21 -89q-11 -42 -30.5 -77.5t-48.5 -61t-67 -40t-86 -14.5q-27 0 -51 6.5t-42.5 19.5t-29 33t-10.5 48q0 47 18.5 75.5t47.5 43.5t65.5 20.5t73.5 7.5q22 0 49 0.5t52.5 3.5t46.5 9t31 17z" />
    <glyph glyph-name="agrave" unicode="&#xe0;" horiz-adv-x="481" 
d="M223 731h-25l112 -144h25zM59 365h20q17 67 64.5 104.5t125.5 36.5q30 0 55 -5t43 -17.5t28.5 -33t10.5 -52.5q0 -36 -9.5 -58t-27 -35t-40.5 -17.5t-50 -4.5q-18 0 -36.5 -0.5t-38.5 -1.5q-43 0 -83 -6.5t-71 -24.5t-50 -50.5t-19 -84.5q0 -34 12.5 -58t33.5 -39
t48.5 -22t57.5 -7q75 0 124.5 28t85.5 88h2q-3 -13 -6.5 -24.5t-3.5 -31.5q0 -52 52 -52q18 0 34 3v20q-13 -4 -35 -4q-12 0 -21.5 6t-9.5 27q0 11 1 18.5t3 16.5l59 251q3 15 5.5 30t2.5 33q0 67 -42.5 97.5t-114.5 30.5q-81 -1 -135.5 -38t-74.5 -123zM386 290l-21 -89
q-11 -42 -30.5 -77.5t-48.5 -61t-67 -40t-86 -14.5q-27 0 -51 6.5t-42.5 19.5t-29 33t-10.5 48q0 47 18.5 75.5t47.5 43.5t65.5 20.5t73.5 7.5q22 0 49 0.5t52.5 3.5t46.5 9t31 17z" />
    <glyph glyph-name="acircumflex" unicode="&#xe2;" horiz-adv-x="481" 
d="M400 587l-91 144h-30l-135 -144h26l124 130l82 -130h24zM59 365h20q17 67 64.5 104.5t125.5 36.5q30 0 55 -5t43 -17.5t28.5 -33t10.5 -52.5q0 -36 -9.5 -58t-27 -35t-40.5 -17.5t-50 -4.5q-18 0 -36.5 -0.5t-38.5 -1.5q-43 0 -83 -6.5t-71 -24.5t-50 -50.5t-19 -84.5
q0 -34 12.5 -58t33.5 -39t48.5 -22t57.5 -7q75 0 124.5 28t85.5 88h2q-3 -13 -6.5 -24.5t-3.5 -31.5q0 -52 52 -52q18 0 34 3v20q-13 -4 -35 -4q-12 0 -21.5 6t-9.5 27q0 11 1 18.5t3 16.5l59 251q3 15 5.5 30t2.5 33q0 67 -42.5 97.5t-114.5 30.5q-81 -1 -135.5 -38
t-74.5 -123zM386 290l-21 -89q-11 -42 -30.5 -77.5t-48.5 -61t-67 -40t-86 -14.5q-27 0 -51 6.5t-42.5 19.5t-29 33t-10.5 48q0 47 18.5 75.5t47.5 43.5t65.5 20.5t73.5 7.5q22 0 49 0.5t52.5 3.5t46.5 9t31 17z" />
    <glyph glyph-name="adieresis" unicode="&#xe4;" horiz-adv-x="481" 
d="M221 671h-21l-13 -81h21zM379 671h-21l-13 -81h21zM59 365h20q17 67 64.5 104.5t125.5 36.5q30 0 55 -5t43 -17.5t28.5 -33t10.5 -52.5q0 -36 -9.5 -58t-27 -35t-40.5 -17.5t-50 -4.5q-18 0 -36.5 -0.5t-38.5 -1.5q-43 0 -83 -6.5t-71 -24.5t-50 -50.5t-19 -84.5
q0 -34 12.5 -58t33.5 -39t48.5 -22t57.5 -7q75 0 124.5 28t85.5 88h2q-3 -13 -6.5 -24.5t-3.5 -31.5q0 -52 52 -52q18 0 34 3v20q-13 -4 -35 -4q-12 0 -21.5 6t-9.5 27q0 11 1 18.5t3 16.5l59 251q3 15 5.5 30t2.5 33q0 67 -42.5 97.5t-114.5 30.5q-81 -1 -135.5 -38
t-74.5 -123zM386 290l-21 -89q-11 -42 -30.5 -77.5t-48.5 -61t-67 -40t-86 -14.5q-27 0 -51 6.5t-42.5 19.5t-29 33t-10.5 48q0 47 18.5 75.5t47.5 43.5t65.5 20.5t73.5 7.5q22 0 49 0.5t52.5 3.5t46.5 9t31 17z" />
    <glyph glyph-name="atilde" unicode="&#xe3;" horiz-adv-x="481" 
d="M423 678h-19q-3 -8 -7.5 -18t-10.5 -18.5t-14 -14.5t-19 -6q-19 0 -34.5 9.5t-30 21t-30 21t-33.5 9.5q-35 0 -54 -24.5t-25 -55.5h20q3 9 7 19.5t10.5 19.5t15 15t20.5 6q18 0 33.5 -9.5t30.5 -21t31 -21t34 -9.5q16 0 28.5 7t22 18t15.5 25t9 27zM59 365h20
q17 67 64.5 104.5t125.5 36.5q30 0 55 -5t43 -17.5t28.5 -33t10.5 -52.5q0 -36 -9.5 -58t-27 -35t-40.5 -17.5t-50 -4.5q-18 0 -36.5 -0.5t-38.5 -1.5q-43 0 -83 -6.5t-71 -24.5t-50 -50.5t-19 -84.5q0 -34 12.5 -58t33.5 -39t48.5 -22t57.5 -7q75 0 124.5 28t85.5 88h2
q-3 -13 -6.5 -24.5t-3.5 -31.5q0 -52 52 -52q18 0 34 3v20q-13 -4 -35 -4q-12 0 -21.5 6t-9.5 27q0 11 1 18.5t3 16.5l59 251q3 15 5.5 30t2.5 33q0 67 -42.5 97.5t-114.5 30.5q-81 -1 -135.5 -38t-74.5 -123zM386 290l-21 -89q-11 -42 -30.5 -77.5t-48.5 -61t-67 -40
t-86 -14.5q-27 0 -51 6.5t-42.5 19.5t-29 33t-10.5 48q0 47 18.5 75.5t47.5 43.5t65.5 20.5t73.5 7.5q22 0 49 0.5t52.5 3.5t46.5 9t31 17z" />
    <glyph glyph-name="aring" unicode="&#xe5;" horiz-adv-x="481" 
d="M237 664q0 32 22 54t54 22t54 -22t22 -54t-22 -54t-54 -22t-54 22t-22 54zM217 664q0 -40 28 -68t68 -28t68 28t28 68t-28 68t-68 28t-68 -28t-28 -68zM59 365h20q17 67 64.5 104.5t125.5 36.5q30 0 55 -5t43 -17.5t28.5 -33t10.5 -52.5q0 -36 -9.5 -58t-27 -35
t-40.5 -17.5t-50 -4.5q-18 0 -36.5 -0.5t-38.5 -1.5q-43 0 -83 -6.5t-71 -24.5t-50 -50.5t-19 -84.5q0 -34 12.5 -58t33.5 -39t48.5 -22t57.5 -7q75 0 124.5 28t85.5 88h2q-3 -13 -6.5 -24.5t-3.5 -31.5q0 -52 52 -52q18 0 34 3v20q-13 -4 -35 -4q-12 0 -21.5 6t-9.5 27
q0 11 1 18.5t3 16.5l59 251q3 15 5.5 30t2.5 33q0 67 -42.5 97.5t-114.5 30.5q-81 -1 -135.5 -38t-74.5 -123zM386 290l-21 -89q-11 -42 -30.5 -77.5t-48.5 -61t-67 -40t-86 -14.5q-27 0 -51 6.5t-42.5 19.5t-29 33t-10.5 48q0 47 18.5 75.5t47.5 43.5t65.5 20.5t73.5 7.5
q22 0 49 0.5t52.5 3.5t46.5 9t31 17z" />
    <glyph glyph-name="ccedilla" unicode="&#xe7;" 
d="M432 165h-20q-29 -81 -81 -118t-122 -39q-88 0 -132.5 49.5t-44.5 133.5q0 56 15.5 112.5t46.5 101.5t77.5 73t108.5 28q75 0 119 -37.5t44 -109.5h20q0 81 -49 124t-134 43q-65 0 -115 -28.5t-84 -76t-51.5 -107.5t-17.5 -123q0 -91 47 -144t137 -57l-62 -62l15 -9
q11 4 26 8.5t29 4.5q18 0 35.5 -9.5t17.5 -32.5q0 -14 -7 -24t-17.5 -16.5t-23.5 -9.5t-25 -3q-20 0 -40.5 5.5t-39.5 15.5l-8 -19q20 -9 42 -15.5t45 -6.5q17 0 33.5 4t30 13t22 22.5t8.5 33.5q0 31 -21.5 46.5t-51.5 15.5q-13 0 -22 -4l-2 2l13 9l30 31q74 4 130 50
t79 125z" />
    <glyph glyph-name="eacute" unicode="&#xe9;" 
d="M234 587l163 144h-28l-163 -144h28zM433 273h-402q9 48 28.5 90t49.5 74t71 50.5t92 18.5q42 0 73 -14.5t52 -39t31 -57.5t10 -69q0 -15 -1 -27t-4 -26zM27 253h427q2 21 3 37.5t1 35.5q0 42 -12 78.5t-35 63.5t-58 42.5t-81 15.5q-67 0 -117.5 -28.5t-84 -75t-50 -105
t-16.5 -118.5q0 -44 11.5 -82.5t35.5 -67t60 -44.5t84 -16q94 0 151.5 46t80.5 134h-21q-23 -84 -77 -122.5t-135 -38.5q-24 0 -53.5 7.5t-55.5 28t-43.5 57.5t-17.5 97q0 33 3 55z" />
    <glyph glyph-name="egrave" unicode="&#xe8;" 
d="M232 731h-25l112 -144h25zM433 273h-402q9 48 28.5 90t49.5 74t71 50.5t92 18.5q42 0 73 -14.5t52 -39t31 -57.5t10 -69q0 -15 -1 -27t-4 -26zM27 253h427q2 21 3 37.5t1 35.5q0 42 -12 78.5t-35 63.5t-58 42.5t-81 15.5q-67 0 -117.5 -28.5t-84 -75t-50 -105
t-16.5 -118.5q0 -44 11.5 -82.5t35.5 -67t60 -44.5t84 -16q94 0 151.5 46t80.5 134h-21q-23 -84 -77 -122.5t-135 -38.5q-24 0 -53.5 7.5t-55.5 28t-43.5 57.5t-17.5 97q0 33 3 55z" />
    <glyph glyph-name="ecircumflex" unicode="&#xea;" 
d="M409 587l-91 144h-30l-135 -144h26l124 130l82 -130h24zM433 273h-402q9 48 28.5 90t49.5 74t71 50.5t92 18.5q42 0 73 -14.5t52 -39t31 -57.5t10 -69q0 -15 -1 -27t-4 -26zM27 253h427q2 21 3 37.5t1 35.5q0 42 -12 78.5t-35 63.5t-58 42.5t-81 15.5q-67 0 -117.5 -28.5
t-84 -75t-50 -105t-16.5 -118.5q0 -44 11.5 -82.5t35.5 -67t60 -44.5t84 -16q94 0 151.5 46t80.5 134h-21q-23 -84 -77 -122.5t-135 -38.5q-24 0 -53.5 7.5t-55.5 28t-43.5 57.5t-17.5 97q0 33 3 55z" />
    <glyph glyph-name="edieresis" unicode="&#xeb;" 
d="M230 671h-21l-13 -81h21zM388 671h-21l-13 -81h21zM433 273h-402q9 48 28.5 90t49.5 74t71 50.5t92 18.5q42 0 73 -14.5t52 -39t31 -57.5t10 -69q0 -15 -1 -27t-4 -26zM27 253h427q2 21 3 37.5t1 35.5q0 42 -12 78.5t-35 63.5t-58 42.5t-81 15.5q-67 0 -117.5 -28.5
t-84 -75t-50 -105t-16.5 -118.5q0 -44 11.5 -82.5t35.5 -67t60 -44.5t84 -16q94 0 151.5 46t80.5 134h-21q-23 -84 -77 -122.5t-135 -38.5q-24 0 -53.5 7.5t-55.5 28t-43.5 57.5t-17.5 97q0 33 3 55z" />
    <glyph glyph-name="iacute" unicode="&#xed;" horiz-adv-x="130" 
d="M85 587l163 144h-28l-163 -144h28zM1 0l110 514h-22l-109 -514h21z" />
    <glyph glyph-name="igrave" unicode="&#xec;" horiz-adv-x="130" 
d="M83 731h-25l112 -144h25zM1 0l110 514h-22l-109 -514h21z" />
    <glyph glyph-name="icircumflex" unicode="&#xee;" horiz-adv-x="130" 
d="M240 587l-91 144h-30l-134 -144h25l124 130l82 -130h24zM1 0l110 514h-22l-109 -514h21z" />
    <glyph glyph-name="idieresis" unicode="&#xef;" horiz-adv-x="130" 
d="M61 671h-21l-13 -81h21zM219 671h-21l-13 -81h21zM1 0l110 514h-22l-109 -514h21z" />
    <glyph glyph-name="ntilde" unicode="&#xf1;" 
d="M441 678h-19q-3 -8 -7.5 -18t-10.5 -18.5t-14 -14.5t-19 -6q-19 0 -34.5 9.5t-30 21t-30 21t-33.5 9.5q-35 0 -54 -24.5t-25 -55.5h20q3 9 7 19.5t10.5 19.5t15 15t20.5 6q18 0 33.5 -9.5t30.5 -21t31 -21t34 -9.5q16 0 28.5 7t22 18t15.5 25t9 27zM92 514l-110 -514h20
l51 237q10 48 28 96.5t47 86.5t70.5 62t98.5 24t93.5 -30t37.5 -90q0 -19 -4 -38l-8 -38l-65 -310h21l64 305q4 20 8 40.5t4 40.5q0 69 -42 104.5t-109 35.5q-75 0 -124 -36.5t-84 -99.5l-2 2l13 58l13 64h-21z" />
    <glyph glyph-name="oacute" unicode="&#xf3;" horiz-adv-x="519" 
d="M244 587l163 144h-28l-163 -144h28zM26 191q0 56 15.5 112.5t46.5 101.5t77.5 73t108.5 28q81 0 129.5 -50t48.5 -141q0 -52 -16 -106.5t-47 -99t-77.5 -73t-108.5 -28.5q-88 0 -132.5 49.5t-44.5 133.5zM6 191q0 -94 50.5 -148t146.5 -54q66 0 116 29.5t84 76.5
t51.5 105t17.5 115q0 47 -13.5 86t-39 66.5t-62 43t-83.5 15.5q-65 0 -115 -28.5t-84 -76t-51.5 -107.5t-17.5 -123z" />
    <glyph glyph-name="ograve" unicode="&#xf2;" horiz-adv-x="519" 
d="M242 731h-25l112 -144h25zM26 191q0 56 15.5 112.5t46.5 101.5t77.5 73t108.5 28q81 0 129.5 -50t48.5 -141q0 -52 -16 -106.5t-47 -99t-77.5 -73t-108.5 -28.5q-88 0 -132.5 49.5t-44.5 133.5zM6 191q0 -94 50.5 -148t146.5 -54q66 0 116 29.5t84 76.5t51.5 105
t17.5 115q0 47 -13.5 86t-39 66.5t-62 43t-83.5 15.5q-65 0 -115 -28.5t-84 -76t-51.5 -107.5t-17.5 -123z" />
    <glyph glyph-name="ocircumflex" unicode="&#xf4;" horiz-adv-x="519" 
d="M419 587l-91 144h-30l-135 -144h26l124 130l82 -130h24zM26 191q0 56 15.5 112.5t46.5 101.5t77.5 73t108.5 28q81 0 129.5 -50t48.5 -141q0 -52 -16 -106.5t-47 -99t-77.5 -73t-108.5 -28.5q-88 0 -132.5 49.5t-44.5 133.5zM6 191q0 -94 50.5 -148t146.5 -54
q66 0 116 29.5t84 76.5t51.5 105t17.5 115q0 47 -13.5 86t-39 66.5t-62 43t-83.5 15.5q-65 0 -115 -28.5t-84 -76t-51.5 -107.5t-17.5 -123z" />
    <glyph glyph-name="odieresis" unicode="&#xf6;" horiz-adv-x="519" 
d="M240 671h-21l-13 -81h21zM398 671h-21l-13 -81h21zM26 191q0 56 15.5 112.5t46.5 101.5t77.5 73t108.5 28q81 0 129.5 -50t48.5 -141q0 -52 -16 -106.5t-47 -99t-77.5 -73t-108.5 -28.5q-88 0 -132.5 49.5t-44.5 133.5zM6 191q0 -94 50.5 -148t146.5 -54q66 0 116 29.5
t84 76.5t51.5 105t17.5 115q0 47 -13.5 86t-39 66.5t-62 43t-83.5 15.5q-65 0 -115 -28.5t-84 -76t-51.5 -107.5t-17.5 -123z" />
    <glyph glyph-name="otilde" unicode="&#xf5;" horiz-adv-x="519" 
d="M442 678h-19q-3 -8 -7.5 -18t-10.5 -18.5t-14 -14.5t-19 -6q-19 0 -34.5 9.5t-30 21t-30 21t-33.5 9.5q-35 0 -54 -24.5t-25 -55.5h20q3 9 7 19.5t10.5 19.5t15 15t20.5 6q18 0 33.5 -9.5t30.5 -21t31 -21t34 -9.5q16 0 28.5 7t22 18t15.5 25t9 27zM26 191
q0 56 15.5 112.5t46.5 101.5t77.5 73t108.5 28q81 0 129.5 -50t48.5 -141q0 -52 -16 -106.5t-47 -99t-77.5 -73t-108.5 -28.5q-88 0 -132.5 49.5t-44.5 133.5zM6 191q0 -94 50.5 -148t146.5 -54q66 0 116 29.5t84 76.5t51.5 105t17.5 115q0 47 -13.5 86t-39 66.5t-62 43
t-83.5 15.5q-65 0 -115 -28.5t-84 -76t-51.5 -107.5t-17.5 -123z" />
    <glyph glyph-name="uacute" unicode="&#xfa;" 
d="M243 587l163 144h-28l-163 -144h28zM368 0l111 514h-22l-50 -237q-10 -48 -28 -96.5t-47 -86.5t-70.5 -62t-98.5 -24t-93.5 30t-37.5 90q0 19 4 38l8 38l65 310h-21l-64 -305q-4 -20 -8 -40.5t-4 -40.5q0 -69 42 -104t109 -35q75 0 124 36t84 99l2 -2l-13 -58l-13 -64h21
z" />
    <glyph glyph-name="ugrave" unicode="&#xf9;" 
d="M241 731h-25l112 -144h25zM368 0l111 514h-22l-50 -237q-10 -48 -28 -96.5t-47 -86.5t-70.5 -62t-98.5 -24t-93.5 30t-37.5 90q0 19 4 38l8 38l65 310h-21l-64 -305q-4 -20 -8 -40.5t-4 -40.5q0 -69 42 -104t109 -35q75 0 124 36t84 99l2 -2l-13 -58l-13 -64h21z" />
    <glyph glyph-name="ucircumflex" unicode="&#xfb;" 
d="M418 587l-91 144h-30l-135 -144h26l124 130l82 -130h24zM368 0l111 514h-22l-50 -237q-10 -48 -28 -96.5t-47 -86.5t-70.5 -62t-98.5 -24t-93.5 30t-37.5 90q0 19 4 38l8 38l65 310h-21l-64 -305q-4 -20 -8 -40.5t-4 -40.5q0 -69 42 -104t109 -35q75 0 124 36t84 99l2 -2
l-13 -58l-13 -64h21z" />
    <glyph glyph-name="udieresis" unicode="&#xfc;" 
d="M239 671h-21l-13 -81h21zM397 671h-21l-13 -81h21zM368 0l111 514h-22l-50 -237q-10 -48 -28 -96.5t-47 -86.5t-70.5 -62t-98.5 -24t-93.5 30t-37.5 90q0 19 4 38l8 38l65 310h-21l-64 -305q-4 -20 -8 -40.5t-4 -40.5q0 -69 42 -104t109 -35q75 0 124 36t84 99l2 -2
l-13 -58l-13 -64h21z" />
    <glyph glyph-name="dagger" unicode="&#x2020;" horiz-adv-x="556" 
d="M79 449h209l-126 -589h21l126 589h210l4 20h-209l52 245h-21l-52 -245h-211z" />
    <glyph glyph-name="degree" unicode="&#xb0;" horiz-adv-x="278" 
d="M47 554q0 -28 11 -53.5t29.5 -44t44 -29.5t53.5 -11q29 0 54 11t43.5 29.5t29.5 44t11 53.5q0 29 -11 54t-29.5 43.5t-43.5 29.5t-54 11q-28 0 -53.5 -11t-44 -29.5t-29.5 -43.5t-11 -54zM67 554q0 24 9.5 45.5t25.5 37.5t37.5 25.5t45.5 9.5t45.5 -9.5t37.5 -25.5
t25.5 -37.5t9.5 -45.5t-9.5 -45.5t-25.5 -37.5t-37.5 -25.5t-45.5 -9.5t-45.5 9.5t-37.5 25.5t-25.5 37.5t-9.5 45.5z" />
    <glyph glyph-name="cent" unicode="&#xa2;" horiz-adv-x="556" 
d="M221 9l106 496q66 -3 106 -39t39 -105h20q0 76 -43 117.5t-118 46.5l18 83h-18l-18 -82q-66 0 -117 -28.5t-85.5 -75t-52 -104t-17.5 -116.5q0 -42 9 -78.5t28 -64t49.5 -45t72.5 -21.5l-23 -106h18l22 103q3 -1 14 -1q41 0 78 13t67 36.5t52 56.5t33 73h-20
q-29 -81 -82 -119.5t-128 -40.5q-8 0 -10 1zM309 506l-105 -495q-76 11 -109.5 62t-33.5 129q0 54 16 108t47.5 97t78 70.5t106.5 28.5z" />
    <glyph glyph-name="sterling" unicode="&#xa3;" horiz-adv-x="556" 
d="M157 345h154l6 20h-168q-8 26 -14.5 43.5t-11.5 33.5t-7.5 35t-2.5 48q0 50 17.5 85t47 57.5t68 33t80.5 10.5q38 0 73 -8.5t62.5 -28t44 -50.5t16.5 -75v-23v-11t-1 -11h20q1 5 1 11v11v22q0 59 -23.5 94.5t-57.5 55.5t-71 26.5t-64 6.5q-49 0 -91.5 -12.5t-74 -38
t-49.5 -64.5t-18 -92q0 -52 12 -89t23 -70h-83l-3 -20h94q7 -22 9.5 -42t2.5 -44q0 -42 -15 -76.5t-38.5 -64.5t-51.5 -58t-55 -58l12 -15q18 17 50 29t63 12q28 0 54 -7t50.5 -15t48.5 -15t48 -7q23 0 47.5 5.5t47 17t41 29t30.5 41.5l-14 12q-21 -37 -62.5 -62t-89.5 -24
q-23 0 -46 7.5t-48 15.5q-24 8 -50.5 15t-56.5 7q-20 0 -38.5 -6t-35.5 -14l-2 4q25 21 48.5 45t42 52t29.5 60.5t11 69.5q0 20 -2.5 41t-8.5 45z" />
    <glyph glyph-name="section" unicode="&#xa7;" horiz-adv-x="556" 
d="M304 66l-141 141q-14 13 -29.5 29.5t-28 35t-21 39.5t-8.5 42q0 36 14.5 62.5t35 43.5t42 25.5t36.5 8.5l165 -153q9 -8 21.5 -21t24 -30.5t20 -39t8.5 -45.5q0 -29 -11.5 -53t-31 -42t-44.5 -29t-52 -14zM41 5h-20q-6 -45 4.5 -81t33.5 -61t57 -38t76 -13q33 0 62.5 10
t52 28.5t35.5 45.5t13 61q0 28 -10.5 52t-26.5 39q27 3 53 15.5t46.5 32.5t33 47.5t12.5 60.5q0 42 -21.5 79.5t-59.5 72.5l-105 98q-16 15 -32 29.5t-29 30.5t-21 35t-8 43q0 29 11.5 51t30.5 37t43 23t49 8q35 0 64 -11t48.5 -32.5t28.5 -52t4 -69.5h20q6 42 -4 76.5
t-32.5 58.5t-55.5 37t-73 13q-29 0 -57 -9t-49.5 -26.5t-34.5 -43.5t-13 -60q-1 -25 6.5 -44.5t19.5 -36.5q-28 -3 -53 -16.5t-43.5 -34.5t-29.5 -48.5t-11 -58.5q0 -46 27.5 -86t60.5 -71l106 -107q15 -15 30 -29t27.5 -29.5t20 -33.5t7.5 -40q0 -31 -12.5 -54.5t-32.5 -39
t-45.5 -23.5t-51.5 -8q-78 0 -120 45.5t-32 127.5z" />
    <glyph glyph-name="bullet" unicode="&#x2022;" 
d="M72 357q0 -37 14 -69.5t38 -56.5t56.5 -38t69.5 -14t69.5 14t57 38t38.5 56.5t14 69.5t-14 69.5t-38.5 57t-57 38.5t-69.5 14t-69.5 -14t-56.5 -38.5t-38 -57t-14 -69.5z" />
    <glyph glyph-name="paragraph" unicode="&#xb6;" horiz-adv-x="600" 
d="M283 338l-99 -477h21l173 833h152l-173 -833h21l177 853h-188q-45 0 -88 -8.5t-78 -29.5t-60.5 -55t-35.5 -85q-10 -49 -0.5 -86t34.5 -62t62 -37.5t82 -12.5z" />
    <glyph glyph-name="germandbls" unicode="&#xdf;" horiz-adv-x="481" 
d="M208 408l-6 -20q38 1 73 -5.5t61.5 -23.5t42.5 -46.5t16 -74.5q0 -48 -16.5 -89.5t-45.5 -72t-70 -47.5t-89 -17q-20 0 -48 5l-6 -19q12 -2 24.5 -3.5t29.5 -1.5q56 0 101 19.5t76 53.5t47.5 78.5t16.5 93.5q0 63 -32 106t-96 53v2q35 5 64.5 19.5t51.5 37.5t34 55t12 71
q0 35 -13 62t-35 45t-51.5 27.5t-63.5 9.5q-49 0 -83 -15t-56 -42t-35.5 -63t-22.5 -78l-111 -528h21l110 522q8 39 19.5 73t31 58.5t50 38.5t76.5 14q30 0 56.5 -8.5t45.5 -24t30 -38.5t11 -53q0 -47 -18.5 -80t-49 -54t-70.5 -30.5t-83 -9.5z" />
    <glyph glyph-name="registered" unicode="&#xae;" horiz-adv-x="800" 
d="M46 357q0 73 27.5 137.5t75.5 112.5t112.5 76t138.5 28q73 0 137.5 -28t112.5 -76t76 -112.5t28 -137.5q0 -74 -28 -138.5t-76 -112.5t-112.5 -75.5t-137.5 -27.5q-74 0 -138.5 27.5t-112.5 75.5t-75.5 112.5t-27.5 138.5zM26 357q0 -78 29.5 -146t80 -118.5t118.5 -79.5
t146 -29t146 29t118.5 79.5t80 118.5t29.5 146t-29.5 146t-80 118.5t-118.5 80t-146 29.5t-146 -29.5t-118.5 -80t-80 -118.5t-29.5 -146zM398 354h-104v191h119q24 0 46.5 -4t39.5 -14.5t27.5 -29t10.5 -48.5q0 -32 -13.5 -51t-34 -28.5t-45 -12.5t-46.5 -3zM274 565v-430
h20v199h98h15h8t8 1l129 -200h25l-132 202q23 2 43 9.5t35.5 21t24.5 34t9 47.5q0 55 -34.5 85.5t-107.5 30.5h-141z" />
    <glyph glyph-name="copyright" unicode="&#xa9;" horiz-adv-x="800" 
d="M46 357q0 73 27.5 137.5t75.5 112.5t112.5 76t138.5 28q73 0 137.5 -28t112.5 -76t76 -112.5t28 -137.5q0 -74 -28 -138.5t-76 -112.5t-112.5 -75.5t-137.5 -27.5q-74 0 -138.5 27.5t-112.5 75.5t-75.5 112.5t-27.5 138.5zM26 357q0 -78 29.5 -146t80 -118.5t118.5 -79.5
t146 -29t146 29t118.5 79.5t80 118.5t29.5 146t-29.5 146t-80 118.5t-118.5 80t-146 29.5t-146 -29.5t-118.5 -80t-80 -118.5t-29.5 -146zM573 428h20q-5 36 -21 64.5t-41 47.5t-56.5 29t-66.5 10q-51 0 -91.5 -17t-68 -47.5t-42.5 -72t-15 -91.5q0 -49 15.5 -91t44 -73
t69.5 -49t91 -18q69 0 117.5 43.5t64.5 112.5h-20q-16 -66 -61.5 -101t-100.5 -35q-47 0 -84 16.5t-63 45.5t-39.5 67.5t-13.5 82.5t13 82t38.5 65.5t62 43.5t83.5 16q30 0 57.5 -8t50 -24.5t37.5 -41t20 -57.5z" />
    <glyph glyph-name="trademark" unicode="&#x2122;" horiz-adv-x="990" 
d="M496 302h20v392h2l164 -392h20l164 392h2v-392h20v412h-34l-162 -384l-162 384h-34v-412zM82 694h150v-392h20v392h150v20h-320v-20z" />
    <glyph glyph-name="acute" unicode="&#xb4;" horiz-adv-x="130" 
d="M85 587l163 144h-28l-163 -144h28z" />
    <glyph glyph-name="dieresis" unicode="&#xa8;" horiz-adv-x="130" 
d="M81 671h-21l-13 -81h21zM239 671h-21l-13 -81h21z" />
    <glyph glyph-name="notequal" unicode="&#x2260;" horiz-adv-x="600" 
d="M163 21l67 125h-182v20h192l94 174h-286v20h296l73 135l18 -9l-68 -126h185v-20h-195l-94 -174h289v-20h-299l-72 -134z" />
    <glyph glyph-name="AE" unicode="&#xc6;" horiz-adv-x="833" 
d="M423 294h-267l311 400h41zM779 20h-393l72 342h349l4 20h-349l66 312h379l4 20h-452l-556 -714h27l214 274h276l-59 -274h414z" />
    <glyph glyph-name="Oslash" unicode="&#xd8;" horiz-adv-x="722" 
d="M592 652l-468 -573q-71 74 -71 201q0 79 23.5 156t68.5 138t112 99t154 38q113 0 181 -59zM137 66l469 573q71 -74 71 -205q0 -78 -23.5 -155.5t-69 -138.5t-112.5 -99t-153 -38q-57 0 -103 16.5t-79 46.5zM42 -20l14 -12l67 81q71 -65 196 -65q91 0 161.5 39t118.5 102
t73 144t25 165q0 140 -79 220l59 73l-14 11l-59 -71q-35 31 -84 47.5t-109 16.5q-92 0 -162.5 -39t-118.5 -103t-72.5 -144.5t-24.5 -164.5q0 -138 77 -218z" />
    <glyph glyph-name="infinity" unicode="&#x221e;" horiz-adv-x="722" 
d="M175 130q-59 0 -90 34t-31 90q0 25 8.5 47.5t24 39.5t37 26.5t47.5 9.5t52 -11t51 -28t47 -36.5t41 -35.5q18 16 40 35.5t46.5 36t50.5 28t51 11.5q53 0 85.5 -35.5t32.5 -87.5q0 -55 -32 -89.5t-88 -34.5q-30 0 -55 10.5t-47.5 26.5t-43 35.5t-41.5 37.5
q-17 -15 -37 -34.5t-43.5 -36t-49.5 -28t-56 -11.5zM175 150q26 0 50.5 11t46 27t40.5 34t34 32q-17 16 -37.5 34t-43 33.5t-46.5 25.5t-48 10q-45 0 -71 -30.5t-26 -72.5q0 -45 26.5 -74.5t74.5 -29.5zM548 150q50 0 75 30.5t25 73.5q0 19 -6.5 38t-19.5 33t-31 23t-40 9
q-23 0 -46.5 -11t-46.5 -26.5t-44 -33.5t-37 -32q17 -16 36.5 -34t41 -33.5t45 -26t48.5 -10.5z" />
    <glyph glyph-name="plusminus" unicode="&#xb1;" horiz-adv-x="600" 
d="M48 20v-20h504v20h-504zM290 288v-198h20v198h242v20h-242v198h-20v-198h-242v-20h242z" />
    <glyph glyph-name="lessequal" unicode="&#x2264;" horiz-adv-x="600" 
d="M22 20h504v-20h-504v20zM22 263v18l504 207v-22l-471 -194l471 -192v-22z" />
    <glyph glyph-name="greaterequal" unicode="&#x2265;" horiz-adv-x="600" 
d="M32 0v20h504v-20h-504zM32 58v22l471 192l-471 194v22l504 -207v-18z" />
    <glyph glyph-name="yen" unicode="&#xa5;" horiz-adv-x="556" 
d="M376 203h-140l20 102h140l5 20h-130l331 389h-23l-328 -385l-175 385h-20l171 -378l6 -11h-132l-5 -20h140l-20 -102h-140l-4 -20h140l-37 -183h20l37 183h140z" />
    <glyph glyph-name="mu" unicode="&#xb5;" horiz-adv-x="556" 
d="M398 0l111 514h-22l-50 -237q-10 -48 -28 -96.5t-47 -86.5t-70.5 -62t-98.5 -24q-37 0 -60.5 12.5t-37 32.5t-19 45.5t-5.5 50.5q0 26 3 49.5t6 40.5l59 273h-21l-148 -688h21l49 229l12 76h2q0 -41 12 -68t32 -43t45 -22.5t50 -6.5q75 0 124 36t84 99l2 -2l-13 -58
l-13 -64h21z" />
    <glyph glyph-name="partialdiff" unicode="&#x2202;" horiz-adv-x="442" 
d="M199 -13q-42 0 -74.5 21t-54 53.5t-33 71.5t-11.5 76q0 41 11.5 79t34.5 67.5t56.5 47.5t78.5 18q55 0 101.5 -29.5t76.5 -74.5q1 17 1.5 35t0.5 35q0 45 -9 99.5t-31 102t-59 80t-92 32.5q-37 0 -64 -12.5t-56 -33.5l-11 18q31 21 62 34t69 13q64 0 105.5 -35t65 -87.5
t32.5 -113t9 -110.5q0 -33 -3 -74.5t-11.5 -84.5t-23 -84t-37.5 -73t-56 -51.5t-78 -19.5zM200 5q49 0 83.5 31.5t56.5 76t32.5 93.5t10.5 85q-34 47 -77 79t-102 32q-38 0 -67.5 -16.5t-49 -44t-29.5 -62t-10 -70.5q0 -33 10 -69t29 -66t47.5 -49.5t65.5 -19.5z" />
    <glyph glyph-name="summation" unicode="&#x2211;" horiz-adv-x="504" 
d="M26 -196l341 486l-326 478v18h479v-20h-453l324 -475l-340 -485h479v-20h-504v18z" />
    <glyph glyph-name="product" unicode="&#x220f;" horiz-adv-x="626" 
d="M54 786h518v-1000h-20v980h-478v-980h-20v1000z" />
    <glyph glyph-name="pi" unicode="&#x3c0;" horiz-adv-x="556" 
d="M407 -4q-27 0 -36.5 13t-9.5 32q0 11 2.5 23t4.5 23l87 407h-294l-105 -494h-20l105 494h-72l4 20h482l-4 -20h-76l-88 -414q-5 -18 -5 -34q0 -13 5.5 -22t22.5 -9q26 0 48 16l-5 -22q-23 -13 -46 -13z" />
    <glyph glyph-name="integral" unicode="&#x222b;" horiz-adv-x="252" 
d="M47 -214q-12 0 -22 7t-10 20q0 10 6 16.5t16 6.5q7 0 12.5 -3.5t9 -8t7 -8t6.5 -3.5q13 0 21 18.5t12.5 44.5t5.5 55.5t1 52.5v596q0 31 3 67t12 67t26.5 51.5t47.5 20.5q13 0 24.5 -6.5t11.5 -21.5q0 -10 -6.5 -16t-16.5 -6q-12 0 -17 6.5t-13 14.5q-1 0 -2.5 1t-2.5 1
q-11 0 -18.5 -12t-12.5 -27.5t-7.5 -31.5t-3.5 -23q-3 -33 -4 -66t-1 -66v-553q0 -35 -1.5 -70t-9.5 -62.5t-25 -44.5t-49 -17z" />
    <glyph glyph-name="ordfeminine" unicode="&#xaa;" horiz-adv-x="289" 
d="M279 549l-15 -54q-16 -57 -56 -84t-97 -27q-33 0 -56 14.5t-23 46.5q0 29 13.5 44.5t33 23t42 9.5t40.5 3q13 1 30.5 1.5t34.5 2.5t31 7t20 14zM65 591h20q29 83 117 81q33 -1 51.5 -7t26.5 -14.5t9.5 -18t1.5 -17.5q0 -35 -17.5 -50.5t-50.5 -16.5q-26 -2 -52 -3t-52 -3
q-9 -1 -27 -4.5t-35.5 -13.5t-31 -29t-13.5 -51q0 -13 4.5 -27t16 -26t30.5 -19.5t48 -7.5q46 0 85.5 18t58.5 56h2q-3 -7 -6 -15.5t-3 -17.5q0 -17 8 -26.5t20 -9.5h11q4 0 12 2l4 19q-3 -1 -19 -1q-10 0 -13 4t-3 11v11q0 5 2 11l35 148q2 9 4 22t2 24q0 23 -10.5 37.5
t-26.5 22t-35.5 10t-38.5 2.5q-52 0 -88 -26.5t-47 -74.5z" />
    <glyph glyph-name="ordmasculine" unicode="&#xba;" horiz-adv-x="311" 
d="M319 568q0 -33 -9 -65.5t-28 -59t-48 -43t-70 -16.5q-56 0 -81.5 31t-25.5 75q0 34 9 66.5t28.5 58t50 41.5t72.5 16q54 0 78 -26.5t24 -77.5zM339 568q0 52 -30 88t-92 36q-44 0 -78 -17.5t-56.5 -46t-34 -64.5t-11.5 -74q0 -57 32 -91.5t95 -34.5q42 0 74.5 18t55 47
t34 65.5t11.5 73.5z" />
    <glyph glyph-name="Omegagreek" unicode="&#x3a9;" horiz-adv-x="693" 
d="M-18 20h198l26 117q-72 26 -109.5 81t-37.5 131q0 75 26 142.5t73 118.5t111.5 81t141.5 30q58 0 105.5 -19t82 -53t53.5 -81.5t19 -104.5q0 -60 -18 -114.5t-51.5 -98t-81.5 -73t-108 -41.5l-27 -116h201l-4 -20h-220l33 153q58 7 105.5 35t80.5 70t51 94.5t18 109.5
q0 53 -17.5 97.5t-49 76t-75.5 49t-98 17.5q-73 0 -134 -29.5t-104.5 -78.5t-67.5 -113.5t-24 -134.5t39.5 -123.5t109.5 -69.5l-33 -153h-218z" />
    <glyph glyph-name="ae" unicode="&#xe6;" horiz-adv-x="833" 
d="M369 299l2 -2q-4 -18 -9.5 -41.5t-12 -48t-14.5 -48t-18 -40.5q-31 -51 -79.5 -81t-108.5 -30q-27 0 -51 6.5t-42 19.5t-28.5 33t-10.5 48q0 47 18 75.5t47 43.5t65.5 20.5t73.5 7.5q23 0 46.5 2t47.5 4q21 2 40.5 9t33.5 22zM382 253h400q2 16 3 35t1 38q0 42 -12 78.5
t-35 63.5t-58 42.5t-81 15.5q-35 0 -65.5 -11.5t-56 -31t-44.5 -46t-31 -56.5l-2 2q3 36 -7 62.5t-29 44.5t-45 27t-55 9q-81 -1 -135.5 -38t-74.5 -123h20q17 67 64.5 104.5t125.5 36.5q25 0 46.5 -7t38 -22t26 -38.5t9.5 -57.5q-1 -48 -24.5 -69t-71.5 -25
q-18 -2 -40.5 -3t-48.5 -3q-43 0 -83 -6.5t-71 -24.5t-50 -50.5t-19 -84.5q0 -34 12.5 -58t33.5 -39t48.5 -22t57.5 -7q39 0 75 13t66 35.5t52 53t33 64.5h2q0 -36 13.5 -66.5t37.5 -52.5t56 -34.5t69 -12.5q94 0 152 46t82 134h-23q-20 -82 -75.5 -121.5t-133.5 -39.5
q-37 0 -67 13t-51.5 36t-33 55t-11.5 70q0 20 2.5 38.5t7.5 32.5zM761 273h-376q7 44 25 85.5t45.5 74.5t64 53t80.5 20q42 0 73 -14.5t52 -39t31 -57.5t10 -69q0 -15 -1 -27t-4 -26z" />
    <glyph glyph-name="oslash" unicode="&#xf8;" horiz-adv-x="519" 
d="M471 518l-15 12l-45 -55q-52 51 -137 51q-65 0 -115 -28.5t-84 -76t-51.5 -107.5t-17.5 -123q0 -48 13 -85.5t37 -63.5l-48 -58l15 -12l47 57q24 -23 57.5 -31.5t75.5 -8.5q66 0 116 29.5t84 76.5t51.5 105t17.5 115q0 92 -48 146zM398 459l-329 -401q-43 47 -43 133
q0 56 15.5 112.5t46.5 101.5t77.5 73t108.5 28q77 0 124 -47zM83 45l327 399q42 -45 42 -129q0 -52 -16 -106.5t-47 -99t-77.5 -73t-108.5 -28.5q-38 0 -69 8.5t-51 28.5z" />
    <glyph glyph-name="questiondown" unicode="&#xbf;" 
d="M310 542h-21l-22 -98h21zM389 47h-20q-3 -44 -16 -83t-38 -68.5t-61 -46.5t-86 -17q-33 0 -63 8.5t-53 25.5t-36.5 44t-13.5 65q0 30 7.5 54t24 45t41.5 40.5t59 40.5q24 15 44 28t35 29.5t26.5 39t19.5 56.5l13 53h-21l-12 -50q-7 -30 -16.5 -49.5t-23 -34t-32 -27
t-43.5 -28.5q-29 -18 -54.5 -36.5t-45 -41.5t-30.5 -52t-11 -67q0 -40 14 -70.5t39 -51t59 -31t73 -10.5q52 0 92 18t67.5 49.5t43 74.5t18.5 93z" />
    <glyph glyph-name="exclamdown" unicode="&#xa1;" horiz-adv-x="185" 
d="M-10 -176l118 536h-21l-118 -536h21zM125 444l22 98h-21l-22 -98h21z" />
    <glyph glyph-name="logicalnot" unicode="&#xac;" horiz-adv-x="600" 
d="M532 340v-247h20v267h-504v-20h484z" />
    <glyph glyph-name="radical" unicode="&#x221a;" horiz-adv-x="490" 
d="M53 167l-44 -21l-9 18l62 30l178 -366l210 952l20 -3l-219 -996h-10z" />
    <glyph glyph-name="florin" unicode="&#x192;" horiz-adv-x="556" 
d="M273 411h123l6 20h-124l42 167q8 32 18.5 53.5t26 34.5t36.5 19t51 6q13 0 22.5 -1t19.5 -1l6 20q-10 1 -20.5 1.5t-27.5 0.5q-34 0 -58.5 -6t-41.5 -20t-29 -38.5t-22 -61.5l-44 -174h-114l-6 -20h115l-91 -357q-11 -40 -21 -77t-25 -65.5t-39 -46.5t-62 -21
q-8 -1 -17.5 -0.5t-22.5 2.5l-6 -20q7 -1 13 -1.5t11 -0.5h21q43 0 70 17.5t45 48.5t29.5 72.5t23.5 88.5z" />
    <glyph glyph-name="approxequal" unicode="&#x2248;" horiz-adv-x="600" 
d="M45 115q5 19 15.5 37.5t25 33t33 23.5t40.5 9q15 0 34 -4.5t40 -11.5t42.5 -14.5t39.5 -14.5q33 -12 67.5 -22t56.5 -10q36 0 59.5 24.5t34.5 56.5h21q-5 -18 -15 -36t-24.5 -32.5t-32.5 -23.5t-39 -9q-33 0 -72.5 13t-70.5 24q-11 4 -29.5 10.5t-39 13t-40.5 11.5t-33 5
q-17 0 -32 -7.5t-26.5 -19t-20 -26.5t-13.5 -30h-21zM45 281q5 19 15.5 37.5t25 33t33 23.5t40.5 9q15 0 34 -4.5t40 -11.5t42.5 -14.5t39.5 -14.5q33 -12 67.5 -22t56.5 -10q36 0 59.5 24.5t34.5 56.5h21q-5 -18 -15 -36t-24.5 -32.5t-32.5 -23.5t-39 -9q-33 0 -72.5 13
t-70.5 24q-11 4 -29.5 10.5t-39 13t-40.5 11.5t-33 5q-17 0 -32 -7.5t-26.5 -19t-20 -26.5t-13.5 -30h-21z" />
    <glyph glyph-name="Delta" unicode="&#x2206;" horiz-adv-x="577" 
d="M364 714h26l131 -714h-597zM496 20l-121 674h-2l-414 -674h537z" />
    <glyph glyph-name="guillemotleft" unicode="&#xab;" horiz-adv-x="352" 
d="M159 276l-3 -16l73 -139h2l6 32l-60 112l106 113l9 37h-2zM58 276l-3 -16l73 -139h2l6 32l-60 112l106 113l9 37h-2z" />
    <glyph glyph-name="guillemotright" unicode="&#xbb;" horiz-adv-x="352" 
d="M173 260l3 16l-73 139h-2l-5 -32l59 -112l-106 -113l-9 -37h2zM274 260l3 16l-73 139h-2l-5 -32l59 -112l-106 -113l-9 -37h2z" />
    <glyph glyph-name="ellipsis" unicode="&#x2026;" horiz-adv-x="1000" 
d="M812 0h21l22 98h-21zM479 0h21l22 98h-21zM146 0h21l22 98h-21z" />
    <glyph glyph-name="nonbreakingspace" unicode="&#xa0;" horiz-adv-x="278" 
 />
    <glyph glyph-name="Agrave" unicode="&#xc0;" horiz-adv-x="574" 
d="M323 895h-25l112 -144h25zM458 235l44 -235h20l-132 714h-20l-446 -714h22l146 235h366zM455 255h-350l269 431h2z" />
    <glyph glyph-name="Atilde" unicode="&#xc3;" horiz-adv-x="574" 
d="M523 842h-19q-3 -8 -7.5 -18t-10.5 -18.5t-14 -14.5t-19 -6q-19 0 -34.5 9.5t-30 21t-30 21t-33.5 9.5q-35 0 -54 -24.5t-25 -55.5h20q3 9 7 19.5t10.5 19.5t15 15t20.5 6q18 0 33.5 -9.5t30.5 -21t31 -21t34 -9.5q16 0 28.5 7t22 18t15.5 25t9 27zM458 235l44 -235h20
l-132 714h-20l-446 -714h22l146 235h366zM455 255h-350l269 431h2z" />
    <glyph glyph-name="Otilde" unicode="&#xd5;" horiz-adv-x="722" 
d="M579 842h-19q-3 -8 -7.5 -18t-10.5 -18.5t-14 -14.5t-19 -6q-19 0 -34.5 9.5t-30 21t-30 21t-33.5 9.5q-35 0 -54 -24.5t-25 -55.5h20q3 9 7 19.5t10.5 19.5t15 15t20.5 6q18 0 33.5 -9.5t30.5 -21t31 -21t34 -9.5q16 0 28.5 7t22 18t15.5 25t9 27zM677 434
q0 -78 -23.5 -155.5t-69 -138.5t-112.5 -99t-153 -38q-63 0 -112.5 20t-83.5 56.5t-52 87.5t-18 113q0 79 23.5 156t68.5 138t112 99t154 38q65 0 114.5 -19.5t83.5 -56t51 -87.5t17 -114zM697 434q0 68 -19 123t-56 93.5t-90 59.5t-121 21q-92 0 -162.5 -39t-118.5 -103
t-72.5 -144.5t-24.5 -164.5q0 -68 19 -122.5t55 -93t89.5 -59.5t122.5 -21q91 0 161.5 39t118.5 102t73 144t25 165z" />
    <glyph glyph-name="OE" unicode="&#x152;" horiz-adv-x="981" 
d="M602 362h354l4 20h-355l67 312h383l4 20h-403l-22 -99q-35 61 -95 88.5t-132 27.5q-85 0 -155.5 -37.5t-121.5 -103.5q-49 -64 -73 -145.5t-24 -162.5q0 -65 18 -119.5t53.5 -94.5t88 -62t121.5 -22q60 0 114 24t91 69h2l-17 -77h420l4 20h-399zM629 588l-101 -476
q-5 -8 -24 -26t-47.5 -36.5t-65 -32.5t-77.5 -14q-64 0 -112.5 21t-81.5 58t-50 88.5t-17 111.5q0 78 23 155t68 137.5t111 98.5t152 38q72 0 129 -28.5t93 -94.5z" />
    <glyph glyph-name="oe" unicode="&#x153;" horiz-adv-x="889" 
d="M441 253h402q3 15 5 34.5t2 35.5q0 43 -11 80t-33.5 64.5t-56 43t-78.5 15.5q-44 0 -81 -15.5t-66 -41.5t-49 -61.5t-31 -75.5l-2 2q1 39 -9 74t-31 61t-52 41.5t-73 15.5q-67 0 -117.5 -28.5t-84.5 -76t-51.5 -107.5t-17.5 -123q0 -94 49.5 -148t143.5 -54
q43 0 76.5 13.5t59.5 37t45 53.5t33 63h2q1 -9 7 -36t25.5 -56.5t56.5 -52t100 -22.5q91 0 149.5 46t80.5 134h-20q-24 -84 -76.5 -122.5t-133.5 -38.5q-43 0 -75.5 14t-53.5 37.5t-31.5 54t-10.5 64.5q0 38 8 75zM826 273h-381q9 45 27.5 87.5t47 74.5t66.5 51.5t85 19.5
q42 0 72 -15t49.5 -40t28.5 -58t9 -70q0 -13 -1 -24.5t-3 -25.5zM426 319q0 -23 -4 -50t-11 -54t-16.5 -52t-20.5 -45q-27 -46 -71 -78t-104 -32q-87 0 -130 49t-43 134q0 56 15.5 112.5t46.5 101.5t78 73t111 28q41 0 69.5 -15t46 -40.5t25.5 -59.5t8 -72z" />
    <glyph glyph-name="endash" unicode="&#x2013;" 
d="M490 278h-499l-4 -20h499z" />
    <glyph glyph-name="emdash" unicode="&#x2014;" horiz-adv-x="1000" 
d="M116 258h740l4 20h-740z" />
    <glyph glyph-name="quotedblleft" unicode="&#x201c;" horiz-adv-x="278" 
d="M194 489h21l27 121q5 23 15 43.5t36 34.5l4 26q-32 -12 -49 -37.5t-25 -56.5zM93 489h21l27 121q5 23 15 43.5t36 34.5l4 26q-32 -12 -49 -37.5t-25 -56.5z" />
    <glyph glyph-name="quotedblright" unicode="&#x201d;" horiz-adv-x="278" 
d="M284 714h-21l-27 -121q-5 -23 -15 -43.5t-36 -34.5l-4 -26q32 12 49 37.5t25 56.5zM183 714h-21l-27 -121q-5 -23 -15 -43.5t-36 -34.5l-4 -26q32 12 49 37.5t25 56.5z" />
    <glyph glyph-name="quoteleft" unicode="&#x2018;" horiz-adv-x="167" 
d="M90 489h21l27 121q5 23 15 43.5t36 34.5l4 26q-32 -12 -49 -37.5t-25 -56.5z" />
    <glyph glyph-name="quoteright" unicode="&#x2019;" horiz-adv-x="167" 
d="M176 714h-21l-27 -121q-5 -23 -15 -43.5t-36 -34.5l-4 -26q32 12 49 37.5t25 56.5z" />
    <glyph glyph-name="divide" unicode="&#xf7;" horiz-adv-x="600" 
d="M341 41q0 17 -12 29t-29 12t-29 -11.5t-12 -29.5q0 -17 9.5 -29t31.5 -12q23 0 32 12t9 29zM341 465q0 17 -12 29t-29 12t-29 -11.5t-12 -29.5q0 -17 9.5 -29t31.5 -12q23 0 32 12t9 29zM48 243h504v20h-504v-20z" />
    <glyph glyph-name="lozenge" unicode="&#x25ca;" horiz-adv-x="600" 
d="M115 349l170 384h28l171 -384l-171 -384h-28zM300 -15l163 364l-163 364h-2l-162 -364l162 -364h2z" />
    <glyph glyph-name="ydieresis" unicode="&#xff;" horiz-adv-x="407" 
d="M210 671h-21l-13 -81h21zM368 671h-21l-13 -81h21zM138 26l-95 488h-22l100 -514l-44 -77q-15 -24 -28 -40t-28.5 -25t-35 -12t-48.5 -2l-3 -20h17h9t8 1q29 1 49 9t35 21.5t27.5 33t27.5 43.5l337 582h-25z" />
    <glyph glyph-name="Ydieresis" unicode="&#x178;" horiz-adv-x="519" 
d="M294 835h-21l-13 -81h21zM452 835h-21l-13 -81h21zM253 322l-184 392h-23l194 -411l-65 -303h21l65 303l366 411h-25z" />
    <glyph glyph-name="fraction" unicode="&#x2044;" horiz-adv-x="167" 
d="M310 714l-475 -747h23l475 747h-23z" />
    <glyph glyph-name="Euro" unicode="&#x20ac;" horiz-adv-x="556" 
d="M557 626q-67 69 -163 69q-221 0 -299 -282h-53l-12 -17h61q-11 -49 -14 -99h-61l-13 -17h73q0 -126 49 -203q59 -92 176 -92q109 0 192 82l5 34q-85 -100 -194 -100q-105 0 -161 81q-50 71 -50 180v18h317l14 17h-330q2 23 5.5 48t8.5 51h355l14 17h-364q32 117 95 183
q75 81 184 81q83 0 154 -64z" />
    <glyph glyph-name="guilsinglleft" unicode="&#x2039;" horiz-adv-x="259" 
d="M58 276l-3 -16l73 -139h2l6 32l-60 112l106 113l9 37h-2z" />
    <glyph glyph-name="guilsinglright" unicode="&#x203a;" horiz-adv-x="259" 
d="M171 260l3 16l-73 139h-2l-5 -32l59 -112l-106 -113l-9 -37h2z" />
    <glyph glyph-name="daggerdbl" unicode="&#x2021;" horiz-adv-x="556" 
d="M226 56h209l4 20h-209l90 421h209l5 20h-209l43 197h-21l-43 -197h-211l-5 -20h211l-90 -421h-209l-5 -20h210l-42 -195h21z" />
    <glyph glyph-name="periodcentered" unicode="&#xb7;" horiz-adv-x="278" 
d="M109 340q0 -14 9 -23t23 -9t23 9t9 23t-9 23t-23 9t-23 -9t-9 -23z" />
    <glyph glyph-name="quotesinglbase" unicode="&#x201a;" horiz-adv-x="167" 
d="M58 98h-21l-27 -120q-5 -23 -14.5 -43.5t-35.5 -34.5l-4 -26q32 12 48.5 37.5t24.5 56.5z" />
    <glyph glyph-name="quotedblbase" unicode="&#x201e;" horiz-adv-x="278" 
d="M162 98h-21l-27 -120q-5 -23 -15 -43.5t-36 -34.5l-4 -26q32 12 49 37.5t25 56.5zM61 98h-21l-27 -120q-5 -23 -14.5 -43.5t-35.5 -34.5l-4 -26q32 12 48.5 37.5t24.5 56.5z" />
    <glyph glyph-name="perthousand" unicode="&#x2030;" horiz-adv-x="1037" 
d="M563 714l-476 -747h23l476 747h-23zM456 8q-48 0 -80.5 29t-32.5 80q0 34 9.5 67.5t29 60.5t48 43.5t67.5 16.5q60 0 87 -31.5t27 -82.5q0 -34 -11 -67t-31.5 -59t-49 -41.5t-63.5 -15.5zM456 -11q41 0 73.5 18t55 46.5t34.5 65t12 72.5q0 67 -36.5 100.5t-97.5 33.5
q-42 0 -74.5 -18t-54.5 -47t-33.5 -66.5t-11.5 -76.5q0 -29 10 -52.5t28 -40.5t42.5 -26t52.5 -9zM216 672q60 0 87 -31.5t27 -82.5q0 -34 -11 -67t-31.5 -59t-49 -41.5t-63.5 -15.5q-48 0 -80.5 29t-32.5 80q0 34 9.5 67.5t29 60.5t48 43.5t67.5 16.5zM216 692
q-42 0 -74.5 -18t-54.5 -47t-33.5 -66.5t-11.5 -76.5q0 -28 10 -52t28 -41t42.5 -26.5t52.5 -9.5q41 0 73.5 18t55 47.5t34.5 65.5t12 72q0 67 -36.5 100.5t-97.5 33.5zM820 8q-48 0 -80.5 29t-32.5 80q0 34 9.5 67.5t29 60.5t48 43.5t67.5 16.5q60 0 87 -31.5t27 -82.5
q0 -34 -11 -67t-31.5 -59t-49 -41.5t-63.5 -15.5zM820 -11q41 0 73.5 18t55 46.5t34.5 65t12 72.5q0 67 -36.5 100.5t-97.5 33.5q-42 0 -74.5 -18t-54.5 -47t-33.5 -66.5t-11.5 -76.5q0 -29 10 -52.5t28 -40.5t42.5 -26t52.5 -9z" />
    <glyph glyph-name="Acircumflex" unicode="&#xc2;" horiz-adv-x="574" 
d="M500 751l-91 144h-30l-135 -144h26l124 130l82 -130h24zM458 235l44 -235h20l-132 714h-20l-446 -714h22l146 235h366zM455 255h-350l269 431h2z" />
    <glyph glyph-name="Ecircumflex" unicode="&#xca;" horiz-adv-x="519" 
d="M465 20h-451l73 342h405l4 20h-404l67 312h433l4 20h-453l-152 -714h469zM512 769l-91 144h-30l-135 -144h26l124 130l82 -130h24z" />
    <glyph glyph-name="Aacute" unicode="&#xc1;" horiz-adv-x="574" 
d="M325 751l163 144h-28l-163 -144h28zM458 235l44 -235h20l-132 714h-20l-446 -714h22l146 235h366zM455 255h-350l269 431h2z" />
    <glyph glyph-name="Edieresis" unicode="&#xcb;" horiz-adv-x="519" 
d="M294 835h-21l-13 -81h21zM452 835h-21l-13 -81h21zM465 20h-451l73 342h405l4 20h-404l67 312h433l4 20h-453l-152 -714h469z" />
    <glyph glyph-name="Egrave" unicode="&#xc8;" horiz-adv-x="519" 
d="M296 895h-25l112 -144h25zM465 20h-451l73 342h405l4 20h-404l67 312h433l4 20h-453l-152 -714h469z" />
    <glyph glyph-name="Iacute" unicode="&#xcd;" horiz-adv-x="148" 
d="M112 751l163 144h-28l-163 -144h28zM-6 0h19l153 714h-20z" />
    <glyph glyph-name="Icircumflex" unicode="&#xce;" horiz-adv-x="148" 
d="M287 751l-91 144h-30l-135 -144h26l124 130l82 -130h24zM-6 0h19l153 714h-20z" />
    <glyph glyph-name="Idieresis" unicode="&#xcf;" horiz-adv-x="148" 
d="M108 835h-21l-13 -81h21zM266 835h-21l-13 -81h21zM-6 0h19l153 714h-20z" />
    <glyph glyph-name="Igrave" unicode="&#xcc;" horiz-adv-x="148" 
d="M110 895h-25l112 -144h25zM-6 0h19l153 714h-20z" />
    <glyph glyph-name="Oacute" unicode="&#xd3;" horiz-adv-x="722" 
d="M381 751l163 144h-28l-163 -144h28zM677 434q0 -78 -23.5 -155.5t-69 -138.5t-112.5 -99t-153 -38q-63 0 -112.5 20t-83.5 56.5t-52 87.5t-18 113q0 79 23.5 156t68.5 138t112 99t154 38q65 0 114.5 -19.5t83.5 -56t51 -87.5t17 -114zM697 434q0 68 -19 123t-56 93.5
t-90 59.5t-121 21q-92 0 -162.5 -39t-118.5 -103t-72.5 -144.5t-24.5 -164.5q0 -68 19 -122.5t55 -93t89.5 -59.5t122.5 -21q91 0 161.5 39t118.5 102t73 144t25 165z" />
    <glyph glyph-name="Ocircumflex" unicode="&#xd4;" horiz-adv-x="722" 
d="M556 751l-91 144h-30l-135 -144h26l124 130l82 -130h24zM677 434q0 -78 -23.5 -155.5t-69 -138.5t-112.5 -99t-153 -38q-63 0 -112.5 20t-83.5 56.5t-52 87.5t-18 113q0 79 23.5 156t68.5 138t112 99t154 38q65 0 114.5 -19.5t83.5 -56t51 -87.5t17 -114zM697 434
q0 68 -19 123t-56 93.5t-90 59.5t-121 21q-92 0 -162.5 -39t-118.5 -103t-72.5 -144.5t-24.5 -164.5q0 -68 19 -122.5t55 -93t89.5 -59.5t122.5 -21q91 0 161.5 39t118.5 102t73 144t25 165z" />
    <glyph glyph-name="apple" unicode="&#xf8ff;" horiz-adv-x="790" 
d="M408 588q-16 0 -69 15q-52 15 -89 15q-86 0 -143 -72q-56 -73 -56 -187q0 -124 74 -252q74 -129 150 -129q24 0 66 17q39 16 72 16q32 0 75 -15q44 -16 71 -16q65 0 129 97q21 32 36 63.5t25 61.5q-45 14 -79 63q-35 50 -35 112q0 57 33 103q18 26 57 60q-13 16 -26 28
t-26 22q-47 32 -107 32q-36 0 -87 -17t-71 -17zM561 790q0 4 -0.5 9t-2.5 12q-88 -20 -125.5 -74.5t-38.5 -128.5q32 3 51 8q26 9 55 36q31 32 46 69t15 69z" />
    <glyph glyph-name="Ograve" unicode="&#xd2;" horiz-adv-x="722" 
d="M379 895h-25l112 -144h25zM677 434q0 -78 -23.5 -155.5t-69 -138.5t-112.5 -99t-153 -38q-63 0 -112.5 20t-83.5 56.5t-52 87.5t-18 113q0 79 23.5 156t68.5 138t112 99t154 38q65 0 114.5 -19.5t83.5 -56t51 -87.5t17 -114zM697 434q0 68 -19 123t-56 93.5t-90 59.5
t-121 21q-92 0 -162.5 -39t-118.5 -103t-72.5 -144.5t-24.5 -164.5q0 -68 19 -122.5t55 -93t89.5 -59.5t122.5 -21q91 0 161.5 39t118.5 102t73 144t25 165z" />
    <glyph glyph-name="Uacute" unicode="&#xda;" horiz-adv-x="648" 
d="M362 751l163 144h-28l-163 -144h28zM161 714h-21l-94 -430q-5 -28 -8 -49t-3 -50q0 -52 19 -90t51 -63t74.5 -36.5t90.5 -11.5q57 0 100 13t74.5 34t53 49t36 58t23 60t14.5 55l100 461h-21l-102 -467q-18 -85 -52 -134t-73.5 -73.5t-80 -30.5t-72.5 -6q-46 -1 -85 10.5
t-68 34.5t-45.5 57.5t-16.5 79.5q0 18 2 34.5t5 38.5z" />
    <glyph glyph-name="Ucircumflex" unicode="&#xdb;" horiz-adv-x="648" 
d="M527 751l-91 144h-30l-135 -144h26l124 130l82 -130h24zM161 714h-21l-94 -430q-5 -28 -8 -49t-3 -50q0 -52 19 -90t51 -63t74.5 -36.5t90.5 -11.5q57 0 100 13t74.5 34t53 49t36 58t23 60t14.5 55l100 461h-21l-102 -467q-18 -85 -52 -134t-73.5 -73.5t-80 -30.5
t-72.5 -6q-46 -1 -85 10.5t-68 34.5t-45.5 57.5t-16.5 79.5q0 18 2 34.5t5 38.5z" />
    <glyph glyph-name="Ugrave" unicode="&#xd9;" horiz-adv-x="648" 
d="M350 895h-25l112 -144h25zM161 714h-21l-94 -430q-5 -28 -8 -49t-3 -50q0 -52 19 -90t51 -63t74.5 -36.5t90.5 -11.5q57 0 100 13t74.5 34t53 49t36 58t23 60t14.5 55l100 461h-21l-102 -467q-18 -85 -52 -134t-73.5 -73.5t-80 -30.5t-72.5 -6q-46 -1 -85 10.5t-68 34.5
t-45.5 57.5t-16.5 79.5q0 18 2 34.5t5 38.5z" />
    <glyph glyph-name="dotlessi" unicode="&#x131;" horiz-adv-x="130" 
d="M1 0l110 514h-22l-109 -514h21z" />
    <glyph glyph-name="circumflex" unicode="&#x2c6;" horiz-adv-x="130" 
d="M260 587l-91 144h-30l-135 -144h26l124 130l82 -130h24z" />
    <glyph glyph-name="tilde" unicode="&#x2dc;" horiz-adv-x="130" 
d="M283 678h-19q-3 -8 -7.5 -18t-10.5 -18.5t-14 -14.5t-19 -6q-19 0 -34.5 9.5t-30 21t-30 21t-33.5 9.5q-35 0 -54 -24.5t-25 -55.5h20q3 9 7 19.5t10.5 19.5t15 15t20.5 6q18 0 33.5 -9.5t30.5 -21t31 -21t34 -9.5q16 0 28.5 7t22 18t15.5 25t9 27z" />
    <glyph glyph-name="macron" unicode="&#xaf;" horiz-adv-x="130" 
d="M260 649h-233l-4 -20h232z" />
    <glyph glyph-name="breve" unicode="&#x2d8;" horiz-adv-x="130" 
d="M49 703h-20q0 -51 30 -81t81 -30q25 0 47.5 8.5t41 23t31.5 35t19 44.5h-20q-14 -40 -45.5 -65.5t-74.5 -25.5q-42 0 -67 26t-23 65z" />
    <glyph glyph-name="dotaccent" unicode="&#x2d9;" horiz-adv-x="130" 
d="M118 671h-21l-13 -81h21z" />
    <glyph glyph-name="ring" unicode="&#x2da;" horiz-adv-x="130" 
d="M61 664q0 32 22 54t54 22t54 -22t22 -54t-22 -54t-54 -22t-54 22t-22 54zM41 664q0 -40 28 -68t68 -28t68 28t28 68t-28 68t-68 28t-68 -28t-28 -68z" />
    <glyph glyph-name="cedilla" unicode="&#xb8;" horiz-adv-x="130" 
d="M-80 -142l-8 -19q20 -9 42 -15.5t45 -6.5q16 0 32.5 4t30 13t22 22.5t8.5 33.5q0 31 -21.5 46.5t-51.5 15.5q-14 0 -21 -4l-2 2l12 9l40 41h-26l-72 -72l15 -9q11 4 25.5 8.5t28.5 4.5q18 0 35.5 -9.5t17.5 -32.5q0 -14 -7 -24t-17.5 -16.5t-23.5 -9.5t-24 -3
q-20 0 -40.5 5.5t-39.5 15.5z" />
    <glyph glyph-name="hungarumlaut" unicode="&#x2dd;" horiz-adv-x="130" 
d="M200 587l163 144h-28l-163 -144h28zM40 587l163 144h-28l-163 -144h28z" />
    <glyph glyph-name="ogonek" unicode="&#x2db;" horiz-adv-x="130" 
d="M74 0q-57 -36 -85.5 -66.5t-28.5 -63.5q0 -14 8.5 -27t28.5 -13q23 0 43 11.5t35 28.5l13 -12q-15 -17 -38.5 -31.5t-52.5 -14.5q-34 0 -46 18.5t-12 39.5q0 22 11 41.5t27 36t34.5 29.5t32.5 23h30v0z" />
    <glyph glyph-name="caron" unicode="&#x2c7;" horiz-adv-x="130" 
d="M116 587h30l135 144h-26l-124 -130l-82 130h-24z" />
    <glyph glyph-name="Omega" unicode="&#x2126;" horiz-adv-x="693" 
d="M-18 20h198l26 117q-72 26 -109.5 81t-37.5 131q0 75 26 142.5t73 118.5t111.5 81t141.5 30q58 0 105.5 -19t82 -53t53.5 -81.5t19 -104.5q0 -60 -18 -114.5t-51.5 -98t-81.5 -73t-108 -41.5l-27 -116h201l-4 -20h-220l33 153q58 7 105.5 35t80.5 70t51 94.5t18 109.5
q0 53 -17.5 97.5t-49 76t-75.5 49t-98 17.5q-73 0 -134 -29.5t-104.5 -78.5t-67.5 -113.5t-24 -134.5t39.5 -123.5t109.5 -69.5l-33 -153h-218z" />
    <glyph glyph-name="currency" unicode="&#xa4;" horiz-adv-x="556" 
d="M506 340q0 -47 -18 -88.5t-49 -72.5t-72.5 -49t-88.5 -18t-88.5 18t-72.5 49t-49 72.5t-18 88.5t18 88.5t49 72.5t72.5 49t88.5 18t88.5 -18t72.5 -49t49 -72.5t18 -88.5zM517 565l-14 14l-57 -57q-35 33 -78.5 49.5t-89.5 16.5q-45 0 -88.5 -16.5t-79.5 -49.5l-57 57
l-14 -14l57 -57q-32 -35 -48.5 -78.5t-17.5 -89.5q0 -45 16.5 -88.5t49.5 -79.5l-57 -57l14 -14l57 57q36 -33 79.5 -49.5t88.5 -16.5q46 1 89.5 17.5t78.5 48.5l57 -57l14 14l-57 57q33 36 49.5 79.5t16.5 88.5q0 46 -16.5 89.5t-49.5 78.5z" />
    <glyph glyph-name="Lslash" unicode="&#x141;" horiz-adv-x="481" 
d="M-6 0h432l5 20h-413l61 281l236 149l7 28l-237 -149l82 385h-21l-86 -401l-101 -64l-7 -28l101 65z" />
    <glyph glyph-name="lslash" unicode="&#x142;" horiz-adv-x="130" 
d="M-20 317l77 54l-77 -371h21l81 388l87 59l6 28l-87 -59l63 298h-22l-66 -315l-78 -54z" />
    <glyph glyph-name="threequarters" unicode="&#xbe;" horiz-adv-x="834" 
d="M441 99h226l-23 -99h21l23 99h72l3 20h-72l66 289h-30l-280 -281zM731 384l-61 -265h-207l265 266l2 -2zM75 415h-21q-1 -8 -2 -16.5t-1 -19.5q0 -28 11 -49t30 -34t44 -19.5t53 -6.5q33 0 63 8.5t52 25t35 40.5t13 55q-1 38 -22 63t-58 27v2q51 4 82.5 28t31.5 75
q0 25 -10.5 43.5t-28.5 30.5t-41 18t-48 6q-66 0 -104 -33.5t-47 -90.5h20q23 104 131 104q20 0 39.5 -4.5t34.5 -14.5t24.5 -24.5t9.5 -34.5q0 -31 -14.5 -49.5t-36.5 -27.5t-48 -11.5t-50 -2.5h-15l-5 -20h17q21 0 42.5 -4t38 -13.5t27 -25.5t10.5 -41q0 -27 -12.5 -47
t-32.5 -34t-45.5 -21t-52.5 -7q-51 0 -84.5 23.5t-33.5 65.5q0 21 4 36zM675 714l-476 -747h23l476 747h-23z" />
    <glyph glyph-name="onequarter" unicode="&#xbc;" horiz-adv-x="834" 
d="M404 99h226l-23 -99h21l23 99h72l3 20h-72l66 289h-30l-280 -281zM694 384l-61 -265h-207l265 266l2 -2zM291 685h-26q-28 -26 -60 -47t-72 -32l-6 -19q38 8 74.5 29t62.5 48l2 -2l-91 -385h20zM632 714l-476 -747h23l476 747h-23z" />
    <glyph glyph-name="onesuperior" unicode="&#xb9;" horiz-adv-x="333" 
d="M279 685h-26q-28 -26 -60 -47t-72 -32l-6 -19q38 8 74.5 29t62.5 48l2 -2l-91 -385h20z" />
    <glyph glyph-name="multiply" unicode="&#xd7;" horiz-adv-x="600" 
d="M300 240l190 -190l14 14l-190 190l190 189l-14 14l-190 -189l-190 189l-14 -14l190 -189l-190 -190l14 -14z" />
    <glyph glyph-name="Thorn" unicode="&#xde;" horiz-adv-x="574" 
d="M166 714h-21l-151 -714h20l43 201h246q46 0 93.5 10t86.5 35.5t63.5 68.5t24.5 109q0 75 -44 120.5t-138 45.5h-249zM60 221l75 349h250q27 0 56.5 -5.5t53.5 -21.5t40 -44.5t16 -74.5q0 -50 -17.5 -88t-49.5 -63.5t-76.5 -38.5t-98.5 -13h-249z" />
    <glyph glyph-name="brokenbar" unicode="&#xa6;" horiz-adv-x="222" 
d="M121 411v250h-20v-250h20zM121 -88v249h-20v-249h20z" />
    <glyph glyph-name="Eth" unicode="&#xd0;" horiz-adv-x="667" 
d="M-8 362h81l-79 -362h220q46 0 87 3.5t79 15.5t73.5 35t69.5 61q27 30 47.5 68.5t34.5 80.5t21 85.5t7 84.5q0 69 -15 117t-41 79t-59.5 48t-70.5 25t-75 9.5t-72 1.5h-150l-73 -332h-81zM93 362h262l4 20h-262l69 312h134q41 0 80 -2.5t74 -11.5t64 -26t50 -45.5
t33 -71.5t12 -103q0 -47 -8.5 -92t-23.5 -85t-34.5 -73.5t-41.5 -57.5q-33 -35 -64.5 -56t-66 -32t-73.5 -14.5t-87 -3.5h-196z" />
    <glyph glyph-name="onehalf" unicode="&#xbd;" horiz-adv-x="834" 
d="M716 20h-273q7 35 34 59.5t63 44.5t76.5 38t74.5 39.5t56 48.5t22 65q0 33 -13.5 53t-33 30.5t-41 13.5t-38.5 3q-72 0 -110 -36.5t-41 -99.5h20q2 55 35 85.5t96 30.5q48 0 77 -17.5t29 -62.5q0 -31 -17 -53.5t-42.5 -39.5t-54.5 -30t-53 -25q-27 -13 -55.5 -28.5
t-51.5 -35t-38.5 -45t-16.5 -58.5h292zM231 685h-26q-28 -26 -60 -47t-72 -32l-6 -19q38 8 74.5 29t62.5 48l2 -2l-91 -385h20zM572 714l-476 -747h23l476 747h-23z" />
    <glyph glyph-name="minus" unicode="&#x2212;" horiz-adv-x="600" 
d="M552 263h-504v-20h504v20z" />
    <glyph glyph-name="eth" unicode="&#xf0;" horiz-adv-x="519" 
d="M298 654l-133 -67l13 -15l133 68q15 -15 34 -38t37.5 -51t34.5 -59.5t25 -64.5h-2q-22 42 -66 64.5t-90 22.5q-69 0 -121 -27t-87 -71.5t-52.5 -103t-17.5 -121.5q0 -94 50.5 -148t146.5 -54q57 0 106 23.5t86 68t58 107.5t21 142q0 81 -34 161t-106 158l132 67l-13 16
l-134 -68q-16 15 -37.5 32t-47.5 32l-19 -14q27 -15 47 -30.5t36 -29.5zM26 191q0 56 15.5 110.5t47.5 97t80.5 69t113.5 26.5q36 0 67.5 -13t54.5 -36t36 -55t13 -70q0 -59 -17 -115.5t-49.5 -100t-79 -70t-105.5 -26.5q-88 0 -132.5 49t-44.5 134z" />
    <glyph glyph-name="thorn" unicode="&#xfe;" horiz-adv-x="537" 
d="M143 714l-187 -890h21l65 311h2q5 -69 51 -107.5t125 -38.5q63 0 113 29.5t85 77t53.5 106t18.5 115.5q0 43 -10.5 81t-32.5 66.5t-56.5 45t-82.5 16.5q-40 0 -72.5 -12t-58.5 -32t-46.5 -47t-35.5 -57h-2l71 336h-21zM470 313q0 -52 -17.5 -106t-50 -98.5t-78.5 -72.5
t-104 -28q-81 0 -122 44.5t-41 120.5q0 52 16.5 110.5t48 108t78.5 82t108 32.5q44 0 75 -15t50.5 -41.5t28 -61.5t8.5 -75z" />
    <glyph glyph-name="twosuperior" unicode="&#xb2;" horiz-adv-x="333" 
d="M311 297h-273q7 35 34 59.5t63 44.5t76.5 38t74.5 39.5t56 48.5t22 65q0 33 -13.5 53t-33 30.5t-41 13.5t-38.5 3q-72 0 -110 -36.5t-41 -99.5h20q2 55 35 85.5t96 30.5q48 0 77 -17.5t29 -62.5q0 -31 -17 -53.5t-42.5 -39.5t-54.5 -30t-53 -25q-27 -13 -55.5 -28.5
t-51.5 -35t-38.5 -45t-16.5 -58.5h292z" />
    <glyph glyph-name="threesuperior" unicode="&#xb3;" horiz-adv-x="333" 
d="M50 415h-21q-1 -8 -2 -16.5t-1 -19.5q0 -28 11 -49t30 -34t44 -19.5t53 -6.5q33 0 63 8.5t52 25t35 40.5t13 55q-1 38 -22 63t-58 27v2q51 4 82.5 28t31.5 75q0 25 -10.5 43.5t-28.5 30.5t-41 18t-48 6q-66 0 -104 -33.5t-47 -90.5h20q23 104 131 104q20 0 39.5 -4.5
t34.5 -14.5t24.5 -24.5t9.5 -34.5q0 -31 -14.5 -49.5t-36.5 -27.5t-48 -11.5t-50 -2.5h-15l-5 -20h17q21 0 42.5 -4t38 -13.5t27 -25.5t10.5 -41q0 -27 -12.5 -47t-32.5 -34t-45.5 -21t-52.5 -7q-51 0 -84.5 23.5t-33.5 65.5q0 21 4 36z" />
    <glyph glyph-name="Scaron" unicode="&#x160;" horiz-adv-x="611" 
d="M357 751h30l135 144h-26l-124 -130l-82 130h-24zM27 237h-20q-6 -65 12.5 -112.5t55.5 -79t88.5 -46.5t111.5 -15q37 0 81 9t82.5 32.5t64 64t25.5 102.5q0 43 -17.5 72t-46 49t-65 33t-74.5 24t-74 23t-64 29.5t-45 43.5t-16 65q1 48 21 82t51.5 56t71.5 32t81 10
q50 0 92.5 -10.5t72.5 -34.5t45.5 -62t11.5 -94h20q4 60 -12.5 102t-49 68.5t-78.5 38.5t-102 12q-46 0 -90 -11.5t-78 -35.5t-55 -62t-22 -91q0 -43 17.5 -72t45.5 -48.5t64 -32.5t74 -24t74 -22.5t64 -29.5t45.5 -44t17.5 -66q0 -59 -25 -96t-61 -57.5t-76.5 -28
t-70.5 -7.5q-58 0 -106 15.5t-81.5 45.5t-50 73.5t-10.5 99.5z" />
    <glyph glyph-name="Yacute" unicode="&#xdd;" horiz-adv-x="519" 
d="M298 751l163 144h-28l-163 -144h28zM253 322l-184 392h-23l194 -411l-65 -303h21l65 303l366 411h-25z" />
    <glyph glyph-name="Zcaron" unicode="&#x17d;" 
d="M319 751h30l135 144h-26l-124 -130l-82 130h-24zM457 20h-508l626 670l4 24h-497l-5 -20h475l-626 -670l-4 -24h532z" />
    <glyph glyph-name="scaron" unicode="&#x161;" horiz-adv-x="463" 
d="M283 587h30l135 144h-26l-124 -130l-82 130h-24zM392 360h20q5 47 -6 78.5t-34.5 51t-57 28t-72.5 8.5q-33 0 -64.5 -8t-56 -25t-39.5 -42.5t-15 -61.5t15.5 -58.5t39 -37.5t52 -24.5t54.5 -19.5q22 -9 44 -17.5t40 -21t29 -30.5t11 -45q0 -35 -15 -59.5t-39 -39.5
t-54 -21.5t-61 -6.5q-43 0 -76 9t-54.5 28.5t-30.5 51t-3 77.5h-20q0 -10 -1 -19t-1 -19q0 -43 14.5 -71t40 -45t59.5 -24t72 -7q36 0 70 7.5t60.5 24.5t42.5 45t16 69q0 37 -16.5 60t-41 38t-53.5 24.5t-55 19.5q-22 9 -43.5 18t-38 21t-27 29.5t-10.5 43.5q0 33 14.5 55
t37 36t50 20t53.5 6q37 0 67 -8.5t50 -26t29 -45t4 -66.5z" />
    <glyph glyph-name="yacute" unicode="&#xfd;" horiz-adv-x="407" 
d="M224 587l163 144h-28l-163 -144h28zM138 26l-95 488h-22l100 -514l-44 -77q-15 -24 -28 -40t-28.5 -25t-35 -12t-48.5 -2l-3 -20h17h9t8 1q29 1 49 9t35 21.5t27.5 33t27.5 43.5l337 582h-25z" />
    <glyph glyph-name="zcaron" unicode="&#x17e;" horiz-adv-x="407" 
d="M255 587h30l135 144h-26l-124 -130l-82 130h-24zM331 20h-366l473 471l6 23h-384l-4 -20h355l-469 -467l-6 -27h390z" />
    <glyph glyph-name="gravecmb" unicode="&#x300;" horiz-adv-x="0" 
d="M66 587h-25l-112 144h25z" />
    <glyph glyph-name="acutecmb" unicode="&#x301;" horiz-adv-x="0" 
d="M-72 587l163 144h28l-163 -144h-28z" />
    <glyph glyph-name="circumflexcmb" unicode="&#x302;" horiz-adv-x="0" 
d="M107 587l-82 130l-124 -130h-26l135 144h30l91 -144h-24z" />
    <glyph glyph-name="tildecmb" unicode="&#x303;" horiz-adv-x="0" 
d="M154 678q-3 -13 -9 -27t-15.5 -25t-22 -18t-28.5 -7q-18 0 -34 9.5t-31 21t-30.5 21t-33.5 9.5q-12 0 -20.5 -6t-15 -15t-10.5 -19.5t-7 -19.5h-20q6 31 25 55.5t54 24.5q18 0 33.5 -9.5t30 -21t30 -21t34.5 -9.5q11 0 19 6t14 14.5t10.5 18.5t7.5 18h19v0z" />
    <glyph glyph-name="macroncmb" unicode="&#x304;" horiz-adv-x="0" 
d="M126 629h-232l4 20h233z" />
    <glyph glyph-name="brevecmb" unicode="&#x306;" horiz-adv-x="0" 
d="M-80 703q-2 -39 23 -65t67 -26q43 0 74.5 25.5t45.5 65.5h20q-6 -24 -19 -44.5t-31.5 -35t-41 -23t-47.5 -8.5q-51 0 -81 30t-30 81h20v0z" />
    <glyph glyph-name="dotaccentcmb" unicode="&#x307;" horiz-adv-x="0" 
d="M-24 590h-21l13 81h21z" />
    <glyph glyph-name="dieresiscmb" unicode="&#x308;" horiz-adv-x="0" 
d="M-61 590h-21l13 81h21zM97 590h-21l13 81h21z" />
    <glyph glyph-name="ringcmb" unicode="&#x30a;" horiz-adv-x="0" 
d="M-68 664q0 -32 22 -54t54 -22t54 22t22 54t-22 54t-54 22t-54 -22t-22 -54zM-88 664q0 40 28 68t68 28t68 -28t28 -68t-28 -68t-68 -28t-68 28t-28 68z" />
    <glyph glyph-name="hungarumlautcmb" unicode="&#x30b;" horiz-adv-x="0" 
d="M43 587l163 144h28l-163 -144h-28zM-117 587l163 144h28l-163 -144h-28z" />
    <glyph glyph-name="caroncmb" unicode="&#x30c;" horiz-adv-x="0" 
d="M-104 731h24l82 -130l124 130h26l-135 -144h-30z" />
    <glyph glyph-name="cedillacmb" unicode="&#x327;" horiz-adv-x="0" 
d="M-209 -142q19 -10 39.5 -15.5t40.5 -5.5q11 0 24 3t23.5 9.5t17.5 16.5t7 24q0 23 -17.5 32.5t-35.5 9.5q-14 0 -28.5 -4.5t-25.5 -8.5l-15 9l72 72h26l-40 -41l-12 -9l2 -2q7 4 21 4q30 0 51.5 -15.5t21.5 -46.5q0 -20 -8.5 -33.5t-22 -22.5t-30 -13t-32.5 -4
q-23 0 -45 6.5t-42 15.5l8 19v0z" />
    <glyph glyph-name="ogonekcmb" unicode="&#x328;" horiz-adv-x="0" 
d="M-55 0q-57 -36 -85.5 -66.5t-28.5 -63.5q0 -14 8.5 -27t28.5 -13q23 0 43 11.5t35 28.5l13 -12q-15 -17 -38.5 -31.5t-52.5 -14.5q-34 0 -46 18.5t-12 39.5q0 22 11 41.5t27 36t34.5 29.5t32.5 23h30v0z" />
    <glyph glyph-name="soliduslongoverlaycmb" unicode="&#x338;" horiz-adv-x="0" 
d="M-12 731h20l-327 -747h-19z" />
    <glyph glyph-name="FL295" horiz-adv-x="0" 
 />
    <glyph glyph-name="cyrbreve" 
d="M136 592q105 0 143 107h-20q-33 -87 -123 -87q-85 0 -83 87h-20q-2 -53 25.5 -80t77.5 -27z" />
    <glyph glyph-name="cyrBreve" 
d="M141 756q53 0 88.5 29t54.5 82h-20q-17 -44 -47.5 -67.5t-75.5 -23.5q-42 0 -66.5 24t-23.5 67h-20q-2 -53 29 -82t81 -29z" />
    <glyph glyph-name="uni018F" unicode="&#x18f;" horiz-adv-x="712" 
d="M305 -16q-68 0 -119 22t-85 60t-51 90.5t-17 113.5q0 21 2 46t10 66h618q2 14 3 29t1 30q0 60 -18.5 110t-52.5 85.5t-82 55t-106 19.5q-48 0 -94 -13.5t-86.5 -38.5t-73 -62t-52.5 -83h-20q17 46 50 86t76.5 69t95 45.5t104.5 16.5q66 0 118 -22.5t88 -61.5t54.5 -92
t18.5 -114q0 -86 -25 -168.5t-73.5 -146.5t-120 -103t-163.5 -39zM308 3q73 0 133.5 29t106 78t74 114.5t39.5 137.5h-599q-5 -22 -6.5 -44t-1.5 -42q0 -61 16.5 -111t48.5 -86t79.5 -56t109.5 -20z" />
    <glyph glyph-name="uni01A2" unicode="&#x1a2;" horiz-adv-x="651" 
d="M660 694l-86 -11l-144 -681q-51 -18 -111 -18q-74 0 -127.5 23t-89 63t-52.5 94t-17 116q0 90 26 171.5t74.5 143.5t118.5 99t159 37q26 0 65.5 -5.5t81.5 -27.5l126 16l-189 -890h-20zM319 3q31 0 55.5 4t38.5 9l140 663q-12 5 -25 10.5t-29.5 10.5t-38 8t-49.5 3
q-80 0 -145.5 -34t-113 -92.5t-73.5 -137t-26 -167.5q0 -59 17 -109.5t50.5 -88t83 -58.5t115.5 -21z" />
    <glyph glyph-name="uni01A3" unicode="&#x1a3;" horiz-adv-x="495" 
d="M457 494l-67 -7l-103 -483q-19 -8 -41.5 -11.5t-42.5 -3.5q-97 0 -147 54t-50 148q0 63 17.5 123t51.5 107.5t84 76t115 28.5q34 0 59 -7.5t40 -14.5l108 10l-147 -690h-20zM203 8q20 0 38 3.5t29 6.5l99 465q-14 8 -37 15.5t-58 7.5q-62 0 -108.5 -28t-77.5 -73
t-46.5 -101.5t-15.5 -112.5q0 -85 44.5 -134t132.5 -49z" />
    <glyph glyph-name="uni01B5" unicode="&#x1b5;" 
d="M-74 24l316 338h-184l5 20h197l292 312h-475l5 20h497l-4 -24l-288 -308h189l-5 -20h-203l-319 -342h508l-3 -20h-532z" />
    <glyph glyph-name="uni01B6" unicode="&#x1b6;" horiz-adv-x="407" 
d="M-58 27l235 234h-129l4 20h145l214 213h-355l4 20h384l-6 -23l-211 -210h132l-4 -20h-148l-242 -241h366l-5 -20h-390z" />
    <glyph glyph-name="uni0259" unicode="&#x259;" horiz-adv-x="507" 
d="M192 -10q-46 0 -81 15.5t-58 42.5t-35 63.5t-12 78.5q0 19 1 35.5t3 37.5h427q3 22 3 55q0 60 -17.5 97t-43.5 57.5t-55.5 28t-53.5 7.5q-81 0 -135 -38t-77 -123h-21q23 88 80.5 134t151.5 46q48 0 84 -16t60 -44.5t35.5 -67t11.5 -82.5q0 -60 -16.5 -118.5t-50 -105
t-84 -75t-117.5 -28.5zM192 10q51 0 92 18.5t71 50.5t49.5 74t28.5 90h-402q-3 -14 -4 -26t-1 -27q0 -36 10 -69t31 -57.5t52 -39t73 -14.5z" />
    <glyph glyph-name="uni0400" unicode="&#x400;" horiz-adv-x="519" 
d="M143 714h453l-4 -20h-433l-67 -312h404l-4 -20h-405l-73 -342h451l-5 -20h-469zM418 751h-25l-112 144h25z" />
    <glyph glyph-name="afii10023" unicode="&#x401;" horiz-adv-x="519" 
d="M143 714h453l-4 -20h-433l-67 -312h404l-4 -20h-405l-73 -342h451l-5 -20h-469zM301 754h-21l13 81h21zM459 754h-21l13 81h21z" />
    <glyph glyph-name="afii10051" unicode="&#x402;" horiz-adv-x="717" 
d="M409 -13q-10 0 -29.5 0.5t-30.5 2.5l5 20q10 -2 29.5 -2.5t28.5 -0.5q51 0 96 18.5t78 52.5t52.5 82.5t19.5 108.5q0 42 -14 73.5t-38 52.5t-57 32t-72 11q-47 0 -92 -18.5t-83.5 -51.5t-66.5 -79.5t-40 -102.5l-39 -186h-20l147 694h-227l4 20h534l-4 -20h-287l-83 -392
h2q19 36 48 64.5t64 49t74 31.5t79 11t75.5 -12t61 -35.5t40.5 -57.5t15 -79q0 -65 -20.5 -117.5t-57 -90.5t-86 -58.5t-106.5 -20.5z" />
    <glyph glyph-name="afii10052" unicode="&#x403;" horiz-adv-x="463" 
d="M145 714h419l-4 -20h-399l-147 -694h-20zM306 751l163 144h28l-163 -144h-28z" />
    <glyph glyph-name="afii10053" unicode="&#x404;" horiz-adv-x="685" 
d="M306 -16q-62 0 -112.5 20.5t-86 58t-55 91t-19.5 120.5q0 84 25.5 166t74.5 146.5t120.5 104.5t164.5 40q56 0 103 -15.5t82.5 -44t56.5 -68.5t25 -89h-22q-3 42 -22.5 78t-52 62.5t-76.5 41.5t-96 15q-74 0 -133 -27t-103.5 -72.5t-73.5 -105t-42 -125.5h417l-3 -19
h-418q-4 -22 -5.5 -44t-1.5 -45q0 -62 18 -111.5t51.5 -85t80 -54.5t103.5 -19q54 0 103.5 16t90.5 46t72 73.5t50 98.5h21q-16 -56 -48.5 -102.5t-76.5 -80t-98 -52t-114 -18.5z" />
    <glyph glyph-name="afii10054" unicode="&#x405;" horiz-adv-x="611" 
d="M265 -16q-60 0 -111.5 15t-88.5 46.5t-55.5 79t-12.5 112.5h20q-6 -56 10.5 -99.5t50 -73.5t81.5 -45.5t106 -15.5q30 0 70.5 7.5t76.5 28t61 57.5t25 96q0 40 -17.5 66t-45.5 44t-64 29.5t-74 22.5t-74 24t-64 32.5t-45.5 48.5t-17.5 72q1 53 22 91t55 62t77.5 35.5
t90.5 11.5q55 0 101.5 -12t79 -38.5t49 -68.5t12.5 -102h-20q4 55 -11.5 93.5t-45.5 62.5t-72.5 34.5t-92.5 10.5q-41 0 -81 -10t-71.5 -32t-51.5 -56t-21 -82q-1 -39 16 -65t45 -43.5t64 -29.5t74 -23t74.5 -24t65 -33t46 -49t17.5 -72q0 -62 -25.5 -102.5t-64 -64
t-82.5 -32.5t-81 -9z" />
    <glyph glyph-name="afii10055" unicode="&#x406;" horiz-adv-x="148" 
d="M146 714h20l-153 -714h-19z" />
    <glyph glyph-name="afii10056" unicode="&#x407;" horiz-adv-x="148" 
d="M146 714h20l-153 -714h-19zM94 754h-21l13 81h21zM252 754h-21l13 81h21z" />
    <glyph glyph-name="afii10057" unicode="&#x408;" horiz-adv-x="463" 
d="M163 -16q-94 0 -138.5 44t-44.5 116q0 23 2 41t7 35h19q-4 -21 -6 -40.5t-2 -35.5q0 -72 44 -106.5t119 -34.5q47 0 78.5 14.5t52.5 40.5t33.5 60.5t21.5 75.5l111 520h21l-113 -529q-8 -37 -21 -73t-36 -64.5t-58.5 -46t-89.5 -17.5z" />
    <glyph glyph-name="afii10058" unicode="&#x409;" horiz-adv-x="1106" 
d="M-16 -5q-32 0 -54 5l5 21q22 -6 53 -6q55 0 97.5 54t77 148t65 221.5t61.5 275.5h407l-66 -315h198q24 0 42 -0.5t33 -2t28 -3.5t26 -6q52 -16 81.5 -59.5t29.5 -105.5q0 -40 -12 -75.5t-34 -63.5t-53.5 -47t-70.5 -27q-31 -7 -62.5 -8t-63.5 -1h-247l147 694h-367
q-34 -158 -65 -287t-67 -220.5t-81 -141.5t-108 -50zM806 20q59 0 92.5 7.5t62.5 26.5q39 25 62.5 71.5t23.5 98.5q0 62 -37 105q-13 15 -29 24.5t-37.5 15.5t-50 8t-67.5 2h-200l-78 -359h258z" />
    <glyph glyph-name="afii10059" unicode="&#x40a;" horiz-adv-x="1076" 
d="M146 714h20l-69 -322h479l70 322h20l-68 -322h200q24 0 42 -0.5t33 -2t28 -3.5t26 -6q52 -16 81.5 -57.5t29.5 -103.5q0 -40 -12 -75t-34 -62.5t-53.5 -46t-70.5 -26.5q-31 -7 -62.5 -8t-63.5 -1h-249l79 372h-479l-80 -372h-19zM776 20q59 0 92.5 7.5t62.5 26.5
q39 25 62.5 70t23.5 97q0 32 -9 55.5t-28 45.5q-13 15 -29 24.5t-37.5 15.5t-50 8t-67.5 2h-202l-76 -352h258z" />
    <glyph glyph-name="afii10060" unicode="&#x40b;" horiz-adv-x="717" 
d="M283 694h-227l4 20h534l-4 -20h-287l-71 -335q15 13 41.5 29t60 30t72 23.5t77.5 9.5q96 0 137 -38.5t41 -111.5q0 -37 -11 -87l-45 -214h-20l49 231q8 40 8 66q0 39 -12.5 64.5t-34 41t-50.5 22t-62 6.5q-38 0 -76.5 -9.5t-73 -24.5t-63 -32.5t-44.5 -32.5l-70 -332h-20
z" />
    <glyph glyph-name="afii10061" unicode="&#x40c;" horiz-adv-x="593" 
d="M145 714h20l-90 -424l576 424h33l-416 -307l292 -407h-24l-284 395l-183 -133l-56 -262h-19zM341 751l163 144h28l-163 -144h-28z" />
    <glyph glyph-name="uni040D" unicode="&#x40d;" horiz-adv-x="648" 
d="M145 714h20l-148 -697l617 697h31l-151 -714h-20l148 697l-617 -697h-31zM442 751h-25l-112 144h25z" />
    <glyph glyph-name="afii10062" unicode="&#x40e;" horiz-adv-x="537" 
d="M49 -10q34 0 72 17.5t75 70.5l432 636h-24l-366 -537l-139 537h-21l144 -560l-43 -63q-32 -46 -65.5 -63.5t-61.5 -17.5q-25 0 -43 4t-29 8l-5 -22q11 -4 31.5 -7t42.5 -3zM351 756q53 0 88.5 29t54.5 82h-20q-17 -44 -47.5 -67.5t-75.5 -23.5q-42 0 -66.5 24t-23.5 67
h-20q-2 -53 29 -82t81 -29z" />
    <glyph glyph-name="afii10145" unicode="&#x40f;" horiz-adv-x="642" 
d="M249 0h-255l151 714h20l-147 -694h474l147 694h20l-151 -714h-239l-38 -176h-20z" />
    <glyph glyph-name="afii10017" unicode="&#x410;" horiz-adv-x="574" 
d="M370 714h20l132 -714h-20l-44 235h-366l-146 -235h-22zM455 255l-79 431h-2l-269 -431h350z" />
    <glyph glyph-name="afii10018" unicode="&#x411;" horiz-adv-x="611" 
d="M145 714h454l-4 -20h-434l-61 -294h218q24 0 42 -0.5t33 -2t28 -4t26 -6.5q52 -16 81.5 -59.5t29.5 -105.5q0 -81 -46 -139t-124 -74q-32 -7 -63 -8t-63 -1h-268zM296 20q29 0 51.5 2t40.5 6t33 10.5t30 15.5q39 25 62.5 71.5t23.5 98.5q0 62 -37 105q-13 15 -29 25
t-37.5 15.5t-50 8t-67.5 2.5h-222l-77 -360h279z" />
    <glyph glyph-name="afii10019" unicode="&#x412;" horiz-adv-x="611" 
d="M144 714h277q23 0 54.5 -4t59.5 -20t47.5 -48t19.5 -87q0 -44 -16 -77t-41.5 -55.5t-56.5 -34.5t-61 -15v-2q69 -6 101.5 -47t32.5 -107q0 -52 -18.5 -92.5t-51.5 -68t-80 -42t-104 -14.5h-313zM319 20q34 0 73 9.5t72 32.5t55 60.5t22 94.5q0 49 -17.5 78t-46.5 44
t-65.5 19t-73.5 4h-248l-73 -342h302zM351 382q52 0 94.5 11.5t73 33.5t47 54.5t16.5 73.5q0 43 -14 70.5t-36 42.5t-49.5 20.5t-55.5 5.5h-265l-69 -312h258z" />
    <glyph glyph-name="afii10020" unicode="&#x413;" horiz-adv-x="463" 
d="M145 714h419l-4 -20h-399l-147 -694h-20z" />
    <glyph glyph-name="afii10021" unicode="&#x414;" horiz-adv-x="690" 
d="M-56 20h66q58 78 99.5 163t70.5 169t47.5 162t32.5 141l12 59h399l-147 -694h80l-42 -196h-20l38 176h-620l-37 -176h-20zM504 20l143 674h-359l-15 -71q-13 -60 -31.5 -134t-46.5 -154t-67.5 -161t-93.5 -154h470z" />
    <glyph glyph-name="afii10022" unicode="&#x415;" horiz-adv-x="519" 
d="M143 714h453l-4 -20h-433l-67 -312h404l-4 -20h-405l-73 -342h451l-5 -20h-469z" />
    <glyph glyph-name="afii10024" unicode="&#x416;" horiz-adv-x="978" 
d="M332 420l-228 294h25l335 -431l90 431h20l-90 -429l500 429h29l-354 -305l272 -409h-24l-263 395l-167 -142l-54 -253h-20l55 256l-115 149l-410 -405h-29z" />
    <glyph glyph-name="afii10025" unicode="&#x417;" horiz-adv-x="595" 
d="M276 -16q-126 0 -193 58.5t-67 167.5v12.5t1 14.5h20q-1 -9 -1 -13v-10q0 -57 17.5 -97t49.5 -65.5t76.5 -37t99.5 -11.5t99.5 15t76 43t49 68.5t17.5 91.5q0 31 -11.5 57.5t-33 46t-53.5 30.5t-73 11h-100l3 20h100q42 0 80 11.5t67 34t46.5 56t17.5 77.5
q0 69 -52 107.5t-145 38.5q-112 0 -174 -50t-82 -148h-20q20 104 90 161t190 57q97 0 155.5 -42.5t58.5 -122.5q0 -38 -13 -70.5t-36.5 -57.5t-56 -40.5t-70.5 -20.5l-1 -2q29 -2 53.5 -14.5t42.5 -33.5t28 -48t10 -57q0 -56 -19 -100t-53.5 -75t-83.5 -47t-110 -16z" />
    <glyph glyph-name="afii10026" unicode="&#x418;" horiz-adv-x="648" 
d="M145 714h20l-148 -697l617 697h31l-151 -714h-20l148 697l-617 -697h-31z" />
    <glyph glyph-name="afii10027" unicode="&#x419;" horiz-adv-x="648" 
d="M-6 0h31l617 697l-148 -697h20l151 714h-31l-617 -697l148 697h-20zM399 756q53 0 88.5 29t54.5 82h-20q-17 -44 -47.5 -67.5t-75.5 -23.5q-42 0 -66.5 24t-23.5 67h-20q-2 -53 29 -82t81 -29z" />
    <glyph glyph-name="afii10028" unicode="&#x41a;" horiz-adv-x="593" 
d="M145 714h20l-90 -424l576 424h33l-416 -307l292 -407h-24l-284 395l-183 -133l-56 -262h-19z" />
    <glyph glyph-name="afii10029" unicode="&#x41b;" horiz-adv-x="679" 
d="M-16 -5q-32 0 -54 5l5 21q22 -6 53 -6q55 0 97.5 54t77 148t65 221.5t61.5 275.5h407l-151 -714h-20l147 694h-367q-34 -158 -65 -287t-67 -220.5t-81 -141.5t-108 -50z" />
    <glyph glyph-name="afii10030" unicode="&#x41c;" horiz-adv-x="796" 
d="M144 714h30l156 -692h2l450 692h32l-152 -714h-21l146 683l-2 2l-444 -685h-26l-154 685h-2l-145 -685h-20z" />
    <glyph glyph-name="afii10031" unicode="&#x41d;" horiz-adv-x="648" 
d="M146 714h20l-71 -332h479l72 332h20l-153 -714h-20l77 362h-479l-78 -362h-19z" />
    <glyph glyph-name="afii10032" unicode="&#x41e;" horiz-adv-x="722" 
d="M319 -16q-69 0 -122.5 21t-89.5 59.5t-55 93t-19 122.5q0 84 24.5 164.5t72.5 144.5t118.5 103t162.5 39q68 0 121 -21t90 -59.5t56 -93.5t19 -123q0 -84 -25 -165t-73 -144t-118.5 -102t-161.5 -39zM319 3q86 0 153 38t112.5 99t69 138.5t23.5 155.5q0 63 -17 114
t-51 87.5t-83.5 56t-114.5 19.5q-87 0 -154 -38t-112 -99t-68.5 -138t-23.5 -156q0 -62 18 -113t52 -87.5t83.5 -56.5t112.5 -20z" />
    <glyph glyph-name="afii10033" unicode="&#x41f;" horiz-adv-x="642" 
d="M145 714h514l-151 -714h-19l147 694h-476l-147 -694h-19z" />
    <glyph glyph-name="afii10034" unicode="&#x420;" horiz-adv-x="574" 
d="M141 714h270q94 0 138 -46.5t44 -120.5q0 -33 -10.5 -72t-39.5 -72t-81.5 -55.5t-136.5 -22.5h-246l-70 -325h-20zM331 345q54 0 98.5 12.5t76.5 38t49.5 63.5t17.5 88q0 46 -16 75t-40 45t-53.5 21.5t-56.5 5.5h-250l-75 -349h249z" />
    <glyph glyph-name="afii10035" unicode="&#x421;" horiz-adv-x="685" 
d="M308 -16q-64 0 -115 20.5t-86.5 58t-54.5 91t-19 119.5q0 83 25 165t73.5 147t120.5 105.5t167 40.5q52 0 100 -15.5t85 -45.5t59 -73t22 -98h-20q0 50 -21 89.5t-55.5 66.5t-79 41.5t-90.5 14.5q-88 0 -156 -37.5t-114.5 -99t-71 -140.5t-24.5 -161q0 -67 19.5 -117.5
t54 -84.5t81 -51t100.5 -17q58 0 109 17.5t92 50t71.5 78.5t47.5 103h20q-15 -59 -46 -108t-75.5 -84.5t-100 -55.5t-118.5 -20z" />
    <glyph glyph-name="afii10036" unicode="&#x422;" 
d="M318 694h-258l4 20h537l-4 -20h-258l-148 -694h-21z" />
    <glyph glyph-name="afii10037" unicode="&#x423;" horiz-adv-x="537" 
d="M49 -10q-22 0 -42.5 3t-31.5 7l5 22q11 -4 29 -8t43 -4q28 0 61.5 17.5t65.5 63.5l43 63l-144 560h21l139 -537l366 537h24l-432 -636q-37 -53 -75 -70.5t-72 -17.5z" />
    <glyph glyph-name="afii10038" unicode="&#x424;" horiz-adv-x="738" 
d="M299 70q-63 1 -114 19.5t-87.5 52t-56 79.5t-19.5 103q0 69 27 129t78 104.5t123 70t162 25.5h10l17 78h20l-17 -78q63 -1 114 -20t87 -53t55.5 -80.5t19.5 -103.5q0 -69 -27 -128.5t-77.5 -103.5t-123 -69t-162.5 -25h-9l-19 -86h-20zM418 634h-9q-84 0 -151.5 -23.5
t-115 -65t-73.5 -97.5t-26 -121q0 -53 18 -96t51.5 -74t81.5 -48.5t109 -19.5zM332 89q84 0 151.5 23t115 64t73 96.5t25.5 120.5q0 52 -17.5 96t-51 76t-81.5 50t-109 19l-115 -545h9z" />
    <glyph glyph-name="afii10039" unicode="&#x425;" horiz-adv-x="519" 
d="M255 369l-182 345h23l175 -331l314 331h26l-331 -349l192 -365h-23l-185 351l-331 -351h-26z" />
    <glyph glyph-name="afii10040" unicode="&#x426;" horiz-adv-x="664" 
d="M554 0h-560l151 714h20l-147 -694h460l147 694h20l-147 -694h80l-42 -196h-20z" />
    <glyph glyph-name="afii10041" unicode="&#x427;" horiz-adv-x="595" 
d="M511 353q-22 -9 -54 -19.5t-67.5 -19.5t-71.5 -15t-66 -6q-56 0 -92 10t-57 28.5t-29.5 44t-8.5 55.5q0 29 5.5 61.5t13.5 67.5l33 154h20l-34 -161q-7 -31 -12 -61t-5 -56q0 -27 7.5 -49.5t26 -39t51 -25.5t82.5 -9q29 0 63.5 5.5t69.5 14t68.5 19t60.5 21.5l72 341h20
l-151 -714h-20z" />
    <glyph glyph-name="afii10042" unicode="&#x428;" horiz-adv-x="988" 
d="M145 714h20l-147 -694h400l147 694h20l-147 -694h400l147 694h20l-151 -714h-860z" />
    <glyph glyph-name="afii10043" unicode="&#x429;" horiz-adv-x="1024" 
d="M914 0h-920l151 714h20l-147 -694h400l147 694h20l-147 -694h400l147 694h20l-147 -694h80l-42 -196h-20z" />
    <glyph glyph-name="afii10044" unicode="&#x42a;" horiz-adv-x="710" 
d="M276 694h-216l4 20h236l-66 -315h198q24 0 42 -0.5t33 -2t28 -3.5t26 -6q52 -16 81.5 -59.5t29.5 -105.5q0 -40 -12 -75.5t-34 -63.5t-53.5 -47t-70.5 -27q-31 -7 -62.5 -8t-63.5 -1h-247zM410 20q59 0 92.5 7.5t62.5 26.5q39 25 62.5 71.5t23.5 98.5q0 62 -37 105
q-13 15 -29 24.5t-37.5 15.5t-50 8t-67.5 2h-200l-78 -359h258z" />
    <glyph glyph-name="afii10045" unicode="&#x42b;" horiz-adv-x="778" 
d="M145 714h20l-66 -315h198q24 0 42 -0.5t33 -2t28 -3.5t26 -6q52 -16 81.5 -59.5t29.5 -105.5q0 -40 -12 -75.5t-34 -63.5t-53.5 -47t-70.5 -27q-31 -7 -62.5 -8t-63.5 -1h-247zM275 20q59 0 92.5 7.5t62.5 26.5q39 25 62.5 71.5t23.5 98.5q0 62 -37 105q-13 15 -29 24.5
t-37.5 15.5t-50 8t-67.5 2h-200l-78 -359h258zM775 714h20l-151 -714h-20z" />
    <glyph glyph-name="afii10046" unicode="&#x42c;" horiz-adv-x="575" 
d="M145 714h20l-66 -315h198q24 0 42 -0.5t33 -2t28 -3.5t26 -6q52 -16 81.5 -59.5t29.5 -105.5q0 -40 -12 -75.5t-34 -63.5t-53.5 -47t-70.5 -27q-31 -7 -62.5 -8t-63.5 -1h-247zM275 20q59 0 92.5 7.5t62.5 26.5q39 25 62.5 71.5t23.5 98.5q0 62 -37 105q-13 15 -29 24.5
t-37.5 15.5t-50 8t-67.5 2h-200l-78 -359h258z" />
    <glyph glyph-name="afii10047" unicode="&#x42d;" horiz-adv-x="685" 
d="M277 -16q-125 0 -194 68t-71 186h20q5 -112 66 -173t181 -61q78 0 139.5 29.5t106.5 79t73 114t38 135.5h-419l3 20h419q3 27 3 56q0 61 -18 111.5t-51.5 86.5t-80 56t-103.5 20q-106 0 -181.5 -51.5t-117.5 -143.5h-22q20 48 51 87.5t72 67.5t90.5 43.5t107.5 15.5
q62 0 112.5 -21t86 -59.5t55 -92.5t19.5 -121q0 -84 -25.5 -165.5t-74.5 -145.5t-120.5 -103t-164.5 -39z" />
    <glyph glyph-name="afii10048" unicode="&#x42e;" horiz-adv-x="908" 
d="M525 -16q-62 0 -111 21t-83.5 59.5t-53 93t-18.5 122.5q0 41 6 82h-174l-78 -362h-19l152 714h20l-71 -332h173q13 69 42 132.5t73.5 111.5t103 76.5t130.5 28.5q60 0 109.5 -21t84 -59.5t53.5 -93.5t19 -123q0 -84 -24.5 -165t-71 -144t-112.5 -102t-150 -39zM525 3
q79 0 141.5 38t106 99t67 138.5t23.5 155.5q0 63 -17 114t-48.5 87.5t-77.5 56t-103 19.5q-80 0 -142.5 -38t-106 -99t-66.5 -138t-23 -156q0 -62 17.5 -113t50 -87.5t77.5 -56.5t101 -20z" />
    <glyph glyph-name="afii10049" unicode="&#x42f;" horiz-adv-x="613" 
d="M258 325q-37 0 -70.5 8.5t-58.5 28t-39.5 51t-14.5 77.5q0 38 11.5 73.5t33 64.5t51.5 49t67 28q31 7 62 8t62 1h268l-151 -714h-20l69 324h-243l-329 -324h-29zM531 344l75 350h-277q-29 0 -51 -2t-39 -6t-31.5 -10.5t-28.5 -15.5q-18 -11 -33 -30t-26 -42.5t-17 -49
t-6 -50.5q0 -58 34 -98q12 -14 26 -22.5t34.5 -14t48.5 -7.5t67 -2h224z" />
    <glyph glyph-name="afii10065" unicode="&#x430;" horiz-adv-x="481" 
d="M133 -11q-30 0 -57.5 7t-48.5 22t-33.5 39t-12.5 58q0 52 19 84.5t50 50.5t71 24.5t83 6.5q20 0 38.5 1t36.5 1q27 0 50 4.5t40.5 17.5t27 35t9.5 58q0 31 -10.5 52t-28.5 33.5t-43 17.5t-55 5q-78 0 -125.5 -37t-64.5 -104h-20q20 86 74.5 123t135.5 38
q72 0 114.5 -30.5t42.5 -97.5q0 -18 -2.5 -33t-5.5 -30l-59 -251q-2 -9 -3 -16.5t-1 -18.5q0 -21 9.5 -27t21.5 -6q23 0 35 4v-20q-17 -3 -34 -3q-52 0 -52 52q0 20 3.5 31.5t6.5 24.5h-2q-36 -60 -85.5 -88t-124.5 -28zM133 8q48 0 86.5 14.5t67.5 40t48.5 61t29.5 77.5
l21 89l-2 2q-10 -11 -31 -17t-46.5 -9t-52.5 -3.5t-49 -0.5q-37 0 -73.5 -5.5t-66 -21t-47.5 -44.5t-18 -76q0 -28 10.5 -48t29 -33t42.5 -19.5t51 -6.5z" />
    <glyph glyph-name="afii10066" unicode="&#x431;" horiz-adv-x="519" 
d="M215 -11q-91 0 -140 50.5t-49 147.5q0 51 4.5 104.5t16 105t31.5 98.5t50.5 84t72.5 61.5t98 31.5l135 17q29 4 49 13t27 29h20q-5 -14 -12 -24t-19 -17.5t-30.5 -12.5t-46.5 -9l-119 -15q-47 -6 -82 -24.5t-61 -44t-43.5 -56.5t-28.5 -62t-17 -59.5t-9 -49.5h2
q18 42 44 71t57 47.5t64 26.5t64 8q81 0 130 -50.5t49 -140.5q0 -58 -16 -117t-48 -106t-80 -77t-113 -30zM214 8q61 0 106 28.5t74 74t43.5 101t14.5 109.5q0 78 -43.5 124t-121.5 46q-60 0 -105 -27t-75 -70t-45.5 -98t-15.5 -110q0 -88 44 -133t124 -45z" />
    <glyph glyph-name="afii10067" unicode="&#x432;" horiz-adv-x="486" 
d="M90 514h193q33 0 61.5 -5.5t49 -18.5t32 -35t11.5 -55q0 -54 -36 -88.5t-98 -42.5q47 -6 76 -33.5t29 -80.5q0 -24 -7.5 -47.5t-21.5 -42.5t-33 -33.5t-43 -20.5q-22 -6 -43.5 -8.5t-59.5 -2.5h-218zM185 20q41 0 65 2.5t45 8.5q41 12 67 46.5t26 79.5q0 33 -12.5 53.5
t-33 31t-47 14t-53.5 3.5h-186l-50 -239h179zM253 279q27 0 56 5.5t53 19t39.5 37t15.5 59.5q0 31 -11.5 49.5t-30.5 28.5t-44 13t-52 3h-173l-46 -215h193z" />
    <glyph glyph-name="afii10068" unicode="&#x433;" horiz-adv-x="365" 
d="M96 514h313l-4 -20h-293l-105 -494h-20z" />
    <glyph glyph-name="afii10069" unicode="&#x434;" horiz-adv-x="527" 
d="M-75 20h58q40 54 69 115.5t51 125.5t37.5 128.5t28.5 124.5h319l-105 -494h68l-40 -186h-20l36 166h-486l-35 -166h-20zM363 20l101 474h-280q-11 -53 -25.5 -113t-35.5 -122.5t-50 -123.5t-68 -115h358z" />
    <glyph glyph-name="afii10070" unicode="&#x435;" 
d="M195 -11q-48 0 -84 16t-60 44.5t-35.5 67t-11.5 82.5q0 60 16.5 118.5t50 105t83.5 75t118 28.5q46 0 81 -15.5t58 -42.5t35 -63.5t12 -78.5q0 -19 -1 -35.5t-3 -37.5h-427q-3 -23 -3 -55q0 -60 17.5 -97t43.5 -57.5t55.5 -28t53.5 -7.5q81 0 135 38t77 123h21
q-23 -88 -80.5 -134t-151.5 -46zM433 273q3 14 4 26t1 27q0 36 -10 69t-31 57.5t-52 39t-73 14.5q-51 0 -92 -18.5t-71 -50.5t-49.5 -74t-28.5 -90h402z" />
    <glyph glyph-name="afii10072" unicode="&#x436;" horiz-adv-x="700" 
d="M214 299l-166 215h27l235 -307l64 307h20l-64 -306l361 306h30l-259 -217l190 -297h-24l-182 283l-122 -103l-38 -180h-20l39 182l-79 101l-295 -283h-28z" />
    <glyph glyph-name="afii10073" unicode="&#x437;" horiz-adv-x="466" 
d="M186 -11q-92 0 -141 42.5t-49 121.5v20h20v-14q0 -80 46.5 -115.5t125.5 -35.5q39 0 71.5 10t56 29.5t36.5 47t13 63.5q0 43 -31 72t-89 29h-80l4 19h78q30 0 57 8.5t47.5 25t32.5 40.5t12 55q0 47 -36 73.5t-103 26.5q-159 0 -187 -139h-20q12 79 67 118.5t143 39.5
q71 0 114 -30t43 -89q0 -56 -36 -92.5t-93 -44.5v-1q23 -1 41 -11t30.5 -25.5t19 -35.5t6.5 -41q0 -41 -14.5 -72t-41 -52t-63 -32t-80.5 -11z" />
    <glyph glyph-name="afii10074" unicode="&#x438;" horiz-adv-x="510" 
d="M91 514h20l-105 -496h2l449 496h34l-109 -514h-20l104 496h-2l-448 -496h-34z" />
    <glyph glyph-name="afii10075" unicode="&#x439;" horiz-adv-x="510" 
d="M-18 0h34l448 496h2l-104 -496h20l109 514h-34l-449 -496h-2l105 496h-20zM292 592q105 0 143 107h-20q-33 -87 -123 -87q-85 0 -83 87h-20q-2 -53 25.5 -80t77.5 -27z" />
    <glyph glyph-name="afii10076" unicode="&#x43a;" horiz-adv-x="444" 
d="M91 514h20l-64 -305l387 305h31l-272 -215l206 -299h-26l-197 285l-135 -104l-39 -181h-20z" />
    <glyph glyph-name="afii10077" unicode="&#x43b;" horiz-adv-x="529" 
d="M-28 -6q-36 0 -55 6l5 22q10 -4 22.5 -6t30.5 -2q42 0 73.5 41.5t57 111t46.5 159.5t42 188h316l-109 -514h-20l105 494h-276q-23 -102 -44.5 -193t-48 -159.5t-61.5 -108t-84 -39.5z" />
    <glyph glyph-name="afii10078" unicode="&#x43c;" horiz-adv-x="611" 
d="M90 514h31l115 -493l323 493h33l-109 -514h-20l104 490h-2l-321 -490h-24l-113 490h-2l-104 -490h-20z" />
    <glyph glyph-name="afii10079" unicode="&#x43d;" 
d="M91 514h20l-50 -236h350l50 236h20l-109 -514h-20l54 258h-350l-54 -258h-20z" />
    <glyph glyph-name="afii10080" unicode="&#x43e;" horiz-adv-x="519" 
d="M203 -11q-97 0 -147 54t-50 148q0 63 17.5 123t51.5 107.5t84 76t115 28.5q46 0 83 -15.5t62.5 -43t39 -66.5t13.5 -86q0 -57 -17.5 -115t-51.5 -105t-84 -76.5t-116 -29.5zM203 8q61 0 108 28.5t78 73t47 99t16 106.5q0 91 -48.5 141t-129.5 50q-62 0 -108.5 -28
t-77.5 -73t-46.5 -101.5t-15.5 -112.5q0 -85 44.5 -134t132.5 -49z" />
    <glyph glyph-name="afii10081" unicode="&#x43f;" horiz-adv-x="490" 
d="M91 514h380l-109 -514h-20l105 494h-340l-105 -494h-20z" />
    <glyph glyph-name="afii10082" unicode="&#x440;" horiz-adv-x="537" 
d="M101 514h21l-29 -136h2q15 30 35 57t46.5 47t59 32t72.5 12q48 0 82.5 -16.5t56.5 -45t32.5 -66.5t10.5 -81q0 -57 -18.5 -115.5t-53.5 -106t-85 -77t-113 -29.5q-79 0 -125 38.5t-51 107.5h-2l-65 -311h-21zM220 8q58 0 104 28t78.5 72.5t50 98.5t17.5 106q0 40 -8.5 75
t-28 61.5t-50.5 41.5t-75 15q-61 0 -108 -32.5t-78.5 -82t-48 -108t-16.5 -110.5q0 -76 41 -120.5t122 -44.5z" />
    <glyph glyph-name="afii10083" unicode="&#x441;" 
d="M209 -11q-97 0 -147 54t-50 148q0 63 17.5 123t51.5 107.5t84 76t115 28.5q85 0 134 -43t49 -124h-20q0 72 -44 109.5t-119 37.5q-62 0 -108.5 -28t-77.5 -73t-46.5 -101.5t-15.5 -112.5q0 -85 44.5 -134t132.5 -49q70 0 122 38t81 119h20q-11 -41 -32.5 -73.5t-51 -55.5
t-65 -35t-74.5 -12z" />
    <glyph glyph-name="afii10084" unicode="&#x442;" horiz-adv-x="396" 
d="M215 494h-201l4 20h422l-4 -20h-201l-105 -494h-20z" />
    <glyph glyph-name="afii10085" unicode="&#x443;" horiz-adv-x="407" 
d="M-63 -156q51 -4 82.5 14t57.5 65l44 77l-100 514h22l95 -488l281 488h25l-337 -582q-15 -26 -29 -46t-30.5 -34t-37.5 -21t-50 -7h-26z" />
    <glyph glyph-name="afii10086" unicode="&#x444;" horiz-adv-x="762" 
d="M313 76q-9 -18 -24.5 -33.5t-35.5 -27.5t-43 -19t-47 -7q-34 0 -63 11.5t-50 35.5t-32.5 59.5t-11.5 83.5q0 62 15.5 124t46 111.5t76.5 80t108 30.5q50 0 87.5 -23t48.5 -67l60 279h20l-60 -277q20 38 60.5 63t89.5 25q34 0 63 -11.5t50 -34.5t32.5 -58.5t11.5 -84.5
q0 -59 -14.5 -121t-44.5 -112t-76.5 -82t-110.5 -32q-52 0 -88 24t-49 66l-54 -255h-20zM167 8q27 0 53 10.5t48 30t37.5 46t22.5 58.5l44 203q8 38 1.5 66t-24 46.5t-43 27.5t-55.5 9q-57 0 -99 -30.5t-70 -78t-41.5 -105.5t-13.5 -112q0 -44 11 -76.5t30 -53.5t44.5 -31
t54.5 -10zM470 8q57 0 99 31t70 79t41.5 106t13.5 112q0 83 -38 126.5t-102 43.5q-27 0 -53 -10.5t-48 -29.5t-37.5 -45.5t-22.5 -58.5l-44 -203q-8 -38 -1.5 -66.5t24 -47t43 -28t55.5 -9.5z" />
    <glyph glyph-name="afii10087" unicode="&#x445;" horiz-adv-x="407" 
d="M178 268l-133 246h23l126 -232l218 232h26l-232 -249l146 -265h-23l-139 252l-240 -252h-27z" />
    <glyph glyph-name="afii10088" unicode="&#x446;" horiz-adv-x="510" 
d="M416 0h-434l109 514h20l-105 -494h340l105 494h20l-105 -494h74l-40 -186h-20z" />
    <glyph glyph-name="afii10089" unicode="&#x447;" horiz-adv-x="462" 
d="M367 245q-16 -6 -38.5 -13.5t-48.5 -14t-55 -11t-57 -4.5q-65 0 -99 28t-34 87q0 23 6 53l30 144h20l-29 -141q-6 -27 -6 -50q0 -101 109 -101q57 0 112.5 14t93.5 31l52 247h20l-109 -514h-20z" />
    <glyph glyph-name="afii10090" unicode="&#x448;" horiz-adv-x="758" 
d="M91 514h20l-105 -494h294l105 494h20l-105 -494h294l105 494h20l-109 -514h-648z" />
    <glyph glyph-name="afii10091" unicode="&#x449;" horiz-adv-x="778" 
d="M684 0h-702l109 514h20l-105 -494h294l105 494h20l-105 -494h294l105 494h20l-105 -494h74l-40 -186h-20z" />
    <glyph glyph-name="afii10092" unicode="&#x44a;" horiz-adv-x="561" 
d="M187 494h-173l4 20h193l-48 -228h167q34 0 54 -2t38 -7q38 -11 58.5 -42t20.5 -76q0 -57 -32.5 -99t-88.5 -54q-23 -5 -45.5 -5.5t-45.5 -0.5h-207zM314 20q42 0 65.5 5.5t43.5 18.5q26 17 42.5 49t16.5 68q0 42 -25 71q-17 20 -45 27.5t-83 7.5h-169l-54 -247h208z" />
    <glyph glyph-name="afii10093" unicode="&#x44b;" horiz-adv-x="607" 
d="M91 514h20l-48 -228h156q35 0 54.5 -2t38.5 -7q37 -11 58 -42t21 -76q0 -57 -32.5 -99t-89.5 -54q-22 -5 -44.5 -5.5t-45.5 -0.5h-197zM204 20q42 0 65 5t44 19q26 17 42.5 49t16.5 68q0 42 -25 71q-18 20 -45.5 27.5t-82.5 7.5h-160l-53 -247h198zM568 514h20l-108 -514
h-20z" />
    <glyph glyph-name="afii10094" unicode="&#x44c;" horiz-adv-x="461" 
d="M91 514h20l-48 -228h166q35 0 54.5 -2t38.5 -7q37 -11 58 -42t21 -76q0 -57 -32.5 -99t-89.5 -54q-22 -5 -44.5 -5.5t-45.5 -0.5h-207zM214 20q42 0 65 5t44 19q26 17 42.5 49t16.5 68q0 42 -25 71q-18 20 -45.5 27.5t-82.5 7.5h-170l-53 -247h208z" />
    <glyph glyph-name="afii10095" unicode="&#x44d;" 
d="M179 -11q-91 0 -134 46.5t-43 131.5h20q0 -84 40.5 -121.5t118.5 -37.5q54 0 96.5 20.5t73.5 55t50.5 79t26.5 93.5h-280l3 20h280q1 9 1 18.5v18.5q0 94 -44.5 144t-126.5 50q-68 0 -120.5 -35.5t-80.5 -104.5h-22q26 72 81.5 115.5t141.5 43.5q49 0 85 -16t60 -43.5
t35.5 -66t11.5 -83.5q0 -62 -17.5 -120.5t-52 -105t-86 -74.5t-118.5 -28z" />
    <glyph glyph-name="afii10096" unicode="&#x44e;" horiz-adv-x="699" 
d="M388 -11q-91 0 -141.5 54t-50.5 148q0 17 1 33t4 33h-145l-54 -257h-20l109 514h20l-50 -237h143q10 50 32 95.5t54 79.5t74.5 54t94.5 20q44 0 79.5 -15.5t61 -43t39 -66.5t13.5 -86q0 -57 -17.5 -115t-51.5 -105t-83 -76.5t-112 -29.5zM388 8q59 0 104.5 28.5t76.5 73
t47 99t16 106.5q0 45 -13 80.5t-36 60t-54.5 37.5t-69.5 13q-59 0 -104.5 -28t-76.5 -73t-46.5 -101.5t-15.5 -112.5q0 -85 44.5 -134t127.5 -49z" />
    <glyph glyph-name="afii10097" unicode="&#x44f;" horiz-adv-x="466" 
d="M156 229q-52 6 -85.5 35.5t-33.5 92.5q0 56 31.5 98t85.5 53q22 5 44 5.5t45 0.5h201l-109 -514h-20l47 225h-181l-224 -225h-27zM366 244l54 250h-202q-41 0 -63.5 -5.5t-41.5 -18.5q-26 -16 -41.5 -47.5t-15.5 -66.5q0 -112 145 -112h165z" />
    <glyph glyph-name="uni0450" unicode="&#x450;" 
d="M195 -11q-48 0 -84 16t-60 44.5t-35.5 67t-11.5 82.5q0 60 16.5 118.5t50 105t83.5 75t118 28.5q46 0 81 -15.5t58 -42.5t35 -63.5t12 -78.5q0 -19 -1 -35.5t-3 -37.5h-427q-3 -23 -3 -55q0 -60 17.5 -97t43.5 -57.5t55.5 -28t53.5 -7.5q81 0 135 38t77 123h21
q-23 -88 -80.5 -134t-151.5 -46zM433 273q3 14 4 26t1 27q0 36 -10 69t-31 57.5t-52 39t-73 14.5q-51 0 -92 -18.5t-71 -50.5t-49.5 -74t-28.5 -90h402zM338 587h-25l-112 144h25z" />
    <glyph glyph-name="afii10071" unicode="&#x451;" 
d="M195 -11q-48 0 -84 16t-60 44.5t-35.5 67t-11.5 82.5q0 60 16.5 118.5t50 105t83.5 75t118 28.5q46 0 81 -15.5t58 -42.5t35 -63.5t12 -78.5q0 -19 -1 -35.5t-3 -37.5h-427q-3 -23 -3 -55q0 -60 17.5 -97t43.5 -57.5t55.5 -28t53.5 -7.5q81 0 135 38t77 123h21
q-23 -88 -80.5 -134t-151.5 -46zM433 273q3 14 4 26t1 27q0 36 -10 69t-31 57.5t-52 39t-73 14.5q-51 0 -92 -18.5t-71 -50.5t-49.5 -74t-28.5 -90h402zM215 590h-21l13 81h21zM373 590h-21l13 81h21z" />
    <glyph glyph-name="afii10099" unicode="&#x452;" horiz-adv-x="510" 
d="M119 593h-81l4 19h81l22 102h21l-22 -102h249l-4 -19h-249l-32 -153l-13 -58l2 -2q35 63 84 99.5t124 36.5q67 0 109 -35.5t42 -104.5q0 -20 -3.5 -40.5t-8.5 -40.5l-62 -295h-21l63 300l8 38t4 38q-1 60 -37.5 90t-93.5 30t-98.5 -24t-70.5 -62t-47 -86.5t-28 -96.5
l-49 -227h-20z" />
    <glyph glyph-name="afii10100" unicode="&#x453;" horiz-adv-x="365" 
d="M96 514h313l-4 -20h-293l-105 -494h-20zM203 587l163 144h28l-163 -144h-28z" />
    <glyph glyph-name="afii10101" unicode="&#x454;" 
d="M202 -11q-48 0 -83.5 15t-59 42.5t-35.5 65t-12 82.5q0 61 17.5 121t52 106.5t85.5 75.5t119 29q80 0 127 -41.5t50 -115.5h-19q-3 65 -45.5 101.5t-114.5 36.5q-51 0 -92 -19t-71.5 -51t-50.5 -74t-29 -87h281l-4 -20h-281q-2 -14 -3.5 -29t-1.5 -29q0 -94 46 -142.5
t128 -48.5q72 0 124.5 39t82.5 117h21q-26 -80 -85 -127t-147 -47z" />
    <glyph glyph-name="afii10102" unicode="&#x455;" horiz-adv-x="463" 
d="M183 -11q-38 0 -72 7t-59.5 24t-40 45t-14.5 71q0 10 1 19t1 19h20q-6 -46 3 -77.5t30.5 -51t54.5 -28.5t76 -9q31 0 61 6.5t54 21.5t39 39.5t15 59.5q0 27 -11 45t-29 30.5t-40 21t-44 17.5q-26 10 -54.5 19.5t-52 24.5t-39 37.5t-15.5 58.5t15 61.5t39.5 42.5t56 25
t64.5 8q39 0 72.5 -8.5t56.5 -28t34.5 -51.5t6.5 -78h-20q5 39 -4 66.5t-29 45t-50 26t-67 8.5q-26 0 -53.5 -6t-50 -20t-37 -36t-14.5 -55q0 -26 10.5 -43.5t27 -29.5t38 -21t43.5 -18q25 -10 54.5 -19.5t54 -24.5t41 -38t16.5 -60q0 -41 -16 -69t-42.5 -45t-60.5 -24.5
t-70 -7.5z" />
    <glyph glyph-name="afii10103" unicode="&#x456;" horiz-adv-x="130" 
d="M89 514h22l-110 -514h-21zM129 714h22l-23 -104h-22z" />
    <glyph glyph-name="afii10104" unicode="&#x457;" horiz-adv-x="130" 
d="M42 590h-21l13 81h21zM200 590h-21l13 81h21zM-20 0l109 514h22l-110 -514h-21z" />
    <glyph glyph-name="afii10105" unicode="&#x458;" horiz-adv-x="130" 
d="M-163 -156q9 -1 19.5 -1.5t18.5 -0.5q27 0 44 12t27.5 30t16 40t9.5 42l117 548h22l-119 -556q-6 -27 -13 -51t-19.5 -42.5t-32.5 -29.5t-52 -11q-12 0 -21.5 0.5t-19.5 1.5zM129 714h22l-23 -104h-22z" />
    <glyph glyph-name="afii10106" unicode="&#x459;" horiz-adv-x="860" 
d="M-28 -6q-36 0 -55 6l5 22q10 -4 22.5 -6t30.5 -2q42 0 73.5 41.5t57 111t46.5 159.5t42 188h316l-48 -228h166q35 0 54.5 -2t38.5 -7q37 -11 58 -42t21 -76q0 -57 -32.5 -99t-89.5 -54q-22 -5 -44.5 -5.5t-45.5 -0.5h-207l105 494h-276q-23 -102 -44.5 -193t-48 -159.5
t-61.5 -108t-84 -39.5zM613 20q42 0 65 5t44 19q26 17 42.5 49t16.5 68q0 42 -25 71q-18 20 -45.5 27.5t-82.5 7.5h-170l-53 -247h208z" />
    <glyph glyph-name="afii10107" unicode="&#x45a;" horiz-adv-x="831" 
d="M91 514h20l-48 -228h350l48 228h20l-48 -228h166q35 0 54.5 -2t38.5 -7q37 -11 58 -42t21 -76q0 -57 -32.5 -99t-89.5 -54q-22 -5 -44.5 -5.5t-45.5 -0.5h-207l56 266h-350l-56 -266h-20zM584 20q42 0 65 5t44 19q26 17 42.5 49t16.5 68q0 42 -25 71q-18 20 -45.5 27
t-82.5 7h-170l-53 -246h208z" />
    <glyph glyph-name="afii10108" unicode="&#x45b;" horiz-adv-x="510" 
d="M119 593h-81l4 19h81l22 102h21l-22 -102h249l-4 -19h-249l-32 -153l-13 -58l2 -2q35 63 84 99.5t124 36.5q67 0 109 -35.5t42 -104.5q0 -20 -3.5 -40.5t-8.5 -40.5l-62 -295h-21l63 300l8 38t4 38q-1 60 -37.5 90t-93.5 30t-98.5 -24t-70.5 -62t-47 -86.5t-28 -96.5
l-49 -227h-20z" />
    <glyph glyph-name="afii10109" unicode="&#x45c;" horiz-adv-x="444" 
d="M91 514h20l-64 -305l387 305h31l-272 -215l206 -299h-26l-197 285l-135 -104l-39 -181h-20zM226 587l163 144h28l-163 -144h-28z" />
    <glyph glyph-name="uni045D" unicode="&#x45d;" horiz-adv-x="510" 
d="M91 514h20l-105 -496h2l449 496h34l-109 -514h-20l104 496h-2l-448 -496h-34zM343 587h-25l-112 144h25z" />
    <glyph glyph-name="afii10110" unicode="&#x45e;" horiz-adv-x="407" 
d="M-66 -176h26q29 0 50 7t37.5 21t30.5 34t29 46l337 582h-25l-281 -488l-95 488h-22l100 -514l-44 -77q-26 -47 -57.5 -65t-82.5 -14zM236 592q105 0 143 107h-20q-33 -87 -123 -87q-85 0 -83 87h-20q-2 -53 25.5 -80t77.5 -27z" />
    <glyph glyph-name="afii10193" unicode="&#x45f;" horiz-adv-x="490" 
d="M161 0h-179l109 514h20l-105 -494h340l105 494h20l-109 -514h-181l-38 -177h-20z" />
    <glyph glyph-name="afii10146" unicode="&#x462;" horiz-adv-x="677" 
d="M216 570h-170l4 20h170l27 124h20l-26 -124h273l-4 -20h-273l-36 -171h198q24 0 42 -0.5t33 -2t28 -3.5t26 -6q52 -16 81.5 -59.5t29.5 -105.5q0 -40 -12 -75.5t-34 -63.5t-53.5 -47t-70.5 -27q-31 -7 -62.5 -8t-63.5 -1h-247zM377 20q59 0 92.5 7.5t62.5 26.5
q39 25 62.5 71.5t23.5 98.5q0 62 -37 105q-13 15 -29 24.5t-37.5 15.5t-50 8t-67.5 2h-200l-78 -359h258z" />
    <glyph glyph-name="afii10194" unicode="&#x463;" horiz-adv-x="525" 
d="M151 494h-141l4 20h141l43 200h20l-43 -200h241l-4 -20h-241l-44 -208h166q35 0 54.5 -2t38.5 -7q37 -11 58 -42t21 -76q0 -57 -32.5 -99t-89.5 -54q-22 -5 -44.5 -5.5t-45.5 -0.5h-207zM278 20q42 0 65 5t44 19q26 17 42.5 49t16.5 68q0 42 -25 71q-18 20 -45.5 27.5
t-82.5 7.5h-170l-53 -247h208z" />
    <glyph glyph-name="uni046A" unicode="&#x46a;" horiz-adv-x="920" 
d="M14 134q13 63 27 109.5t41 77.5t74.5 46t128.5 15h171l-185 332h546l-327 -332h159q57 0 94.5 -7.5t60 -22.5t32 -37.5t9.5 -53.5q0 -26 -5.5 -57.5t-13.5 -69.5l-28 -134h-20l28 132q8 38 13.5 69t5.5 56q0 27 -8 46.5t-28 32.5t-54 19.5t-85 6.5h-171l-77 -362h-20
l77 362h-173q-76 0 -120 -13.5t-69.5 -42t-38 -72t-24.5 -102.5l-28 -132h-20zM771 694h-465l168 -300z" />
    <glyph glyph-name="uni046B" unicode="&#x46b;" horiz-adv-x="674" 
d="M-5 130q9 43 25.5 71.5t40 45.5t54.5 24t70 7h121l-132 236h400l-233 -236h112q66 0 103 -22.5t37 -81.5q0 -11 -1 -22.5t-4 -25.5l-26 -126h-20l26 127q2 11 3 21.5t1 19.5q0 51 -31.5 70.5t-87.5 19.5h-124l-54 -258h-20l54 258h-124q-33 0 -61 -5.5t-49.5 -20.5
t-37 -40.5t-23.5 -64.5l-26 -127h-20zM529 494h-319l114 -207z" />
    <glyph glyph-name="afii10147" unicode="&#x472;" horiz-adv-x="722" 
d="M319 -16q-69 0 -122.5 21t-89.5 59.5t-55 93t-19 122.5q0 84 24.5 164.5t72.5 144.5t118.5 103t162.5 39q68 0 121 -21t90 -59.5t56 -93.5t19 -123q0 -84 -25 -165t-73 -144t-118.5 -102t-161.5 -39zM319 3q81 0 145 34t109.5 89.5t71.5 127t31 145.5q-14 -14 -30 -27.5
t-35.5 -24t-44 -17t-54.5 -6.5q-34 0 -72.5 15.5t-76.5 33.5t-74 33.5t-64 15.5q-49 0 -89.5 -20t-79.5 -66q-3 -29 -3 -56q0 -62 18 -113t52 -87.5t83.5 -56.5t112.5 -20zM515 344q31 0 54.5 7.5t43 19t35 25.5t29.5 28v10q0 63 -17 114t-51 87.5t-83.5 56t-114.5 19.5
q-75 0 -135 -28.5t-104.5 -76t-72.5 -109.5t-39 -129q37 37 80.5 55.5t88.5 18.5q28 0 64 -15.5t75 -33.5t77 -33.5t70 -15.5z" />
    <glyph glyph-name="afii10195" unicode="&#x473;" horiz-adv-x="519" 
d="M203 -11q-97 0 -147 54t-50 148q0 63 17.5 123t51.5 107.5t84 76t115 28.5q46 0 83 -15.5t62.5 -43t39 -66.5t13.5 -86q0 -57 -17.5 -115t-51.5 -105t-84 -76.5t-116 -29.5zM203 8q54 0 96.5 22.5t73 58.5t49.5 82t26 93q-19 -17 -44.5 -30t-63.5 -13q-25 0 -51 12
t-52.5 26.5t-53 26.5t-52.5 12q-53 0 -101 -46q-2 -16 -3 -31t-1 -30q0 -85 44.5 -134t132.5 -49zM342 241q28 0 56.5 12.5t52.5 35.5q0 7 0.5 13t0.5 13q0 91 -48.5 141t-129.5 50q-50 0 -90 -18.5t-70 -50t-49.5 -72.5t-29.5 -86q18 15 41.5 26.5t58.5 11.5q27 0 54.5 -12
t54.5 -26t52 -26t46 -12z" />
    <glyph glyph-name="afii10148" unicode="&#x474;" horiz-adv-x="600" 
d="M74 714h20l115 -694h2l348 614q26 46 54.5 70t64.5 24q17 0 26 -1.5t19 -3.5l-4 -20q-12 3 -20.5 4t-23.5 1q-52 0 -96 -78l-358 -630h-28z" />
    <glyph glyph-name="afii10196" unicode="&#x475;" horiz-adv-x="438" 
d="M20 514h21l84 -494h2l240 431q41 75 105 75q13 0 24 -2t17 -4l-4 -19q-17 5 -40 5q-27 0 -47.5 -17.5t-38.5 -49.5l-246 -439h-27z" />
    <glyph glyph-name="uni048C" unicode="&#x48c;" horiz-adv-x="677" 
d="M243 694h-171l4 20h171l27 124h20l-27 -124h193l-4 -20h-193l-62 -295h198q24 0 42 -0.5t33 -2t28 -3.5t26 -6q52 -16 81.5 -59.5t29.5 -105.5q0 -40 -12 -75.5t-34 -63.5t-53.5 -47t-70.5 -27q-31 -7 -62.5 -8t-63.5 -1h-247zM377 20q59 0 92.5 7.5t62.5 26.5
q39 25 62.5 71.5t23.5 98.5q0 62 -37 105q-13 15 -29 24.5t-37.5 15.5t-50 8t-67.5 2h-200l-78 -359h258z" />
    <glyph glyph-name="uni048D" unicode="&#x48d;" horiz-adv-x="535" 
d="M160 494h-150l4 20h150l25 116h20l-25 -116h152l-4 -20h-152l-43 -208h166q35 0 54.5 -2t38.5 -7q37 -11 58 -42t21 -76q0 -57 -32.5 -99t-89.5 -54q-22 -5 -44.5 -5.5t-45.5 -0.5h-207zM288 20q42 0 65 5t44 19q26 17 42.5 49t16.5 68q0 42 -25 71q-18 20 -45.5 27.5
t-82.5 7.5h-170l-53 -247h208z" />
    <glyph glyph-name="afii10050" unicode="&#x490;" horiz-adv-x="463" 
d="M144 714h399l34 161h20l-38 -181h-399l-147 -694h-20z" />
    <glyph glyph-name="afii10098" unicode="&#x491;" horiz-adv-x="365" 
d="M91 514h293l33 157h20l-37 -177h-293l-105 -494h-20z" />
    <glyph glyph-name="uni0492" unicode="&#x492;" horiz-adv-x="552" 
d="M159 362h-123l5 20h123l70 332h419l-4 -20h-399l-66 -312h231l-5 -20h-231l-76 -362h-20z" />
    <glyph glyph-name="uni0493" unicode="&#x493;" horiz-adv-x="430" 
d="M95 255h-96l4 20h96l51 239h323l-4 -20h-303l-47 -219h187l-4 -20h-187l-54 -255h-20z" />
    <glyph glyph-name="uni0496" unicode="&#x496;" horiz-adv-x="1005" 
d="M966 0h-59l-263 395l-167 -142l-54 -253h-20l55 256l-115 149l-410 -405h-29l428 420l-228 294h25l335 -431l90 431h20l-90 -429l500 429h29l-354 -305l259 -389h72l-42 -196h-20z" />
    <glyph glyph-name="uni0497" unicode="&#x497;" horiz-adv-x="731" 
d="M678 0h-50l-182 283l-122 -103l-38 -180h-20l39 182l-79 101l-295 -283h-28l311 299l-166 215h27l235 -307l64 307h20l-64 -306l361 306h30l-259 -217l177 -277h63l-40 -186h-20z" />
    <glyph glyph-name="uni0498" unicode="&#x498;" horiz-adv-x="595" 
d="M239 -183q-23 0 -45 6.5t-42 15.5l8 19q19 -10 39.5 -15.5t40.5 -5.5q11 0 24 3t23.5 9.5t17.5 16.5t7 24q0 23 -17.5 32.5t-35.5 9.5q-14 0 -28.5 -4.5t-25.5 -8.5l-15 9l57 57q-112 7 -171.5 64.5t-59.5 160.5v12.5t1 14.5h20q-1 -9 -1 -13v-10q0 -57 17.5 -97
t49.5 -65.5t76.5 -37t99.5 -11.5t99.5 15t76 43t49 68.5t17.5 91.5q0 31 -11.5 57.5t-33 46t-53.5 30.5t-73 11h-100l3 20h100q42 0 80 11.5t67 34t46.5 56t17.5 77.5q0 69 -52 107.5t-145 38.5q-112 0 -174 -50t-82 -148h-20q20 104 90 161t190 57q97 0 155.5 -42.5
t58.5 -122.5q0 -38 -13 -70.5t-36.5 -57.5t-56 -40.5t-70.5 -20.5l-1 -2q29 -2 53.5 -14.5t42.5 -33.5t28 -48t10 -57q0 -56 -19 -100t-53.5 -75t-83.5 -47t-110 -16h-4l-24 -25l-12 -9l2 -2q7 4 21 4q30 0 51.5 -15.5t21.5 -46.5q0 -20 -8.5 -33.5t-22 -22.5t-30 -13
t-32.5 -4z" />
    <glyph glyph-name="uni0499" unicode="&#x499;" horiz-adv-x="466" 
d="M159 -183q-23 0 -45 6.5t-42 15.5l8 19q19 -10 39.5 -15.5t40.5 -5.5q11 0 24 3t23.5 9.5t17.5 16.5t7 24q0 23 -17.5 32.5t-35.5 9.5q-14 0 -28.5 -4.5t-25.5 -8.5l-15 9l61 62q-85 3 -130 45t-45 118v20h20v-14q0 -80 46.5 -115.5t125.5 -35.5q39 0 71.5 10t56 29.5
t36.5 47t13 63.5q0 43 -31 72t-89 29h-80l4 19h78q30 0 57 8.5t47.5 25t32.5 40.5t12 55q0 47 -36 73.5t-103 26.5q-159 0 -187 -139h-20q12 79 67 118.5t143 39.5q71 0 114 -30t43 -89q0 -56 -36 -92.5t-93 -44.5v-1q23 -1 41 -11t30.5 -25.5t19 -35.5t6.5 -41
q0 -80 -52 -122t-136 -45l-29 -30l-12 -9l2 -2q7 4 21 4q30 0 51.5 -15.5t21.5 -46.5q0 -20 -8.5 -33.5t-22 -22.5t-30 -13t-32.5 -4z" />
    <glyph glyph-name="uni049A" unicode="&#x49a;" horiz-adv-x="630" 
d="M594 0h-58l-284 395l-183 -133l-56 -262h-19l151 714h20l-90 -424l576 424h33l-416 -307l278 -387h72l-42 -196h-20z" />
    <glyph glyph-name="uni049B" unicode="&#x49b;" horiz-adv-x="475" 
d="M424 0h-51l-197 285l-135 -104l-39 -181h-20l109 514h20l-64 -305l387 305h31l-272 -215l192 -279h63l-40 -186h-20z" />
    <glyph glyph-name="uni049C" unicode="&#x49c;" horiz-adv-x="593" 
d="M145 714h20l-70 -332h129l37 172h20l-37 -172h41l384 332h29l-394 -341l255 -373h-23l-250 362h-46l-38 -182h-20l38 182h-130l-76 -362h-20z" />
    <glyph glyph-name="uni049D" unicode="&#x49d;" horiz-adv-x="444" 
d="M91 514h20l-50 -236h88l29 136h20l-29 -136h23l260 236h28l-270 -245l179 -269h-23l-174 258h-27l-29 -138h-20l29 138h-89l-54 -258h-20z" />
    <glyph glyph-name="uni04A0" unicode="&#x4a0;" horiz-adv-x="728" 
d="M276 694h-216l4 20h236l-90 -424l576 424h33l-416 -307l292 -407h-24l-284 395l-183 -133l-56 -262h-19z" />
    <glyph glyph-name="uni04A1" unicode="&#x4a1;" horiz-adv-x="544" 
d="M187 494h-173l4 20h193l-64 -305l387 305h31l-272 -215l206 -299h-26l-197 285l-135 -104l-39 -181h-20z" />
    <glyph glyph-name="uni04A2" unicode="&#x4a2;" horiz-adv-x="676" 
d="M573 0h-80l77 362h-479l-78 -362h-19l152 714h20l-71 -332h479l72 332h20l-149 -694h80l-42 -196h-20z" />
    <glyph glyph-name="uni04A3" unicode="&#x4a3;" horiz-adv-x="515" 
d="M426 0h-74l54 258h-350l-54 -258h-20l109 514h20l-50 -236h350l50 236h20l-105 -494h74l-40 -186h-20z" />
    <glyph glyph-name="uni04A4" unicode="&#x4a4;" horiz-adv-x="964" 
d="M146 714h20l-71 -332h479l72 332h419l-4 -20h-399l-148 -694h-21l77 362h-479l-78 -362h-19z" />
    <glyph glyph-name="uni04A5" unicode="&#x4a5;" horiz-adv-x="730" 
d="M91 514h20l-50 -236h350l50 236h313l-4 -20h-293l-105 -494h-20l54 258h-350l-54 -258h-20z" />
    <glyph glyph-name="uni04AA" unicode="&#x4aa;" horiz-adv-x="685" 
d="M279 -183q-23 0 -45 6.5t-42 15.5l8 19q19 -10 39.5 -15.5t40.5 -5.5q11 0 24 3t23.5 9.5t17.5 16.5t7 24q0 23 -17.5 32.5t-35.5 9.5q-14 0 -28.5 -4.5t-25.5 -8.5l-15 9l56 57q-59 3 -106 25t-79.5 59t-50 89t-17.5 115q0 83 25 165t73.5 147t120.5 105.5t167 40.5
q52 0 100 -15.5t85 -45.5t59 -73t22 -98h-20q0 50 -21 89.5t-55.5 66.5t-79 41.5t-90.5 14.5q-88 0 -156 -37.5t-114.5 -99t-71 -140.5t-24.5 -161q0 -67 19.5 -117.5t54 -84.5t81 -51t100.5 -17q58 0 109 17.5t92 50t71.5 78.5t47.5 103h20q-15 -58 -46 -107t-74.5 -84.5
t-98 -55.5t-117.5 -21l-24 -25l-12 -9l2 -2q7 4 21 4q30 0 51.5 -15.5t21.5 -46.5q0 -20 -8.5 -33.5t-22 -22.5t-30 -13t-32.5 -4z" />
    <glyph glyph-name="uni04AB" unicode="&#x4ab;" 
d="M177 -183q-23 0 -45 6.5t-42 15.5l8 19q19 -10 39.5 -15.5t40.5 -5.5q11 0 24 3t23.5 9.5t17.5 16.5t7 24q0 23 -17.5 32.5t-35.5 9.5q-14 0 -28.5 -4.5t-25.5 -8.5l-15 9l61 62q-87 5 -132 58t-45 143q0 63 17.5 123t51.5 107.5t84 76t115 28.5q85 0 134 -43t49 -124
h-20q0 72 -44 109.5t-119 37.5q-62 0 -108.5 -28t-77.5 -73t-46.5 -101.5t-15.5 -112.5q0 -85 44.5 -134t132.5 -49q70 0 122 38t81 119h20q-11 -40 -32 -72t-49.5 -55t-63 -35.5t-72.5 -13.5l-29 -30l-12 -9l2 -2q7 4 21 4q30 0 51.5 -15.5t21.5 -46.5q0 -20 -8.5 -33.5
t-22 -22.5t-30 -13t-32.5 -4z" />
    <glyph glyph-name="uni04AE" unicode="&#x4ae;" horiz-adv-x="519" 
d="M240 303l-194 411h23l184 -392l349 392h25l-366 -411l-65 -303h-21z" />
    <glyph glyph-name="uni04AF" unicode="&#x4af;" horiz-adv-x="407" 
d="M121 0l-104 514h22l95 -489h2l288 489h23l-306 -514l-38 -176h-20z" />
    <glyph glyph-name="uni04B0" unicode="&#x4b0;" horiz-adv-x="519" 
d="M215 187h-172l4 20h172l21 96l-194 411h23l184 -392l349 392h25l-366 -411l-21 -96h171l-4 -20h-171l-40 -187h-21z" />
    <glyph glyph-name="uni04B1" unicode="&#x4b1;" horiz-adv-x="407" 
d="M104 -76h-140l5 20h140l12 56l-104 514h22l95 -489h2l288 489h23l-306 -514l-12 -56h135l-5 -20h-135l-21 -100h-20z" />
    <glyph glyph-name="uni04B2" unicode="&#x4b2;" horiz-adv-x="551" 
d="M507 0h-58l-185 351l-331 -351h-26l348 369l-182 345h23l175 -331l314 331h26l-331 -349l181 -345h70l-42 -196h-20z" />
    <glyph glyph-name="uni04B3" unicode="&#x4b3;" horiz-adv-x="438" 
d="M380 0h-51l-139 252l-240 -252h-27l255 268l-133 246h23l126 -232l218 232h26l-232 -249l135 -245h63l-40 -186h-20z" />
    <glyph glyph-name="uni04B6" unicode="&#x4b6;" horiz-adv-x="617" 
d="M516 0h-80l75 353q-22 -9 -54 -19.5t-67.5 -19.5t-71.5 -15t-66 -6q-56 0 -92 10t-57 28.5t-29.5 44t-8.5 55.5q0 29 5.5 61.5t13.5 67.5l33 154h20l-34 -161q-7 -31 -12 -61t-5 -56q0 -27 7.5 -49.5t26 -39t51 -25.5t82.5 -9q29 0 63.5 5.5t69.5 14t68.5 19t60.5 21.5
l72 341h20l-147 -694h80l-42 -196h-20z" />
    <glyph glyph-name="uni04B7" unicode="&#x4b7;" horiz-adv-x="477" 
d="M388 0h-74l53 245q-16 -6 -38.5 -13.5t-48.5 -14t-55 -11t-57 -4.5q-65 0 -99 28t-34 87q0 23 6 53l30 144h20l-29 -141q-6 -27 -6 -50q0 -101 109 -101q57 0 112.5 14t93.5 31l52 247h20l-105 -494h74l-40 -186h-20z" />
    <glyph glyph-name="uni04B8" unicode="&#x4b8;" horiz-adv-x="595" 
d="M511 353q-22 -9 -54 -19.5t-67.5 -19.5t-71.5 -15t-66 -6q-56 0 -92 10t-57 28.5t-29.5 44t-8.5 55.5q0 29 5.5 61.5t13.5 67.5l33 154h20l-34 -161q-7 -31 -12 -61t-5 -56q0 -27 7.5 -49.5t26 -39t51 -25.5t82.5 -9q29 0 63.5 5.5t69.5 14t68.5 19t60.5 21.5l72 341h20
l-151 -714h-20z" />
    <glyph glyph-name="uni04B9" unicode="&#x4b9;" horiz-adv-x="462" 
d="M367 245q-16 -6 -38.5 -13.5t-48.5 -14t-55 -11t-57 -4.5q-65 0 -99 28t-34 87q0 23 6 53l30 144h20l-29 -141q-6 -27 -6 -50q0 -101 109 -101q57 0 112.5 14t93.5 31l52 247h20l-109 -514h-20z" />
    <glyph glyph-name="uni04BA" unicode="&#x4ba;" horiz-adv-x="595" 
d="M146 714h20l-75 -353q22 9 54 19.5t67.5 19.5t71.5 15t66 6q55 0 91.5 -10t57.5 -28.5t29.5 -44t8.5 -55.5q0 -29 -5.5 -61.5t-13.5 -67.5l-33 -154h-20l34 161q7 31 12 61t5 56q0 27 -7.5 49.5t-26 39t-51 25.5t-82.5 9q-29 0 -63.5 -5.5t-69.5 -14t-68.5 -19
t-60.5 -21.5l-72 -341h-20z" />
    <glyph glyph-name="uni04BB" unicode="&#x4bb;" 
d="M135 714h21l-56 -264l-13 -58l2 -2q35 63 84 99.5t124 36.5q67 0 109 -35.5t42 -104.5q0 -20 -4 -40.5t-8 -40.5l-64 -305h-21l65 310l8 38t4 38q-1 60 -37.5 90t-93.5 30t-98.5 -24t-70.5 -62t-47 -86.5t-28 -96.5l-51 -237h-20z" />
    <glyph glyph-name="uni04C0" unicode="&#x4c0;" horiz-adv-x="148" 
d="M146 714h20l-153 -714h-19z" />
    <glyph glyph-name="uni04C1" unicode="&#x4c1;" horiz-adv-x="978" 
d="M-96 0h29l410 405l115 -149l-55 -256h20l54 253l167 142l263 -395h24l-272 409l354 305h-29l-500 -429l90 429h-20l-90 -431l-335 431h-25l228 -294zM566 756q53 0 88.5 29t54.5 82h-20q-17 -44 -47.5 -67.5t-75.5 -23.5q-42 0 -66.5 24t-23.5 67h-20q-2 -53 29 -82
t81 -29z" />
    <glyph glyph-name="uni04C2" unicode="&#x4c2;" horiz-adv-x="700" 
d="M-97 0h28l295 283l79 -101l-39 -182h20l38 180l122 103l182 -283h24l-190 297l259 217h-30l-361 -306l64 306h-20l-64 -307l-235 307h-27l166 -215zM387 592q105 0 143 107h-20q-33 -87 -123 -87q-85 0 -83 87h-20q-2 -53 25.5 -80t77.5 -27z" />
    <glyph glyph-name="uni04D0" unicode="&#x4d0;" horiz-adv-x="574" 
d="M-76 0h22l146 235h366l44 -235h20l-132 714h-20zM105 255l269 431h2l79 -431h-350zM381 756q53 0 88.5 29t54.5 82h-20q-17 -44 -47.5 -67.5t-75.5 -23.5q-42 0 -66.5 24t-23.5 67h-20q-2 -53 29 -82t81 -29z" />
    <glyph glyph-name="uni04D1" unicode="&#x4d1;" horiz-adv-x="481" 
d="M133 -11q75 0 124.5 28t85.5 88h2q-3 -13 -6.5 -24.5t-3.5 -31.5q0 -52 52 -52q17 0 34 3v20q-12 -4 -35 -4q-12 0 -21.5 6t-9.5 27q0 11 1 18.5t3 16.5l59 251q3 15 5.5 30t2.5 33q0 67 -42.5 97.5t-114.5 30.5q-81 -1 -135.5 -38t-74.5 -123h20q17 67 64.5 104
t125.5 37q30 0 55 -5t43 -17.5t28.5 -33.5t10.5 -52q0 -36 -9.5 -58t-27 -35t-40.5 -17.5t-50 -4.5q-18 0 -36.5 -1t-38.5 -1q-43 0 -83 -6.5t-71 -24.5t-50 -50.5t-19 -84.5q0 -34 12.5 -58t33.5 -39t48.5 -22t57.5 -7zM133 8q-27 0 -51 6.5t-42.5 19.5t-29 33t-10.5 48
q0 47 18 76t47.5 44.5t66 21t73.5 5.5q22 0 49 0.5t52.5 3.5t46.5 9t31 17l2 -2l-21 -89q-10 -42 -29.5 -77.5t-48.5 -61t-67.5 -40t-86.5 -14.5zM276 592q105 0 143 107h-20q-33 -87 -123 -87q-85 0 -83 87h-20q-2 -53 25.5 -80t77.5 -27z" />
    <glyph glyph-name="uni04D2" unicode="&#x4d2;" horiz-adv-x="574" 
d="M370 714h20l132 -714h-20l-44 235h-366l-146 -235h-22zM455 255l-79 431h-2l-269 -431h350zM314 754h-21l13 81h21zM472 754h-21l13 81h21z" />
    <glyph glyph-name="uni04D3" unicode="&#x4d3;" horiz-adv-x="481" 
d="M133 -11q-30 0 -57.5 7t-48.5 22t-33.5 39t-12.5 58q0 52 19 84.5t50 50.5t71 24.5t83 6.5q20 0 38.5 1t36.5 1q27 0 50 4.5t40.5 17.5t27 35t9.5 58q0 31 -10.5 52t-28.5 33.5t-43 17.5t-55 5q-78 0 -125.5 -37t-64.5 -104h-20q20 86 74.5 123t135.5 38
q72 0 114.5 -30.5t42.5 -97.5q0 -18 -2.5 -33t-5.5 -30l-59 -251q-2 -9 -3 -16.5t-1 -18.5q0 -21 9.5 -27t21.5 -6q23 0 35 4v-20q-17 -3 -34 -3q-52 0 -52 52q0 20 3.5 31.5t6.5 24.5h-2q-36 -60 -85.5 -88t-124.5 -28zM133 8q48 0 86.5 14.5t67.5 40t48.5 61t29.5 77.5
l21 89l-2 2q-10 -11 -31 -17t-46.5 -9t-52.5 -3.5t-49 -0.5q-37 0 -73.5 -5.5t-66 -21t-47.5 -44.5t-18 -76q0 -28 10.5 -48t29 -33t42.5 -19.5t51 -6.5zM215 590h-21l13 81h21zM373 590h-21l13 81h21z" />
    <glyph glyph-name="uni04D4" unicode="&#x4d4;" horiz-adv-x="833" 
d="M459 714h452l-4 -20h-379l-66 -312h349l-4 -20h-349l-72 -342h393l-4 -20h-414l59 274h-276l-214 -274h-27zM423 294l85 400h-41l-311 -400h267z" />
    <glyph glyph-name="uni04D5" unicode="&#x4d5;" horiz-adv-x="833" 
d="M129 -11q-30 0 -57.5 7t-48.5 22t-33.5 39t-12.5 58q0 52 19 84.5t50 50.5t71 24.5t83 6.5q26 2 48.5 3t40.5 3q48 4 72 25t24 69q0 34 -9.5 57.5t-26 38.5t-38 22t-46.5 7q-78 0 -125.5 -37t-64.5 -104h-20q20 86 74.5 123t135.5 38q29 0 55 -9t45 -27t29 -44.5t7 -62.5
l2 -2q12 30 31 56.5t44.5 46t56 31t65.5 11.5q46 0 81 -15.5t58 -42.5t35 -63.5t12 -78.5q0 -19 -1 -38t-3 -35h-400q-5 -14 -7.5 -32.5t-2.5 -38.5q0 -38 11.5 -70t33 -55t51.5 -36t67 -13q78 0 133.5 39.5t75.5 121.5h23q-24 -88 -82 -134t-152 -46q-37 0 -69 12.5
t-56 34.5t-37.5 52.5t-13.5 66.5h-2q-11 -35 -33 -65t-52 -52.5t-66 -35.5t-75 -13zM129 8q60 0 108.5 30t79.5 81q10 17 18.5 40t15 48t11.5 48.5t9 41.5l-2 2q-14 -15 -33.5 -22t-40.5 -9q-24 -2 -47.5 -4t-46.5 -2q-37 0 -73.5 -5.5t-65.5 -21t-47 -44.5t-18 -76
q0 -28 10.5 -48t28.5 -33t42 -19.5t51 -6.5zM761 273q3 14 4 26t1 27q0 36 -10 69t-31 57.5t-52 39t-73 14.5q-44 0 -80.5 -20t-64 -53t-45.5 -75t-25 -85h376z" />
    <glyph glyph-name="uni04D6" unicode="&#x4d6;" horiz-adv-x="519" 
d="M-9 0h469l5 20h-451l73 342h405l4 20h-404l67 312h433l4 20h-453zM371 756q53 0 88.5 29t54.5 82h-20q-17 -44 -47.5 -67.5t-75.5 -23.5q-42 0 -66.5 24t-23.5 67h-20q-2 -53 29 -82t81 -29z" />
    <glyph glyph-name="uni04D7" unicode="&#x4d7;" 
d="M195 -11q94 0 151.5 46t80.5 134h-21q-23 -85 -77 -123t-135 -38q-24 0 -53.5 7.5t-55.5 28t-43.5 57.5t-17.5 97q0 32 3 55h427q2 21 3 37.5t1 35.5q0 42 -12 78.5t-35 63.5t-58 42.5t-81 15.5q-68 0 -118 -28.5t-83.5 -75t-50 -105t-16.5 -118.5q0 -44 11.5 -82.5
t35.5 -67t60 -44.5t84 -16zM31 273q9 48 28.5 90t49.5 74t71 50.5t92 18.5q42 0 73 -14.5t52 -39t31 -57.5t10 -69q0 -15 -1 -27t-4 -26h-402zM276 592q105 0 143 107h-20q-33 -87 -123 -87q-85 0 -83 87h-20q-2 -53 25.5 -80t77.5 -27z" />
    <glyph glyph-name="uni04D8" unicode="&#x4d8;" horiz-adv-x="712" 
d="M305 -16q-68 0 -119 22t-85 60t-51 90.5t-17 113.5q0 21 2 46t10 66h618q2 14 3 29t1 30q0 60 -18.5 110t-52.5 85.5t-82 55t-106 19.5q-48 0 -94 -13.5t-86.5 -38.5t-73 -62t-52.5 -83h-20q17 46 50 86t76.5 69t95 45.5t104.5 16.5q66 0 118 -22.5t88 -61.5t54.5 -92
t18.5 -114q0 -86 -25 -168.5t-73.5 -146.5t-120 -103t-163.5 -39zM308 3q73 0 133.5 29t106 78t74 114.5t39.5 137.5h-599q-5 -22 -6.5 -44t-1.5 -42q0 -61 16.5 -111t48.5 -86t79.5 -56t109.5 -20z" />
    <glyph glyph-name="afii10846" unicode="&#x4d9;" horiz-adv-x="507" 
d="M192 -10q-46 0 -81 15.5t-58 42.5t-35 63.5t-12 78.5q0 19 1 35.5t3 37.5h427q3 22 3 55q0 60 -17.5 97t-43.5 57.5t-55.5 28t-53.5 7.5q-81 0 -135 -38t-77 -123h-21q23 88 80.5 134t151.5 46q48 0 84 -16t60 -44.5t35.5 -67t11.5 -82.5q0 -60 -16.5 -118.5t-50 -105
t-84 -75t-117.5 -28.5zM192 10q51 0 92 18.5t71 50.5t49.5 74t28.5 90h-402q-3 -14 -4 -26t-1 -27q0 -36 10 -69t31 -57.5t52 -39t73 -14.5z" />
    <glyph glyph-name="uni04DC" unicode="&#x4dc;" horiz-adv-x="978" 
d="M332 420l-228 294h25l335 -431l90 431h20l-90 -429l500 429h29l-354 -305l272 -409h-24l-263 395l-167 -142l-54 -253h-20l55 256l-115 149l-410 -405h-29zM500 754h-21l13 81h21zM658 754h-21l13 81h21z" />
    <glyph glyph-name="uni04DD" unicode="&#x4dd;" horiz-adv-x="700" 
d="M214 299l-166 215h27l235 -307l64 307h20l-64 -306l361 306h30l-259 -217l190 -297h-24l-182 283l-122 -103l-38 -180h-20l39 182l-79 101l-295 -283h-28zM325 590h-21l13 81h21zM483 590h-21l13 81h21z" />
    <glyph glyph-name="uni04DE" unicode="&#x4de;" horiz-adv-x="595" 
d="M276 -16q-126 0 -193 58.5t-67 167.5v12.5t1 14.5h20q-1 -9 -1 -13v-10q0 -57 17.5 -97t49.5 -65.5t76.5 -37t99.5 -11.5t99.5 15t76 43t49 68.5t17.5 91.5q0 31 -11.5 57.5t-33 46t-53.5 30.5t-73 11h-100l3 20h100q42 0 80 11.5t67 34t46.5 56t17.5 77.5
q0 69 -52 107.5t-145 38.5q-112 0 -174 -50t-82 -148h-20q20 104 90 161t190 57q97 0 155.5 -42.5t58.5 -122.5q0 -38 -13 -70.5t-36.5 -57.5t-56 -40.5t-70.5 -20.5l-1 -2q29 -2 53.5 -14.5t42.5 -33.5t28 -48t10 -57q0 -56 -19 -100t-53.5 -75t-83.5 -47t-110 -16z
M312 754h-21l13 81h21zM470 754h-21l13 81h21z" />
    <glyph glyph-name="uni04DF" unicode="&#x4df;" horiz-adv-x="466" 
d="M186 -11q-92 0 -141 42.5t-49 121.5v20h20v-14q0 -80 46.5 -115.5t125.5 -35.5q39 0 71.5 10t56 29.5t36.5 47t13 63.5q0 43 -31 72t-89 29h-80l4 19h78q30 0 57 8.5t47.5 25t32.5 40.5t12 55q0 47 -36 73.5t-103 26.5q-159 0 -187 -139h-20q12 79 67 118.5t143 39.5
q71 0 114 -30t43 -89q0 -56 -36 -92.5t-93 -44.5v-1q23 -1 41 -11t30.5 -25.5t19 -35.5t6.5 -41q0 -41 -14.5 -72t-41 -52t-63 -32t-80.5 -11zM198 590h-21l13 81h21zM356 590h-21l13 81h21z" />
    <glyph glyph-name="uni04E2" unicode="&#x4e2;" horiz-adv-x="648" 
d="M145 714h20l-148 -697l617 697h31l-151 -714h-20l148 697l-617 -697h-31zM517 793h-232l4 20h233z" />
    <glyph glyph-name="uni04E3" unicode="&#x4e3;" horiz-adv-x="510" 
d="M91 514h20l-105 -496h2l449 496h34l-109 -514h-20l104 496h-2l-448 -496h-34zM418 629h-232l4 20h233z" />
    <glyph glyph-name="uni04E4" unicode="&#x4e4;" horiz-adv-x="648" 
d="M145 714h20l-148 -697l617 697h31l-151 -714h-20l148 697l-617 -697h-31zM325 754h-21l13 81h21zM483 754h-21l13 81h21z" />
    <glyph glyph-name="uni04E5" unicode="&#x4e5;" horiz-adv-x="510" 
d="M91 514h20l-105 -496h2l449 496h34l-109 -514h-20l104 496h-2l-448 -496h-34zM226 590h-21l13 81h21zM384 590h-21l13 81h21z" />
    <glyph glyph-name="uni04E6" unicode="&#x4e6;" horiz-adv-x="722" 
d="M319 -16q-69 0 -122.5 21t-89.5 59.5t-55 93t-19 122.5q0 84 24.5 164.5t72.5 144.5t118.5 103t162.5 39q68 0 121 -21t90 -59.5t56 -93.5t19 -123q0 -84 -25 -165t-73 -144t-118.5 -102t-161.5 -39zM319 3q86 0 153 38t112.5 99t69 138.5t23.5 155.5q0 63 -17 114
t-51 87.5t-83.5 56t-114.5 19.5q-87 0 -154 -38t-112 -99t-68.5 -138t-23.5 -156q0 -62 18 -113t52 -87.5t83.5 -56.5t112.5 -20zM346 754h-21l13 81h21zM504 754h-21l13 81h21z" />
    <glyph glyph-name="uni04E7" unicode="&#x4e7;" horiz-adv-x="519" 
d="M203 -11q-97 0 -147 54t-50 148q0 63 17.5 123t51.5 107.5t84 76t115 28.5q46 0 83 -15.5t62.5 -43t39 -66.5t13.5 -86q0 -57 -17.5 -115t-51.5 -105t-84 -76.5t-116 -29.5zM203 8q61 0 108 28.5t78 73t47 99t16 106.5q0 91 -48.5 141t-129.5 50q-62 0 -108.5 -28
t-77.5 -73t-46.5 -101.5t-15.5 -112.5q0 -85 44.5 -134t132.5 -49zM214 590h-21l13 81h21zM372 590h-21l13 81h21z" />
    <glyph glyph-name="uni04E8" unicode="&#x4e8;" horiz-adv-x="722" 
d="M319 -16q-69 0 -122.5 21t-89.5 59.5t-55 93t-19 122.5q0 84 24.5 164.5t72.5 144.5t118.5 103t162.5 39q68 0 121 -21t90 -59.5t56 -93.5t19 -123q0 -84 -25 -165t-73 -144t-118.5 -102t-161.5 -39zM319 3q76 0 137 30t106 80t72.5 115t37.5 134h-613q-6 -41 -6 -82
q0 -62 18 -113t52 -87.5t83.5 -56.5t112.5 -20zM674 382q3 25 3 52q0 63 -17 114t-51 87.5t-83.5 56t-114.5 19.5q-73 0 -132 -27t-102.5 -72.5t-72 -105t-41.5 -124.5h611z" />
    <glyph glyph-name="uni04E9" unicode="&#x4e9;" horiz-adv-x="519" 
d="M203 -11q-97 0 -147 54t-50 148q0 63 17.5 123t51.5 107.5t84 76t115 28.5q46 0 83 -15.5t62.5 -43t39 -66.5t13.5 -86q0 -57 -17.5 -115t-51.5 -105t-84 -76.5t-116 -29.5zM203 8q53 0 95 21.5t73 57t50 80t26 91.5h-416q-2 -17 -3.5 -33.5t-1.5 -33.5q0 -85 44.5 -134
t132.5 -49zM450 278q1 9 1.5 18.5t0.5 18.5q0 91 -48.5 141t-129.5 50q-50 0 -90 -19t-70 -50.5t-49.5 -72.5t-29.5 -86h415z" />
    <glyph glyph-name="uni04EE" unicode="&#x4ee;" horiz-adv-x="537" 
d="M49 -10q-22 0 -42.5 3t-31.5 7l5 22q11 -4 29 -8t43 -4q28 0 61.5 17.5t65.5 63.5l43 63l-144 560h21l139 -537l366 537h24l-432 -636q-37 -53 -75 -70.5t-72 -17.5zM472 793h-232l4 20h233z" />
    <glyph glyph-name="uni04EF" unicode="&#x4ef;" horiz-adv-x="407" 
d="M-63 -156q51 -4 82.5 14t57.5 65l44 77l-100 514h22l95 -488l281 488h25l-337 -582q-15 -26 -29 -46t-30.5 -34t-37.5 -21t-50 -7h-26zM357 629h-232l4 20h233z" />
    <glyph glyph-name="uni04F0" unicode="&#x4f0;" horiz-adv-x="537" 
d="M49 -10q-22 0 -42.5 3t-31.5 7l5 22q11 -4 29 -8t43 -4q28 0 61.5 17.5t65.5 63.5l43 63l-144 560h21l139 -537l366 537h24l-432 -636q-37 -53 -75 -70.5t-72 -17.5zM283 754h-21l13 81h21zM441 754h-21l13 81h21z" />
    <glyph glyph-name="uni04F1" unicode="&#x4f1;" horiz-adv-x="407" 
d="M-63 -156q51 -4 82.5 14t57.5 65l44 77l-100 514h22l95 -488l281 488h25l-337 -582q-15 -26 -29 -46t-30.5 -34t-37.5 -21t-50 -7h-26zM166 590h-21l13 81h21zM324 590h-21l13 81h21z" />
    <glyph glyph-name="uni04F2" unicode="&#x4f2;" horiz-adv-x="537" 
d="M49 -10q-22 0 -42.5 3t-31.5 7l5 22q11 -4 29 -8t43 -4q28 0 61.5 17.5t65.5 63.5l43 63l-144 560h21l139 -537l366 537h24l-432 -636q-37 -53 -75 -70.5t-72 -17.5zM382 751l163 144h28l-163 -144h-28zM222 751l163 144h28l-163 -144h-28z" />
    <glyph glyph-name="uni04F3" unicode="&#x4f3;" horiz-adv-x="407" 
d="M-63 -156q51 -4 82.5 14t57.5 65l44 77l-100 514h22l95 -488l281 488h25l-337 -582q-15 -26 -29 -46t-30.5 -34t-37.5 -21t-50 -7h-26zM272 587l163 144h28l-163 -144h-28zM112 587l163 144h28l-163 -144h-28z" />
    <glyph glyph-name="uni04F4" unicode="&#x4f4;" horiz-adv-x="595" 
d="M511 353q-22 -9 -54 -19.5t-67.5 -19.5t-71.5 -15t-66 -6q-56 0 -92 10t-57 28.5t-29.5 44t-8.5 55.5q0 29 5.5 61.5t13.5 67.5l33 154h20l-34 -161q-7 -31 -12 -61t-5 -56q0 -27 7.5 -49.5t26 -39t51 -25.5t82.5 -9q29 0 63.5 5.5t69.5 14t68.5 19t60.5 21.5l72 341h20
l-151 -714h-20zM288 754h-21l13 81h21zM446 754h-21l13 81h21z" />
    <glyph glyph-name="uni04F5" unicode="&#x4f5;" horiz-adv-x="462" 
d="M367 245q-16 -6 -38.5 -13.5t-48.5 -14t-55 -11t-57 -4.5q-65 0 -99 28t-34 87q0 23 6 53l30 144h20l-29 -141q-6 -27 -6 -50q0 -101 109 -101q57 0 112.5 14t93.5 31l52 247h20l-109 -514h-20zM196 590h-21l13 81h21zM354 590h-21l13 81h21z" />
    <glyph glyph-name="uni04F8" unicode="&#x4f8;" horiz-adv-x="778" 
d="M145 714h20l-66 -315h198q24 0 42 -0.5t33 -2t28 -3.5t26 -6q52 -16 81.5 -59.5t29.5 -105.5q0 -40 -12 -75.5t-34 -63.5t-53.5 -47t-70.5 -27q-31 -7 -62.5 -8t-63.5 -1h-247zM275 20q59 0 92.5 7.5t62.5 26.5q39 25 62.5 71.5t23.5 98.5q0 62 -37 105q-13 15 -29 24.5
t-37.5 15.5t-50 8t-67.5 2h-200l-78 -359h258zM775 714h20l-151 -714h-20zM383 754h-21l13 81h21zM541 754h-21l13 81h21z" />
    <glyph glyph-name="uni04F9" unicode="&#x4f9;" horiz-adv-x="607" 
d="M91 514h20l-48 -228h156q35 0 54.5 -2t38.5 -7q37 -11 58 -42t21 -76q0 -57 -32.5 -99t-89.5 -54q-22 -5 -44.5 -5.5t-45.5 -0.5h-197zM204 20q42 0 65 5t44 19q26 17 42.5 49t16.5 68q0 42 -25 71q-18 20 -45.5 27.5t-82.5 7.5h-160l-53 -247h198zM568 514h20l-108 -514
h-20zM268 590h-21l13 81h21zM426 590h-21l13 81h21z" />
    <glyph glyph-name="afii61352" unicode="&#x2116;" horiz-adv-x="936" 
d="M138 680h28l301 -655h2l139 655h20l-144 -680h-28l-301 655h-2l-139 -655h-20zM603 204h261l-4 -20h-261zM760 292q-50 0 -79 27t-29 78q0 37 10.5 69.5t30.5 57t48.5 38.5t64.5 14q48 0 76.5 -28.5t28.5 -77.5q0 -40 -12 -72.5t-33 -56t-48.5 -36.5t-57.5 -13zM760 311
q30 0 54 13t41.5 35t27 50.5t9.5 60.5q0 42 -24.5 65t-66.5 23q-26 0 -49.5 -12t-41.5 -33t-28.5 -50.5t-10.5 -64.5q0 -45 23.5 -66t65.5 -21z" />
    <glyph glyph-name="Aogonek" unicode="&#x104;" horiz-adv-x="574" 
d="M445 -188q-34 0 -46 18.5t-12 39.5q0 22 11 41.5t27 36t34.5 29.5t32.5 23h10l-44 235h-366l-146 -235h-22l446 714h20l132 -714q-57 -36 -85.5 -66.5t-28.5 -63.5q0 -14 8.5 -27t28.5 -13q23 0 43 11.5t35 28.5l13 -12q-15 -17 -38.5 -31.5t-52.5 -14.5zM376 686h-2
l-269 -431h350z" />
    <glyph glyph-name="aogonek" unicode="&#x105;" horiz-adv-x="481" 
d="M344 -188q-34 0 -46 18.5t-12 39.5q0 22 10.5 41t25.5 34.5t32.5 28.5t31.5 23q-51 1 -51 52q0 20 3.5 31.5t6.5 24.5h-2q-36 -60 -85.5 -88t-124.5 -28q-30 0 -57.5 7t-48.5 22t-33.5 39t-12.5 58q0 52 19 84.5t50 50.5t71 24.5t83 6.5q20 1 38.5 1.5t36.5 0.5
q27 0 50 4.5t40.5 17.5t27 35t9.5 58q0 32 -10.5 52.5t-28.5 33t-43 17.5t-55 5q-78 1 -125.5 -36.5t-64.5 -104.5h-20q20 86 74.5 123t135.5 38q72 0 114.5 -30.5t42.5 -97.5q0 -18 -2.5 -33t-5.5 -30l-59 -251q-2 -9 -3 -16.5t-1 -18.5q0 -21 9.5 -27t21.5 -6q22 0 35 4
v-20q-57 -36 -85.5 -66.5t-28.5 -63.5q0 -14 8.5 -27t28.5 -13q23 0 43 11.5t35 28.5l13 -12q-15 -17 -38.5 -31.5t-52.5 -14.5zM133 8q48 0 86 14.5t67 40t48.5 61t30.5 77.5l21 89l-2 2q-10 -11 -31 -17t-46.5 -9t-52.5 -3.5t-49 -0.5q-37 -2 -73.5 -7.5t-65.5 -20.5
t-47.5 -43.5t-18.5 -75.5q0 -28 10.5 -48t29 -33t42.5 -19.5t51 -6.5z" />
    <glyph glyph-name="Cacute" unicode="&#x106;" horiz-adv-x="685" 
d="M648 252q-15 -59 -46 -108t-75.5 -84.5t-100 -55.5t-118.5 -20q-64 0 -115 20.5t-86.5 58t-54.5 91t-19 119.5q0 83 25 164.5t73.5 146.5t121 105.5t166.5 41.5q52 0 100 -15.5t85 -45.5t59 -73t22 -98h-20q0 50 -21 89.5t-55.5 66.5t-78.5 41.5t-91 14.5
q-88 0 -156 -37.5t-114.5 -99t-71 -140t-24.5 -161.5q0 -67 19.5 -117.5t54 -84.5t81 -51t100.5 -17q58 0 109 17.5t92.5 50t71.5 78.5t47 103h20zM367 751l163 144h28l-163 -144h-28z" />
    <glyph glyph-name="cacute" unicode="&#x107;" 
d="M443 359q0 72 -44 109.5t-119 37.5q-62 0 -108.5 -28t-77.5 -73t-46.5 -101.5t-15.5 -112.5q0 -84 44.5 -133.5t132.5 -49.5q70 2 122 39t81 118h20q-11 -41 -32.5 -73.5t-51 -55.5t-65 -35t-74.5 -12q-96 0 -146.5 54t-50.5 148q0 63 17.5 123t51.5 107.5t84 76
t115 28.5q85 0 134 -43t49 -124h-20zM234 587l163 144h28l-163 -144h-28z" />
    <glyph glyph-name="Eogonek" unicode="&#x118;" horiz-adv-x="519" 
d="M345 -188q-34 0 -46 18.5t-12 39.5q0 22 11 41.5t27 36t34.5 29.5t32.5 23h-401l152 714h453l-4 -20h-433l-67 -312h404l-4 -20h-405l-73 -342h451l-5 -20h-38q-57 -36 -85.5 -66.5t-28.5 -63.5q0 -14 8.5 -27t28.5 -13q23 0 43 11.5t35 28.5l13 -12q-15 -17 -38.5 -31.5
t-52.5 -14.5z" />
    <glyph glyph-name="eogonek" unicode="&#x119;" 
d="M167 -188q-34 0 -46 18.5t-12 39.5q0 19 8.5 36.5t21.5 32.5t29 27.5t30 22.5h-3q-48 0 -84 16t-60 44.5t-35.5 67t-11.5 82.5q0 60 16.5 118.5t50 105t84 75t117.5 28.5q46 0 81 -15.5t58 -42.5t35 -63.5t12 -78.5q0 -19 -1 -35.5t-3 -37.5h-427q-3 -22 -3 -55
q0 -60 17.5 -97t43.5 -57.5t55.5 -28t53.5 -7.5q81 0 135 38.5t77 122.5h21q-23 -88 -81 -134q-46 -37 -117 -44q-49 -32 -74 -61t-25 -60q0 -14 8.5 -27t28.5 -13q23 0 43 11.5t35 28.5l13 -12q-15 -17 -38.5 -31.5t-52.5 -14.5zM433 273q3 14 4 26t1 27q0 36 -10 69
t-31 57.5t-52 39t-73 14.5q-51 0 -92 -18.5t-71 -50.5t-49.5 -74t-28.5 -90h402z" />
    <glyph glyph-name="Nacute" unicode="&#x143;" horiz-adv-x="667" 
d="M161 691h-2l-145 -691h-20l151 714h27l344 -691h2l146 691h21l-153 -714h-27zM358 751l163 144h28l-163 -144h-28z" />
    <glyph glyph-name="nacute" unicode="&#x144;" 
d="M113 514l-13 -64l-13 -58l2 -2q35 63 84 99.5t124 36.5q67 0 109 -35.5t42 -104.5q0 -20 -4 -40.5t-8 -40.5l-64 -305h-21l65 310l8 38t4 38q-1 60 -37.5 90t-93.5 30t-98.5 -24t-70.5 -62t-47 -86.5t-28 -96.5l-51 -237h-20l110 514h21zM234 587l163 144h28l-163 -144
h-28z" />
    <glyph glyph-name="Sacute" unicode="&#x15a;" horiz-adv-x="611" 
d="M17 237q-6 -56 10.5 -99.5t50 -73.5t81.5 -45.5t106 -15.5q30 0 70.5 7.5t76.5 28t61 57.5t25 96q0 40 -17.5 66t-45.5 44t-64 29.5t-74 22.5t-74 24t-64 32.5t-45.5 48.5t-17.5 72q1 53 22 91t55 62t78 35.5t90 11.5q56 0 102 -12t78.5 -38.5t49 -68.5t12.5 -102h-20
q4 56 -11.5 94t-45.5 62t-72.5 34.5t-92.5 10.5q-41 0 -81 -10t-71.5 -32t-51.5 -56t-21 -82q-1 -39 16 -65t45 -43.5t64 -29.5t74 -23t74.5 -24t65 -33t46 -49t17.5 -72q0 -62 -25.5 -102.5t-64 -64t-82.5 -32.5t-81 -9q-60 0 -111.5 15t-88.5 46.5t-55.5 79t-12.5 112.5
h20zM320 751l163 144h28l-163 -144h-28z" />
    <glyph glyph-name="sacute" unicode="&#x15b;" horiz-adv-x="463" 
d="M392 360q5 39 -4 66.5t-29 45t-50 26t-67 8.5q-26 0 -53.5 -6t-50 -20t-37 -36t-14.5 -55q0 -26 10.5 -43.5t27 -29.5t38 -21t43.5 -18q26 -10 55 -19.5t53.5 -24.5t41 -38t16.5 -60q0 -41 -16 -69t-42.5 -45t-60.5 -24.5t-70 -7.5q-38 0 -72 7t-59.5 24t-40 45t-14.5 71
q0 10 1 19t1 19h20q-6 -46 3 -77.5t30.5 -51t54.5 -28.5t76 -9q31 0 61 6.5t54 21.5t39 39.5t15 59.5q0 27 -11 45t-29 30.5t-40 21t-44 17.5q-26 10 -54.5 19.5t-52 24.5t-39 37.5t-15.5 58.5t15 61.5t39.5 42.5t56 25t64.5 8q39 0 72.5 -8.5t57 -28t34.5 -51t6 -78.5h-20z
M206 587l163 144h28l-163 -144h-28z" />
    <glyph glyph-name="Zacute" unicode="&#x179;" 
d="M454 0h-532l4 24l626 670h-475l5 20h497l-4 -24l-626 -670h508zM274 751l163 144h28l-163 -144h-28z" />
    <glyph glyph-name="zacute" unicode="&#x17a;" horiz-adv-x="407" 
d="M326 0h-390l6 27l469 467h-355l4 20h384l-6 -23l-473 -471h366zM188 587l163 144h28l-163 -144h-28z" />
    <glyph glyph-name="Zdotaccent" unicode="&#x17b;" 
d="M454 0h-532l4 24l626 670h-475l5 20h497l-4 -24l-626 -670h508zM334 754h-21l13 81h21z" />
    <glyph glyph-name="zdotaccent" unicode="&#x17c;" horiz-adv-x="407" 
d="M326 0h-390l6 27l469 467h-355l4 20h384l-6 -23l-473 -471h366zM257 590h-21l13 81h21z" />
    <glyph glyph-name="uni0316" unicode="&#x316;" horiz-adv-x="0" 
d="M66 -127h-25l-112 144h25z" />
    <glyph glyph-name="uni0317" unicode="&#x317;" horiz-adv-x="0" 
d="M-72 -127l163 144h28l-163 -144h-28z" />
    <glyph glyph-name="uni0312" unicode="&#x312;" horiz-adv-x="0" 
d="M-21 620q8 31 25 56.5t49 37.5l-4 -26q-26 -14 -36 -34.5t-15 -43.5l-27 -121h-21z" />
    <glyph glyph-name="uni0313" unicode="&#x313;" horiz-adv-x="0" 
d="M24 583q-8 -31 -25 -56.5t-49 -37.5l4 26q26 14 36 34.5t15 43.5l27 121h21z" />
    <glyph glyph-name="uni0326" unicode="&#x326;" horiz-adv-x="0" 
d="M24 -130q-8 -31 -25 -56.5t-49 -37.5l4 26q26 14 36 34.5t15 43.5l27 121h21z" />
    <glyph glyph-name="dotbelowcomb" unicode="&#x323;" horiz-adv-x="0" 
d="M-24 -124h-21l13 81h21z" />
    <glyph glyph-name="uni0324" unicode="&#x324;" horiz-adv-x="0" 
d="M-61 -124h-21l13 81h21zM97 -124h-21l13 81h21z" />
    <glyph glyph-name="uni0325" unicode="&#x325;" horiz-adv-x="0" 
d="M-68 -50q0 -32 22 -54t54 -22t54 22t22 54t-22 54t-54 22t-54 -22t-22 -54zM-88 -50q0 40 28 68t68 28t68 -28t28 -68t-28 -68t-68 -28t-68 28t-28 68z" />
    <glyph glyph-name="uni0311" unicode="&#x311;" horiz-adv-x="0" 
d="M130 592q2 39 -23 65t-67 26q-43 0 -74.5 -25.5t-45.5 -65.5h-20q6 24 19 44.5t31.5 35t41 23t47.5 8.5q51 0 81 -30t30 -81h-20z" />
    <glyph glyph-name="uni030F" unicode="&#x30f;" horiz-adv-x="0" 
d="M66 587h-25l-112 144h25zM-64 587h-25l-112 144h25z" />
    <glyph glyph-name="uni032C" unicode="&#x32c;" horiz-adv-x="0" 
d="M-104 17h24l82 -130l124 130h26l-135 -144h-30z" />
    <glyph glyph-name="uni032D" unicode="&#x32d;" horiz-adv-x="0" 
d="M107 -127l-82 130l-124 -130h-26l135 144h30l91 -144h-24z" />
    <glyph glyph-name="uni032E" unicode="&#x32e;" horiz-adv-x="0" 
d="M-80 -11q-2 -39 23 -65t67 -26q43 0 74.5 25.5t45.5 65.5h20q-6 -24 -19 -44.5t-31.5 -35t-41 -23t-47.5 -8.5q-51 0 -81 30t-30 81h20z" />
    <glyph glyph-name="uni032F" unicode="&#x32f;" horiz-adv-x="0" 
d="M130 -122q2 39 -23 65t-67 26q-43 0 -74.5 -25.5t-45.5 -65.5h-20q6 24 19 44.5t31.5 35t41 23t47.5 8.5q51 0 81 -30t30 -81h-20z" />
    <glyph glyph-name="quotesinglbase.clone" horiz-adv-x="167" 
d="M58 98h-21l-27 -120q-5 -23 -14.5 -43.5t-35.5 -34.5l-4 -26q32 12 48.5 37.5t24.5 56.5z" />
    <glyph glyph-name="quotesinglbase.mirror" horiz-adv-x="167" 
d="M108.967 98h20.9932l26.9922 -120q4.99805 -23 14.4951 -43.5t35.4893 -34.5l3.99902 -26q-31.9902 12 -48.4854 37.5t-24.4922 56.5z" />
    <glyph glyph-name="quotedblbase.clone" horiz-adv-x="278" 
d="M162 98h-21l-27 -120q-5 -23 -15 -43.5t-36 -34.5l-4 -26q32 12 49 37.5t25 56.5zM61 98h-21l-27 -120q-5 -23 -14.5 -43.5t-35.5 -34.5l-4 -26q32 12 48.5 37.5t24.5 56.5z" />
    <glyph glyph-name="quotedblbase.mirror" horiz-adv-x="278" 
d="M115.965 98h20.9932l26.9922 -120q4.99805 -23 14.9951 -43.5t35.9893 -34.5l3.99902 -26q-31.9902 12 -48.9854 37.5t-24.9922 56.5zM216.934 98h20.9941l26.9912 -120q4.99902 -23 14.4961 -43.5t35.4893 -34.5l3.99805 -26q-31.9902 12 -48.4854 37.5
q-16.4941 25.5 -24.4922 56.5z" />
    <glyph glyph-name="partialdiff.clone" horiz-adv-x="442" 
d="M199 -13q-42 0 -74.5 21t-54 53.5t-33 71.5t-11.5 76q0 41 11.5 79t34.5 67.5t56.5 47.5t78.5 18q55 0 101.5 -29.5t76.5 -74.5q1 17 1.5 35t0.5 35q0 45 -9 99.5t-31 102t-59 80t-92 32.5q-37 0 -64 -12.5t-56 -33.5l-11 18q31 21 62 34t69 13q64 0 105.5 -35t65 -87.5
t32.5 -113t9 -110.5q0 -33 -3 -74.5t-11.5 -84.5t-23 -84t-37.5 -73t-56 -51.5t-78 -19.5zM200 5q49 0 83.5 31.5t56.5 76t32.5 93.5t10.5 85q-34 47 -77 79t-102 32q-38 0 -67.5 -16.5t-49 -44t-29.5 -62t-10 -70.5q0 -33 10 -69t29 -66t47.5 -49.5t65.5 -19.5z" />
    <glyph glyph-name="partialdiff.mirror" horiz-adv-x="442" 
d="M242.926 -13q41.9873 0 74.4775 21t53.9834 53.5t32.9902 71.5q11.4961 39 11.4961 76q0 41 -11.4961 79q-11.4971 38 -34.4902 67.5q-22.9922 29.5 -56.4824 47.5t-78.4756 18q-54.9834 0 -101.47 -29.5q-46.4854 -29.5 -76.4766 -74.5q-1 17 -1.49902 35
q-0.5 18 -0.5 35q0 45 8.99707 99.5t30.9902 102t58.9824 80q36.9883 32.5 91.9717 32.5q36.9893 0 63.9805 -12.5q26.9922 -12.5 55.9834 -33.5l10.9961 18q-30.9902 21 -61.9805 34q-30.9912 13 -68.9795 13q-63.9805 0 -105.468 -35t-64.9805 -87.5
q-23.4922 -52.5 -32.4893 -113q-8.99805 -60.5 -8.99805 -110.5q0 -33 2.99902 -74.5q3 -41.5 11.4971 -84.5t22.9932 -84q14.4951 -41 37.4883 -73t55.9824 -51.5q32.9902 -19.5 77.9766 -19.5zM241.926 5q-48.9844 0 -83.4746 31.5q-34.4893 31.5 -56.4824 76
t-32.4902 93.5q-10.4961 49 -10.4961 85q33.9893 47 76.9766 79q42.9863 32 101.969 32q37.9883 0 67.4795 -16.5q29.4902 -16.5 48.9844 -44t29.4912 -62t9.99707 -70.5q0 -33 -9.99707 -69t-28.9912 -66t-47.4854 -49.5t-65.4805 -19.5z" />
    <glyph glyph-name="summation.clone" horiz-adv-x="504" 
d="M26 -196l341 486l-326 478v18h479v-20h-453l324 -475l-340 -485h479v-20h-504v18z" />
    <glyph glyph-name="summation.mirror" horiz-adv-x="504" 
d="M477.854 -196l-340.896 486l325.9 478v18h-478.854v-20h452.861l-323.9 -475l339.896 -485h-478.854v-20h503.847v18z" />
    <glyph glyph-name="radical.clone" horiz-adv-x="490" 
d="M53 167l-44 -21l-9 18l62 30l178 -366l210 952l20 -3l-219 -996h-10z" />
    <glyph glyph-name="radical.mirror" horiz-adv-x="490" 
d="M436.866 167l43.9873 -21l8.99707 18l-61.9814 30l-177.945 -366l-209.936 952l-19.9941 -3l218.933 -996h9.99707z" />
    <glyph glyph-name="integral.clone" horiz-adv-x="252" 
d="M47 -214q-12 0 -22 7t-10 20q0 10 6 16.5t16 6.5q7 0 12.5 -3.5t9 -8t7 -8t6.5 -3.5q13 0 21 18.5t12.5 44.5t5.5 55.5t1 52.5v596q0 31 3 67t12 67t26.5 51.5t47.5 20.5q13 0 24.5 -6.5t11.5 -21.5q0 -10 -6.5 -16t-16.5 -6q-12 0 -17 6.5t-13 14.5q-1 0 -2.5 1t-2.5 1
q-11 0 -18.5 -12t-12.5 -27.5t-7.5 -31.5t-3.5 -23q-3 -33 -4 -66t-1 -66v-553q0 -35 -1.5 -70t-9.5 -62.5t-25 -44.5t-49 -17z" />
    <glyph glyph-name="integral.mirror" horiz-adv-x="252" 
d="M204.938 -214q11.9961 0 21.9932 7t9.99707 20q0 10 -5.99805 16.5t-15.9951 6.5q-6.99805 0 -12.4961 -3.5q-5.49902 -3.5 -8.99707 -8q-3.49902 -4.5 -6.99805 -8t-6.49805 -3.5q-12.9961 0 -20.9941 18.5q-7.99707 18.5 -12.4961 44.5q-4.49805 26 -5.49805 55.5
t-1 52.5v596q0 31 -2.99902 67t-11.9961 67t-26.4922 51.5q-17.4941 20.5 -47.4854 20.5q-12.9961 0 -24.4922 -6.5q-11.4971 -6.5 -11.4971 -21.5q0 -10 6.49805 -16t16.4951 -6q11.9961 0 16.9951 6.5q4.99805 6.5 12.9961 14.5q0.999023 0 2.49902 1t2.49902 1
q10.9971 0 18.4941 -12q7.49805 -12 12.4971 -27.5q4.99805 -15.5 7.49707 -31.5t3.49902 -23q2.99902 -33 3.99902 -66q0.999023 -33 0.999023 -66v-553q0 -35 1.5 -70t9.49707 -62.5q7.99805 -27.5 24.9922 -44.5q16.9951 -17 48.9854 -17z" />
    <glyph glyph-name="approxequal.clone" horiz-adv-x="600" 
d="M45 115q5 19 15.5 37.5t25 33t33 23.5t40.5 9q15 0 34 -4.5t40 -11.5t42.5 -14.5t39.5 -14.5q33 -12 67.5 -22t56.5 -10q36 0 59.5 24.5t34.5 56.5h21q-5 -18 -15 -36t-24.5 -32.5t-32.5 -23.5t-39 -9q-33 0 -72.5 13t-70.5 24q-11 4 -29.5 10.5t-39 13t-40.5 11.5t-33 5
q-17 0 -32 -7.5t-26.5 -19t-20 -26.5t-13.5 -30h-21zM45 281q5 19 15.5 37.5t25 33t33 23.5t40.5 9q15 0 34 -4.5t40 -11.5t42.5 -14.5t39.5 -14.5q33 -12 67.5 -22t56.5 -10q36 0 59.5 24.5t34.5 56.5h21q-5 -18 -15 -36t-24.5 -32.5t-32.5 -23.5t-39 -9q-33 0 -72.5 13
t-70.5 24q-11 4 -29.5 10.5t-39 13t-40.5 11.5t-33 5q-17 0 -32 -7.5t-26.5 -19t-20 -26.5t-13.5 -30h-21z" />
    <glyph glyph-name="approxequal.mirror" horiz-adv-x="600" 
d="M554.831 115q-4.99902 19 -15.4961 37.5q-10.4961 18.5 -24.9922 33q-14.4951 14.5 -32.9893 23.5q-18.4951 9 -40.4883 9q-14.9951 0 -33.9893 -4.5t-39.9883 -11.5q-20.9932 -7 -42.4863 -14.5q-21.4941 -7.5 -39.4883 -14.5q-32.9902 -12 -67.4795 -22t-56.4824 -10
q-35.9893 0 -59.4824 24.5q-23.4922 24.5 -34.4893 56.5h-20.9932q4.99805 -18 14.9951 -36t24.4922 -32.5q14.4961 -14.5 32.4902 -23.5q17.9951 -9 38.9883 -9q32.9902 0 72.4775 13q39.4883 13 70.4785 24q10.9971 4 29.4912 10.5t38.9883 13q20.4932 6.5 40.4873 11.5
t32.9902 5q16.9951 0 31.9902 -7.5t26.4922 -19q11.4961 -11.5 19.9932 -26.5q8.49805 -15 13.4961 -30h20.9941zM554.831 281q-4.99902 19 -15.4961 37.5q-10.4961 18.5 -24.9922 33q-14.4951 14.5 -32.9893 23.5q-18.4951 9 -40.4883 9q-14.9951 0 -33.9893 -4.5
t-39.9883 -11.5q-20.9932 -7 -42.4863 -14.5q-21.4941 -7.5 -39.4883 -14.5q-32.9902 -12 -67.4795 -22t-56.4824 -10q-35.9893 0 -59.4824 24.5q-23.4922 24.5 -34.4893 56.5h-20.9932q4.99805 -18 14.9951 -36t24.4922 -32.5q14.4961 -14.5 32.4902 -23.5
q17.9951 -9 38.9883 -9q32.9902 0 72.4775 13q39.4883 13 70.4785 24q10.9971 4 29.4912 10.5t38.9883 13q20.4932 6.5 40.4873 11.5t32.9902 5q16.9951 0 31.9902 -7.5t26.4922 -19q11.4961 -11.5 19.9932 -26.5q8.49805 -15 13.4961 -30h20.9941z" />
    <glyph glyph-name="notequal.clone" horiz-adv-x="600" 
d="M163 21l67 125h-182v20h192l94 174h-286v20h296l73 135l18 -9l-68 -126h185v-20h-195l-94 -174h289v-20h-299l-72 -134z" />
    <glyph glyph-name="notequal.mirror" horiz-adv-x="600" 
d="M436.866 21l-66.9795 125h181.945v20h-191.941l-93.9717 174h285.913v20h-295.91l-72.9775 135l-17.9951 -9l67.9795 -126h-184.943v-20h194.94l93.9717 -174h-288.912v-20h298.909l71.9775 -134z" />
    <glyph glyph-name="clickdental" unicode="&#x1c0;" horiz-adv-x="222" 
d="M101 -213h20v999h-20v-999z" />
    <glyph glyph-name="clicklateral" unicode="&#x1c1;" horiz-adv-x="444" 
d="M101 -213h20v999h-20v-999zM323 -213h20v999h-20v-999z" />
    <glyph glyph-name="centigrade" unicode="&#x2103;" horiz-adv-x="963" 
d="M47 554q0 -28 11 -53.5t29.5 -44t44 -29.5t53.5 -11q29 0 54 11t43.5 29.5t29.5 44t11 53.5q0 29 -11 54t-29.5 43.5t-43.5 29.5t-54 11q-28 0 -53.5 -11t-44 -29.5t-29.5 -43.5t-11 -54zM67 554q0 24 9.5 45.5t25.5 37.5t37.5 25.5t45.5 9.5t45.5 -9.5t37.5 -25.5
t25.5 -37.5t9.5 -45.5t-9.5 -45.5t-25.5 -37.5t-37.5 -25.5t-45.5 -9.5t-45.5 9.5t-37.5 25.5t-25.5 37.5t-9.5 45.5zM926 252h-20q-17 -57 -47 -103t-71.5 -78.5t-92.5 -50t-109 -17.5q-54 0 -100.5 17t-81 51t-54 84.5t-19.5 117.5q0 83 24.5 161.5t71 140t114.5 99
t156 37.5q47 0 91 -14.5t78.5 -41.5t55.5 -66.5t21 -89.5h20q0 55 -22 98t-59 73t-85 45.5t-100 15.5q-94 -1 -166.5 -41.5t-121 -105.5t-73.5 -146.5t-25 -164.5q0 -66 19 -119.5t54.5 -91t86.5 -58t115 -20.5q63 0 118.5 20t100 55.5t75.5 84.5t46 108z" />
    <glyph glyph-name="fahrenheit" unicode="&#x2109;" horiz-adv-x="759" 
d="M47 554q0 -28 11 -53.5t29.5 -44t44 -29.5t53.5 -11q29 0 54 11t43.5 29.5t29.5 44t11 53.5q0 29 -11 54t-29.5 43.5t-43.5 29.5t-54 11q-28 0 -53.5 -11t-44 -29.5t-29.5 -43.5t-11 -54zM67 554q0 24 9.5 45.5t25.5 37.5t37.5 25.5t45.5 9.5t45.5 -9.5t37.5 -25.5
t25.5 -37.5t9.5 -45.5t-9.5 -45.5t-25.5 -37.5t-37.5 -25.5t-45.5 -9.5t-45.5 9.5t-37.5 25.5t-25.5 37.5t-9.5 45.5zM743 362l3 20h-376l67 312h416l4 20h-436l-152 -714h19l78 362h377z" />
    <glyph glyph-name="kelvin" unicode="&#x212a;" horiz-adv-x="593" 
d="M69 262l183 133l284 -395h24l-292 407l416 307h-33l-576 -424l90 424h-20l-151 -714h19z" />
    <glyph glyph-name="angstrom" unicode="&#x212b;" horiz-adv-x="574" 
d="M303 828q0 32 22 54t54 22t54 -22t22 -54t-22 -54t-54 -22t-54 22t-22 54zM283 828q0 -40 28 -68t68 -28t68 28t28 68t-28 68t-68 28t-68 -28t-28 -68zM458 235l44 -235h20l-132 714h-20l-446 -714h22l146 235h366zM455 255h-350l269 431h2z" />
    <glyph glyph-name="Oneroman" unicode="&#x2160;" horiz-adv-x="148" 
d="M-6 0h19l153 714h-20z" />
    <glyph glyph-name="Tworoman" unicode="&#x2161;" horiz-adv-x="296" 
d="M-6 0h19l153 714h-20zM142 0h19l153 714h-20z" />
    <glyph glyph-name="Threeroman" unicode="&#x2162;" horiz-adv-x="444" 
d="M-6 0h19l153 714h-20zM142 0h19l153 714h-20zM290 0h19l153 714h-20z" />
    <glyph glyph-name="Fourroman" unicode="&#x2163;" horiz-adv-x="704" 
d="M-6 0h19l153 714h-20zM341 0h28l422 714h-22l-410 -694h-2l-122 694h-20z" />
    <glyph glyph-name="Fiveroman" unicode="&#x2164;" horiz-adv-x="556" 
d="M193 0h28l422 714h-22l-410 -694h-2l-122 694h-20z" />
    <glyph glyph-name="Sixroman" unicode="&#x2165;" horiz-adv-x="704" 
d="M193 0h28l422 714h-22l-410 -694h-2l-122 694h-20zM550 0h19l153 714h-20z" />
    <glyph glyph-name="Sevenroman" unicode="&#x2166;" horiz-adv-x="852" 
d="M193 0h28l422 714h-22l-410 -694h-2l-122 694h-20zM550 0h19l153 714h-20zM698 0h19l153 714h-20z" />
    <glyph glyph-name="Eightroman" unicode="&#x2167;" horiz-adv-x="1000" 
d="M193 0h28l422 714h-22l-410 -694h-2l-122 694h-20zM550 0h19l153 714h-20zM698 0h19l153 714h-20zM846 0h19l153 714h-20z" />
    <glyph glyph-name="Nineroman" unicode="&#x2168;" horiz-adv-x="667" 
d="M-6 0h19l153 714h-20zM597 0h23l-192 365l331 349h-26l-314 -331l-175 331h-23l182 -345l-348 -369h26l331 351z" />
    <glyph glyph-name="Tenroman" unicode="&#x2169;" horiz-adv-x="519" 
d="M449 0h23l-192 365l331 349h-26l-314 -331l-175 331h-23l182 -345l-348 -369h26l331 351z" />
    <glyph glyph-name="Elevenroman" unicode="&#x216a;" horiz-adv-x="667" 
d="M449 0h23l-192 365l331 349h-26l-314 -331l-175 331h-23l182 -345l-348 -369h26l331 351zM513 0h19l153 714h-20z" />
    <glyph glyph-name="Twelveroman" unicode="&#x216b;" horiz-adv-x="815" 
d="M449 0h23l-192 365l331 349h-26l-314 -331l-175 331h-23l182 -345l-348 -369h26l331 351zM513 0h19l153 714h-20zM661 0h19l153 714h-20z" />
    <glyph glyph-name="uni216C" unicode="&#x216c;" horiz-adv-x="481" 
d="M431 20h-413l149 694h-21l-152 -714h432z" />
    <glyph glyph-name="uni216D" unicode="&#x216d;" horiz-adv-x="685" 
d="M648 252h-20q-17 -57 -47 -103t-71.5 -78.5t-92.5 -50t-109 -17.5q-54 0 -100.5 17t-81 51t-54 84.5t-19.5 117.5q0 83 24.5 161.5t71 140t114.5 99t156 37.5q47 0 91 -14.5t78.5 -41.5t55.5 -66.5t21 -89.5h20q0 55 -22 98t-59 73t-85 45.5t-100 15.5
q-94 -1 -166.5 -41.5t-121 -105.5t-73.5 -146.5t-25 -164.5q0 -66 19 -119.5t54.5 -91t86.5 -58t115 -20.5q63 0 118.5 20t100 55.5t75.5 84.5t46 108z" />
    <glyph glyph-name="uni216E" unicode="&#x216e;" horiz-adv-x="667" 
d="M150 714l-156 -714h220q46 0 87 3.5t79 15.5t73.5 35t69.5 61q27 30 47.5 68.5t34.5 80.5t21 85.5t7 84.5q0 69 -15 117t-41 79t-59.5 48t-70.5 25t-75 9.5t-72 1.5h-150zM18 20l148 674h134q41 0 80 -2.5t74 -11.5t64 -26t50 -45.5t33 -71.5t12 -103q0 -47 -8.5 -92
t-23.5 -85t-34.5 -73.5t-41.5 -57.5q-33 -35 -64.5 -56t-66 -32t-73.5 -14.5t-87 -3.5h-196z" />
    <glyph glyph-name="uni216F" unicode="&#x216f;" horiz-adv-x="796" 
d="M144 714l-150 -714h20l145 685h2l154 -685h26l444 685l2 -2l-146 -683h21l152 714h-32l-450 -692h-2l-156 692h-30z" />
    <glyph glyph-name="oneroman" unicode="&#x2170;" horiz-adv-x="130" 
d="M129 714l-23 -104h22l23 104h-22zM1 0l110 514h-22l-109 -514h21z" />
    <glyph glyph-name="tworoman" unicode="&#x2171;" horiz-adv-x="260" 
d="M129 714l-23 -104h22l23 104h-22zM1 0l110 514h-22l-109 -514h21zM259 714l-23 -104h22l23 104h-22zM131 0l110 514h-22l-109 -514h21z" />
    <glyph glyph-name="threeroman" unicode="&#x2172;" horiz-adv-x="390" 
d="M129 714l-23 -104h22l23 104h-22zM1 0l110 514h-22l-109 -514h21zM259 714l-23 -104h22l23 104h-22zM131 0l110 514h-22l-109 -514h21zM389 714l-23 -104h22l23 104h-22zM261 0l110 514h-22l-109 -514h21z" />
    <glyph glyph-name="fourroman" unicode="&#x2173;" horiz-adv-x="537" 
d="M129 714l-23 -104h22l23 104h-22zM1 0l110 514h-22l-109 -514h21zM245 0h27l296 514h-23l-283 -494h-2l-88 494h-21z" />
    <glyph glyph-name="fiveroman" unicode="&#x2174;" horiz-adv-x="407" 
d="M115 0h27l296 514h-23l-283 -494h-2l-88 494h-21z" />
    <glyph glyph-name="sixroman" unicode="&#x2175;" horiz-adv-x="537" 
d="M115 0h27l296 514h-23l-283 -494h-2l-88 494h-21zM536 714l-23 -104h22l23 104h-22zM408 0l110 514h-22l-109 -514h21z" />
    <glyph glyph-name="sevenroman" unicode="&#x2176;" horiz-adv-x="667" 
d="M115 0h27l296 514h-23l-283 -494h-2l-88 494h-21zM536 714l-23 -104h22l23 104h-22zM408 0l110 514h-22l-109 -514h21zM666 714l-23 -104h22l23 104h-22zM538 0l110 514h-22l-109 -514h21z" />
    <glyph glyph-name="eightroman" unicode="&#x2177;" horiz-adv-x="797" 
d="M115 0h27l296 514h-23l-283 -494h-2l-88 494h-21zM536 714l-23 -104h22l23 104h-22zM408 0l110 514h-22l-109 -514h21zM666 714l-23 -104h22l23 104h-22zM538 0l110 514h-22l-109 -514h21zM796 714l-23 -104h22l23 104h-22zM668 0l110 514h-22l-109 -514h21z" />
    <glyph glyph-name="nineroman" unicode="&#x2178;" horiz-adv-x="537" 
d="M129 714l-23 -104h22l23 104h-22zM1 0l110 514h-22l-109 -514h21zM80 0l240 252l139 -252h23l-146 265l232 249h-26l-218 -232l-126 232h-23l133 -246l-255 -268h27z" />
    <glyph glyph-name="tenroman" unicode="&#x2179;" horiz-adv-x="407" 
d="M-50 0l240 252l139 -252h23l-146 265l232 249h-26l-218 -232l-126 232h-23l133 -246l-255 -268h27z" />
    <glyph glyph-name="elevenroman" unicode="&#x217a;" horiz-adv-x="537" 
d="M-50 0l240 252l139 -252h23l-146 265l232 249h-26l-218 -232l-126 232h-23l133 -246l-255 -268h27zM536 714l-23 -104h22l23 104h-22zM408 0l110 514h-22l-109 -514h21z" />
    <glyph glyph-name="twelveroman" unicode="&#x217b;" horiz-adv-x="667" 
d="M-50 0l240 252l139 -252h23l-146 265l232 249h-26l-218 -232l-126 232h-23l133 -246l-255 -268h27zM536 714l-23 -104h22l23 104h-22zM408 0l110 514h-22l-109 -514h21zM666 714l-23 -104h22l23 104h-22zM538 0l110 514h-22l-109 -514h21z" />
    <glyph glyph-name="uni217C" unicode="&#x217c;" horiz-adv-x="130" 
d="M-20 0h21l150 714h-22z" />
    <glyph glyph-name="uni217D" unicode="&#x217d;" 
d="M443 359h20q0 81 -49 124t-134 43q-65 0 -115 -28.5t-84 -76t-51.5 -107.5t-17.5 -123q0 -94 50.5 -148t146.5 -54q39 0 74.5 12t65 35t51 55.5t32.5 73.5h-20q-29 -81 -81 -118t-122 -39q-88 0 -132.5 49.5t-44.5 133.5q0 56 15.5 112.5t46.5 101.5t77.5 73t108.5 28
q75 0 119 -37.5t44 -109.5z" />
    <glyph glyph-name="uni217E" unicode="&#x217e;" horiz-adv-x="537" 
d="M392 76l-16 -76h21l154 714h-21l-62 -285l-12 -65h-2q0 78 -49.5 120t-127.5 42q-64 0 -114.5 -32.5t-85.5 -83t-53 -111t-18 -116.5q0 -90 47 -142t137 -52q41 0 74.5 11.5t60.5 32t47 48.5t34 60l2 -2zM440 336q-1 -54 -17 -112t-47.5 -106t-78 -79t-108.5 -31
q-40 0 -71 13t-51 36.5t-30.5 55.5t-10.5 70q0 53 16 110t48 104.5t79 78t108 30.5q81 0 122 -46t41 -124z" />
    <glyph glyph-name="thousandroman" unicode="&#x217f;" horiz-adv-x="778" 
d="M88 514l-110 -514h21l60 279q7 37 25 77t44.5 73.5t61.5 55t76 21.5q51 0 81 -31t30 -82q0 -13 -1.5 -25t-3.5 -24l-73 -344h21l64 292q7 34 21.5 71.5t38.5 69t57.5 52.5t78.5 21q57 0 89.5 -31t32.5 -85q0 -20 -2.5 -33t-6.5 -30l-72 -327h21l68 308q5 21 8.5 42
t3.5 40q0 66 -39.5 101t-102.5 35q-33 0 -62 -11t-52 -30t-40 -44.5t-27 -55.5l-2 2q1 30 -7 55t-24.5 44t-41.5 29.5t-58 10.5q-31 0 -58 -10.5t-49.5 -28.5t-40.5 -41.5t-31 -49.5h-2l25 118h-22z" />
    <glyph glyph-name="Dcroat" unicode="&#x110;" horiz-adv-x="667" 
d="M-8 362h81l-79 -362h220q46 0 87 3.5t79 15.5t73.5 35t69.5 61q27 30 47.5 68.5t34.5 80.5t21 85.5t7 84.5q0 69 -15 117t-41 79t-59.5 48t-70.5 25t-75 9.5t-72 1.5h-150l-73 -332h-81zM93 362h262l4 20h-262l69 312h134q41 0 80 -2.5t74 -11.5t64 -26t50 -45.5
t33 -71.5t12 -103q0 -47 -8.5 -92t-23.5 -85t-34.5 -73.5t-41.5 -57.5q-33 -35 -64.5 -56t-66 -32t-73.5 -14.5t-87 -3.5h-196z" />
    <glyph glyph-name="Ibreve" unicode="&#x12c;" horiz-adv-x="148" 
d="M-6 0h19l153 714h-20zM79 881h-20q0 -51 30 -81t81 -30q25 0 47.5 8.5t41 23t31.5 35t19 44.5h-20q-14 -40 -45.5 -65.5t-74.5 -25.5q-42 0 -67 26t-23 65z" />
    <glyph glyph-name="ibreve" unicode="&#x12d;" horiz-adv-x="130" 
d="M1 0l110 514h-22l-109 -514h21zM36 679h-20q0 -51 30 -81t81 -30q25 0 47.5 8.5t41 23t31.5 35t19 44.5h-20q-14 -40 -45.5 -65.5t-74.5 -25.5q-42 0 -67 26t-23 65z" />
    <glyph glyph-name="Idotaccent" unicode="&#x130;" horiz-adv-x="148" 
d="M-6 0h19l153 714h-20zM195 851h-21l-13 -81h21z" />
    <glyph glyph-name="IJ" unicode="&#x132;" horiz-adv-x="611" 
d="M-6 0h19l153 714h-20zM629 714h-21l-111 -520q-9 -40 -21.5 -75t-33.5 -61t-52.5 -40.5t-78.5 -14.5q-75 0 -119 34.5t-44 106.5q0 16 2 35.5t6 40.5h-19q-5 -17 -7 -35t-2 -41q0 -72 44.5 -116t138.5 -44q54 0 89.5 17.5t58.5 46t36 64.5t21 73z" />
    <glyph glyph-name="ij" unicode="&#x133;" horiz-adv-x="260" 
d="M129 714l-23 -104h22l23 104h-22zM1 0l110 514h-22l-109 -514h21zM259 714l-23 -104h22l23 104h-22zM122 -42l119 556h-22l-117 -548l-10.5 -42t-16 -40t-27 -30t-43.5 -12q-4 1 -8 1h-9h-10q-6 0 -11 1l-3 -18q10 -1 19.5 -1.5t21.5 -0.5q32 0 52 11t32.5 29.5
t19.5 42.5t13 51z" />
    <glyph glyph-name="Jcircumflex" unicode="&#x134;" horiz-adv-x="463" 
d="M481 714h-21l-111 -520q-9 -40 -21.5 -75t-33.5 -61t-52.5 -40.5t-78.5 -14.5q-75 0 -119 34.5t-44 106.5q0 16 2 35.5t6 40.5h-19q-5 -17 -7 -35t-2 -41q0 -72 44.5 -116t138.5 -44q54 0 89.5 17.5t58.5 46t36 64.5t21 73zM612 761l-91 144h-30l-135 -144h26l124 130
l82 -130h24z" />
    <glyph glyph-name="napostrophe" unicode="&#x149;" horiz-adv-x="599" 
d="M179 720h-21l-27 -121q-5 -23 -15 -43.5t-36 -34.5l-4 -26q32 12 49 37.5t25 56.5zM191 514l-110 -514h20l51 237q10 48 28 96.5t47 86.5t70.5 62t98.5 24t93.5 -30t37.5 -90q0 -19 -4 -38l-8 -38l-65 -310h21l64 305q4 20 8 40.5t4 40.5q0 69 -42 104.5t-109 35.5
q-75 0 -124 -36.5t-84 -99.5l-2 2l13 58l13 64h-21z" />
    <glyph glyph-name="clickretroflex" unicode="&#x1c3;" horiz-adv-x="185" 
d="M163 714l-118 -532h21l118 532h-21zM28 98l-22 -98h21l22 98h-21z" />
    <glyph glyph-name="DZcaron" unicode="&#x1c4;" horiz-adv-x="1167" 
d="M150 714l-156 -714h220q46 0 87 3.5t79 15.5t73.5 35t69.5 61q27 30 47.5 68.5t34.5 80.5t21 85.5t7 84.5q0 69 -15 117t-41 79t-59.5 48t-70.5 25t-75 9.5t-72 1.5h-150zM18 20l148 674h134q41 0 80 -2.5t74 -11.5t64 -26t50 -45.5t33 -71.5t12 -103q0 -47 -8.5 -92
t-23.5 -85t-34.5 -73.5t-41.5 -57.5q-33 -35 -64.5 -56t-66 -32t-73.5 -14.5t-87 -3.5h-196zM1124 20h-508l626 670l4 24h-497l-5 -20h475l-626 -670l-4 -24h532zM971 767h30l135 144h-26l-124 -130l-82 130h-24z" />
    <glyph glyph-name="Dzcaron" unicode="&#x1c5;" horiz-adv-x="1074" 
d="M150 714l-156 -714h220q46 0 87 3.5t79 15.5t73.5 35t69.5 61q27 30 47.5 68.5t34.5 80.5t21 85.5t7 84.5q0 69 -15 117t-41 79t-59.5 48t-70.5 25t-75 9.5t-72 1.5h-150zM18 20l148 674h134q41 0 80 -2.5t74 -11.5t64 -26t50 -45.5t33 -71.5t12 -103q0 -47 -8.5 -92
t-23.5 -85t-34.5 -73.5t-41.5 -57.5q-33 -35 -64.5 -56t-66 -32t-73.5 -14.5t-87 -3.5h-196zM998 20h-366l473 471l6 23h-384l-4 -20h355l-469 -467l-6 -27h390zM912 568h30l135 144h-26l-124 -130l-82 130h-24z" />
    <glyph glyph-name="dzcaron" unicode="&#x1c6;" horiz-adv-x="944" 
d="M392 76l-16 -76h21l154 714h-21l-62 -285l-12 -65h-2q0 78 -49.5 120t-127.5 42q-64 0 -114.5 -32.5t-85.5 -83t-53 -111t-18 -116.5q0 -90 47 -142t137 -52q41 0 74.5 11.5t60.5 32t47 48.5t34 60l2 -2zM440 336q-1 -54 -17 -112t-47.5 -106t-78 -79t-108.5 -31
q-40 0 -71 13t-51 36.5t-30.5 55.5t-10.5 70q0 53 16 110t48 104.5t79 78t108 30.5q81 0 122 -46t41 -124zM868 20h-366l473 471l6 23h-384l-4 -20h355l-469 -467l-6 -27h390zM782 568h30l135 144h-26l-124 -130l-82 130h-24z" />
    <glyph glyph-name="LJ" unicode="&#x1c7;" horiz-adv-x="944" 
d="M431 20h-413l149 694h-21l-152 -714h432zM962 714h-21l-111 -520q-9 -40 -21.5 -75t-33.5 -61t-52.5 -40.5t-78.5 -14.5q-75 0 -119 34.5t-44 106.5q0 16 2 35.5t6 40.5h-19q-5 -17 -7 -35t-2 -41q0 -72 44.5 -116t138.5 -44q54 0 89.5 17.5t58.5 46t36 64.5t21 73z" />
    <glyph glyph-name="Lj" unicode="&#x1c8;" horiz-adv-x="611" 
d="M431 20h-413l149 694h-21l-152 -714h432zM610 714l-23 -104h22l23 104h-22zM473 -42l119 556h-22l-117 -548l-10.5 -42t-16 -40t-27 -30t-43.5 -12q-4 1 -8 1h-9h-10q-6 0 -11 1l-3 -18q10 -1 19.5 -1.5t21.5 -0.5q32 0 52 11t32.5 29.5t19.5 42.5t13 51z" />
    <glyph glyph-name="lj" unicode="&#x1c9;" horiz-adv-x="260" 
d="M-20 0h21l150 714h-22zM259 714l-23 -104h22l23 104h-22zM122 -42l119 556h-22l-117 -548l-10.5 -42t-16 -40t-27 -30t-43.5 -12q-4 1 -8 1h-9h-10q-6 0 -11 1l-3 -18q10 -1 19.5 -1.5t21.5 -0.5q32 0 52 11t32.5 29.5t19.5 42.5t13 51z" />
    <glyph glyph-name="NJ" unicode="&#x1ca;" horiz-adv-x="1130" 
d="M505 0h27l153 714h-21l-146 -691h-2l-344 691h-27l-151 -714h20l145 691h2zM1148 714h-21l-111 -520q-9 -40 -21.5 -75t-33.5 -61t-52.5 -40.5t-78.5 -14.5q-75 0 -119 34.5t-44 106.5q0 16 2 35.5t6 40.5h-19q-5 -17 -7 -35t-2 -41q0 -72 44.5 -116t138.5 -44
q54 0 89.5 17.5t58.5 46t36 64.5t21 73z" />
    <glyph glyph-name="Nj" unicode="&#x1cb;" horiz-adv-x="797" 
d="M505 0h27l153 714h-21l-146 -691h-2l-344 691h-27l-151 -714h20l145 691h2zM796 714l-23 -104h22l23 104h-22zM659 -42l119 556h-22l-117 -548l-10.5 -42t-16 -40t-27 -30t-43.5 -12q-4 1 -8 1h-9h-10q-6 0 -11 1l-3 -18q10 -1 19.5 -1.5t21.5 -0.5q32 0 52 11t32.5 29.5
t19.5 42.5t13 51z" />
    <glyph glyph-name="nj" unicode="&#x1cc;" horiz-adv-x="630" 
d="M92 514l-110 -514h20l51 237q10 48 28 96.5t47 86.5t70.5 62t98.5 24t93.5 -30t37.5 -90q0 -19 -4 -38l-8 -38l-65 -310h21l64 305q4 20 8 40.5t4 40.5q0 69 -42 104.5t-109 35.5q-75 0 -124 -36.5t-84 -99.5l-2 2l13 58l13 64h-21zM629 714l-23 -104h22l23 104h-22z
M492 -42l119 556h-22l-117 -548l-10.5 -42t-16 -40t-27 -30t-43.5 -12q-4 1 -8 1h-9h-10q-6 0 -11 1l-3 -18q10 -1 19.5 -1.5t21.5 -0.5q32 0 52 11t32.5 29.5t19.5 42.5t13 51z" />
    <glyph glyph-name="Acaron" unicode="&#x1cd;" horiz-adv-x="574" 
d="M458 235l44 -235h20l-132 714h-20l-446 -714h22l146 235h366zM455 255h-350l269 431h2zM382 764h30l135 144h-26l-124 -130l-82 130h-24z" />
    <glyph glyph-name="acaron" unicode="&#x1ce;" horiz-adv-x="481" 
d="M59 365h20q17 67 64.5 104.5t125.5 36.5q30 0 55 -5t43 -17.5t28.5 -33t10.5 -52.5q0 -36 -9.5 -58t-27 -35t-40.5 -17.5t-50 -4.5q-18 0 -36.5 -0.5t-38.5 -1.5q-43 0 -83 -6.5t-71 -24.5t-50 -50.5t-19 -84.5q0 -34 12.5 -58t33.5 -39t48.5 -22t57.5 -7q75 0 124.5 28
t85.5 88h2q-3 -13 -6.5 -24.5t-3.5 -31.5q0 -52 52 -52q18 0 34 3v20q-13 -4 -35 -4q-12 0 -21.5 6t-9.5 27q0 11 1 18.5t3 16.5l59 251q3 15 5.5 30t2.5 33q0 67 -42.5 97.5t-114.5 30.5q-81 -1 -135.5 -38t-74.5 -123zM386 290l-21 -89q-11 -42 -30.5 -77.5t-48.5 -61
t-67 -40t-86 -14.5q-27 0 -51 6.5t-42.5 19.5t-29 33t-10.5 48q0 47 18.5 75.5t47.5 43.5t65.5 20.5t73.5 7.5q22 0 49 0.5t52.5 3.5t46.5 9t31 17zM283 580h30l135 144h-26l-124 -130l-82 130h-24z" />
    <glyph glyph-name="Icaron" unicode="&#x1cf;" horiz-adv-x="148" 
d="M-6 0h19l153 714h-20zM145 759h30l135 144h-26l-124 -130l-82 130h-24z" />
    <glyph glyph-name="icaron" unicode="&#x1d0;" horiz-adv-x="130" 
d="M1 0l110 514h-22l-109 -514h21zM105 568h30l135 144h-26l-124 -130l-82 130h-24z" />
    <glyph glyph-name="Ocaron" unicode="&#x1d1;" horiz-adv-x="722" 
d="M677 434q0 -78 -23.5 -155.5t-69 -138.5t-112.5 -99t-153 -38q-63 0 -112.5 20t-83.5 56.5t-52 87.5t-18 113q0 79 23.5 156t68.5 138t112 99t154 38q65 0 114.5 -19.5t83.5 -56t51 -87.5t17 -114zM697 434q0 68 -19 123t-56 93.5t-90 59.5t-121 21q-92 0 -162.5 -39
t-118.5 -103t-72.5 -144.5t-24.5 -164.5q0 -68 19 -122.5t55 -93t89.5 -59.5t122.5 -21q91 0 161.5 39t118.5 102t73 144t25 165zM446 787h30l135 144h-26l-124 -130l-82 130h-24z" />
    <glyph glyph-name="ocaron" unicode="&#x1d2;" horiz-adv-x="519" 
d="M26 191q0 56 15.5 112.5t46.5 101.5t77.5 73t108.5 28q81 0 129.5 -50t48.5 -141q0 -52 -16 -106.5t-47 -99t-77.5 -73t-108.5 -28.5q-88 0 -132.5 49.5t-44.5 133.5zM6 191q0 -94 50.5 -148t146.5 -54q66 0 116 29.5t84 76.5t51.5 105t17.5 115q0 47 -13.5 86t-39 66.5
t-62 43t-83.5 15.5q-65 0 -115 -28.5t-84 -76t-51.5 -107.5t-17.5 -123zM291 580h30l135 144h-26l-124 -130l-82 130h-24z" />
    <glyph glyph-name="Ucaron" unicode="&#x1d3;" horiz-adv-x="648" 
d="M161 714h-21l-94 -430q-5 -28 -8 -49t-3 -50q0 -52 19 -90t51 -63t74.5 -36.5t90.5 -11.5q57 0 100 13t74.5 34t53 49t36 58t23 60t14.5 55l100 461h-21l-102 -467q-18 -85 -52 -134t-73.5 -73.5t-80 -30.5t-72.5 -6q-46 -1 -85 10.5t-68 34.5t-45.5 57.5t-16.5 79.5
q0 18 2 34.5t5 38.5zM414 767h30l135 144h-26l-124 -130l-82 130h-24z" />
    <glyph glyph-name="ucaron" unicode="&#x1d4;" 
d="M368 0l111 514h-22l-50 -237q-10 -48 -28 -96.5t-47 -86.5t-70.5 -62t-98.5 -24t-93.5 30t-37.5 90q0 19 4 38l8 38l65 310h-21l-64 -305q-4 -20 -8 -40.5t-4 -40.5q0 -69 42 -104t109 -35q75 0 124 36t84 99l2 -2l-13 -58l-13 -64h21zM267 568h30l135 144h-26l-124 -130
l-82 130h-24z" />
    <glyph glyph-name="Udieresismacron" unicode="&#x1d5;" horiz-adv-x="648" 
d="M161 714h-21l-94 -430q-5 -28 -8 -49t-3 -50q0 -52 19 -90t51 -63t74.5 -36.5t90.5 -11.5q57 0 100 13t74.5 34t53 49t36 58t23 60t14.5 55l100 461h-21l-102 -467q-18 -85 -52 -134t-73.5 -73.5t-80 -30.5t-72.5 -6q-46 -1 -85 10.5t-68 34.5t-45.5 57.5t-16.5 79.5
q0 18 2 34.5t5 38.5zM348 839h-21l-13 -81h21zM506 839h-21l-13 -81h21zM549 912h-233l-4 -20h232z" />
    <glyph glyph-name="udieresismacron" unicode="&#x1d6;" 
d="M368 0l111 514h-22l-50 -237q-10 -48 -28 -96.5t-47 -86.5t-70.5 -62t-98.5 -24t-93.5 30t-37.5 90q0 19 4 38l8 38l65 310h-21l-64 -305q-4 -20 -8 -40.5t-4 -40.5q0 -69 42 -104t109 -35q75 0 124 36t84 99l2 -2l-13 -58l-13 -64h21zM233 655h-21l-13 -81h21zM391 655
h-21l-13 -81h21zM434 715h-233l-4 -20h232z" />
    <glyph glyph-name="Udieresisacute" unicode="&#x1d7;" horiz-adv-x="648" 
d="M161 714h-21l-94 -430q-5 -28 -8 -49t-3 -50q0 -52 19 -90t51 -63t74.5 -36.5t90.5 -11.5q57 0 100 13t74.5 34t53 49t36 58t23 60t14.5 55l100 461h-21l-102 -467q-18 -85 -52 -134t-73.5 -73.5t-80 -30.5t-72.5 -6q-46 -1 -85 10.5t-68 34.5t-45.5 57.5t-16.5 79.5
q0 18 2 34.5t5 38.5zM353 845h-21l-13 -81h21zM511 845h-21l-13 -81h21zM438 892l163 144h-28l-163 -144h28z" />
    <glyph glyph-name="udieresisacute" unicode="&#x1d8;" 
d="M368 0l111 514h-22l-50 -237q-10 -48 -28 -96.5t-47 -86.5t-70.5 -62t-98.5 -24t-93.5 30t-37.5 90q0 19 4 38l8 38l65 310h-21l-64 -305q-4 -20 -8 -40.5t-4 -40.5q0 -69 42 -104t109 -35q75 0 124 36t84 99l2 -2l-13 -58l-13 -64h21zM227 649h-21l-13 -81h21zM385 649
h-21l-13 -81h21zM307 692l163 144h-28l-163 -144h28z" />
    <glyph glyph-name="Udieresiscaron" unicode="&#x1d9;" horiz-adv-x="648" 
d="M161 714h-21l-94 -430q-5 -28 -8 -49t-3 -50q0 -52 19 -90t51 -63t74.5 -36.5t90.5 -11.5q57 0 100 13t74.5 34t53 49t36 58t23 60t14.5 55l100 461h-21l-102 -467q-18 -85 -52 -134t-73.5 -73.5t-80 -30.5t-72.5 -6q-46 -1 -85 10.5t-68 34.5t-45.5 57.5t-16.5 79.5
q0 18 2 34.5t5 38.5zM353 839h-21l-13 -81h21zM511 839h-21l-13 -81h21zM421 884h30l135 144h-26l-124 -130l-82 130h-24z" />
    <glyph glyph-name="udieresiscaron" unicode="&#x1da;" 
d="M368 0l111 514h-22l-50 -237q-10 -48 -28 -96.5t-47 -86.5t-70.5 -62t-98.5 -24t-93.5 30t-37.5 90q0 19 4 38l8 38l65 310h-21l-64 -305q-4 -20 -8 -40.5t-4 -40.5q0 -69 42 -104t109 -35q75 0 124 36t84 99l2 -2l-13 -58l-13 -64h21zM225 649h-21l-13 -81h21zM383 649
h-21l-13 -81h21zM284 695h30l135 144h-26l-124 -130l-82 130h-24z" />
    <glyph glyph-name="Udieresisgrave" unicode="&#x1db;" horiz-adv-x="648" 
d="M161 714h-21l-94 -430q-5 -28 -8 -49t-3 -50q0 -52 19 -90t51 -63t74.5 -36.5t90.5 -11.5q57 0 100 13t74.5 34t53 49t36 58t23 60t14.5 55l100 461h-21l-102 -467q-18 -85 -52 -134t-73.5 -73.5t-80 -30.5t-72.5 -6q-46 -1 -85 10.5t-68 34.5t-45.5 57.5t-16.5 79.5
q0 18 2 34.5t5 38.5zM356 845h-21l-13 -81h21zM514 845h-21l-13 -81h21zM340 1024h-25l112 -144h25z" />
    <glyph glyph-name="udieresisgrave" unicode="&#x1dc;" 
d="M368 0l111 514h-22l-50 -237q-10 -48 -28 -96.5t-47 -86.5t-70.5 -62t-98.5 -24t-93.5 30t-37.5 90q0 19 4 38l8 38l65 310h-21l-64 -305q-4 -20 -8 -40.5t-4 -40.5q0 -69 42 -104t109 -35q75 0 124 36t84 99l2 -2l-13 -58l-13 -64h21zM233 649h-21l-13 -81h21zM391 649
h-21l-13 -81h21zM211 833h-25l112 -144h25z" />
    <glyph glyph-name="Adieresismacron" unicode="&#x1de;" horiz-adv-x="574" 
d="M458 235l44 -235h20l-132 714h-20l-446 -714h22l146 235h366zM455 255h-350l269 431h2zM342 857h-21l-13 -81h21zM500 857h-21l-13 -81h21zM538 921h-233l-4 -20h232z" />
    <glyph glyph-name="adieresismacron" unicode="&#x1df;" horiz-adv-x="481" 
d="M59 365h20q17 67 64.5 104.5t125.5 36.5q30 0 55 -5t43 -17.5t28.5 -33t10.5 -52.5q0 -36 -9.5 -58t-27 -35t-40.5 -17.5t-50 -4.5q-18 0 -36.5 -0.5t-38.5 -1.5q-43 0 -83 -6.5t-71 -24.5t-50 -50.5t-19 -84.5q0 -34 12.5 -58t33.5 -39t48.5 -22t57.5 -7q75 0 124.5 28
t85.5 88h2q-3 -13 -6.5 -24.5t-3.5 -31.5q0 -52 52 -52q18 0 34 3v20q-13 -4 -35 -4q-12 0 -21.5 6t-9.5 27q0 11 1 18.5t3 16.5l59 251q3 15 5.5 30t2.5 33q0 67 -42.5 97.5t-114.5 30.5q-81 -1 -135.5 -38t-74.5 -123zM386 290l-21 -89q-11 -42 -30.5 -77.5t-48.5 -61
t-67 -40t-86 -14.5q-27 0 -51 6.5t-42.5 19.5t-29 33t-10.5 48q0 47 18.5 75.5t47.5 43.5t65.5 20.5t73.5 7.5q22 0 49 0.5t52.5 3.5t46.5 9t31 17zM252 664h-21l-13 -81h21zM410 664h-21l-13 -81h21zM452 729h-233l-4 -20h232z" />
    <glyph glyph-name="Adotmacron" unicode="&#x1e0;" horiz-adv-x="574" 
d="M458 235l44 -235h20l-132 714h-20l-446 -714h22l146 235h366zM455 255h-350l269 431h2zM417 845h-21l-13 -81h21zM545 918h-233l-4 -20h232z" />
    <glyph glyph-name="adotmacron" unicode="&#x1e1;" horiz-adv-x="481" 
d="M59 365h20q17 67 64.5 104.5t125.5 36.5q30 0 55 -5t43 -17.5t28.5 -33t10.5 -52.5q0 -36 -9.5 -58t-27 -35t-40.5 -17.5t-50 -4.5q-18 0 -36.5 -0.5t-38.5 -1.5q-43 0 -83 -6.5t-71 -24.5t-50 -50.5t-19 -84.5q0 -34 12.5 -58t33.5 -39t48.5 -22t57.5 -7q75 0 124.5 28
t85.5 88h2q-3 -13 -6.5 -24.5t-3.5 -31.5q0 -52 52 -52q18 0 34 3v20q-13 -4 -35 -4q-12 0 -21.5 6t-9.5 27q0 11 1 18.5t3 16.5l59 251q3 15 5.5 30t2.5 33q0 67 -42.5 97.5t-114.5 30.5q-81 -1 -135.5 -38t-74.5 -123zM386 290l-21 -89q-11 -42 -30.5 -77.5t-48.5 -61
t-67 -40t-86 -14.5q-27 0 -51 6.5t-42.5 19.5t-29 33t-10.5 48q0 47 18.5 75.5t47.5 43.5t65.5 20.5t73.5 7.5q22 0 49 0.5t52.5 3.5t46.5 9t31 17zM313 661h-21l-13 -81h21zM433 730h-233l-4 -20h232z" />
    <glyph glyph-name="AEmacron" unicode="&#x1e2;" horiz-adv-x="833" 
d="M423 294h-267l311 400h41zM779 20h-393l72 342h349l4 20h-349l66 312h379l4 20h-452l-556 -714h27l214 274h276l-59 -274h414zM759 790h-233l-4 -20h232z" />
    <glyph glyph-name="aemacron" unicode="&#x1e3;" horiz-adv-x="833" 
d="M369 299l2 -2q-4 -18 -9.5 -41.5t-12 -48t-14.5 -48t-18 -40.5q-31 -51 -79.5 -81t-108.5 -30q-27 0 -51 6.5t-42 19.5t-28.5 33t-10.5 48q0 47 18 75.5t47 43.5t65.5 20.5t73.5 7.5q23 0 46.5 2t47.5 4q21 2 40.5 9t33.5 22zM382 253h400q2 16 3 35t1 38q0 42 -12 78.5
t-35 63.5t-58 42.5t-81 15.5q-35 0 -65.5 -11.5t-56 -31t-44.5 -46t-31 -56.5l-2 2q3 36 -7 62.5t-29 44.5t-45 27t-55 9q-81 -1 -135.5 -38t-74.5 -123h20q17 67 64.5 104.5t125.5 36.5q25 0 46.5 -7t38 -22t26 -38.5t9.5 -57.5q-1 -48 -24.5 -69t-71.5 -25
q-18 -2 -40.5 -3t-48.5 -3q-43 0 -83 -6.5t-71 -24.5t-50 -50.5t-19 -84.5q0 -34 12.5 -58t33.5 -39t48.5 -22t57.5 -7q39 0 75 13t66 35.5t52 53t33 64.5h2q0 -36 13.5 -66.5t37.5 -52.5t56 -34.5t69 -12.5q94 0 152 46t82 134h-23q-20 -82 -75.5 -121.5t-133.5 -39.5
q-37 0 -67 13t-51.5 36t-33 55t-11.5 70q0 20 2.5 38.5t7.5 32.5zM761 273h-376q7 44 25 85.5t45.5 74.5t64 53t80.5 20q42 0 73 -14.5t52 -39t31 -57.5t10 -69q0 -15 -1 -27t-4 -26zM583 600h-233l-4 -20h232z" />
    <glyph glyph-name="Gcaron" unicode="&#x1e6;" horiz-adv-x="722" 
d="M608 99l-21 -99h20l71 334h-295l-4 -20h277q-15 -64 -42 -120.5t-67.5 -98.5t-96 -66.5t-128.5 -25.5q-55 2 -105 17.5t-89 54.5q-19 19 -33 43.5t-23.5 51.5t-14 55t-4.5 54q0 82 24 160.5t71 139t116.5 97t159.5 35.5q104 2 169.5 -50.5t76.5 -160.5h20
q-5 57 -26.5 100.5t-56 73t-81 44t-102.5 13.5q-95 1 -168 -36.5t-122.5 -100.5t-75 -145t-25.5 -170q-1 -57 16 -110.5t55 -98.5q42 -49 98 -66.5t120 -19.5q115 2 189.5 55.5t119.5 158.5l2 -2zM453 785h30l135 144h-26l-124 -130l-82 130h-24z" />
    <glyph glyph-name="gcaron" unicode="&#x1e7;" horiz-adv-x="519" 
d="M499 514h-20l-16 -78l-14 -75h-2q-7 81 -53.5 123t-118.5 42q-64 0 -112.5 -26.5t-81.5 -68.5t-49.5 -94.5t-16.5 -103.5q0 -45 12 -83t36 -66t59.5 -43.5t82.5 -15.5q63 0 114 32t78 86l2 -2q-12 -62 -26 -118t-40 -98.5t-69.5 -67.5t-114.5 -25q-34 0 -62.5 8t-48.5 25
t-30 43.5t-8 62.5h-19q-4 -81 42.5 -120t125.5 -39q106 0 164.5 54.5t83.5 171.5zM433 330q0 -49 -15 -100t-44 -92t-71.5 -67t-97.5 -26q-44 0 -76 14.5t-53 40t-31 59.5t-10 74q0 51 16 100t46 87.5t72 62t94 23.5q45 0 76.5 -12.5t51.5 -35t30 -55t12 -73.5zM263 583h30
l135 144h-26l-124 -130l-82 130h-24z" />
    <glyph glyph-name="Kcaron" unicode="&#x1e8;" horiz-adv-x="593" 
d="M69 262l183 133l284 -395h24l-292 407l416 307h-33l-576 -424l90 424h-20l-151 -714h19zM379 756h30l135 144h-26l-124 -130l-82 130h-24z" />
    <glyph glyph-name="kcaron" unicode="&#x1e9;" horiz-adv-x="444" 
d="M36 202l126 87l204 -289h27l-214 300l306 214h-34l-408 -283l104 483h-21l-154 -714h21zM299 758h30l135 144h-26l-124 -130l-82 130h-24z" />
    <glyph glyph-name="Oogonek" unicode="&#x1ea;" horiz-adv-x="722" 
d="M677 434q0 -78 -23.5 -155.5t-69 -138.5t-112.5 -99t-153 -38q-63 0 -112.5 20t-83.5 56.5t-52 87.5t-18 113q0 79 23.5 156t68.5 138t112 99t154 38q65 0 114.5 -19.5t83.5 -56t51 -87.5t17 -114zM697 434q0 68 -19 123t-56 93.5t-90 59.5t-121 21q-92 0 -162.5 -39
t-118.5 -103t-72.5 -144.5t-24.5 -164.5q0 -68 19 -122.5t55 -93t89.5 -59.5t122.5 -21q91 0 161.5 39t118.5 102t73 144t25 165zM332 -12q-57 -36 -85.5 -66.5t-28.5 -63.5q0 -14 8.5 -27t28.5 -13q23 0 43 11.5t35 28.5l13 -12q-15 -17 -38.5 -31.5t-52.5 -14.5
q-34 0 -46 18.5t-12 39.5q0 22 11 41.5t27 36t34.5 29.5t32.5 23h30v0z" />
    <glyph glyph-name="oogonek" unicode="&#x1eb;" horiz-adv-x="519" 
d="M26 191q0 56 15.5 112.5t46.5 101.5t77.5 73t108.5 28q81 0 129.5 -50t48.5 -141q0 -52 -16 -106.5t-47 -99t-77.5 -73t-108.5 -28.5q-88 0 -132.5 49.5t-44.5 133.5zM6 191q0 -94 50.5 -148t146.5 -54q66 0 116 29.5t84 76.5t51.5 105t17.5 115q0 47 -13.5 86t-39 66.5
t-62 43t-83.5 15.5q-65 0 -115 -28.5t-84 -76t-51.5 -107.5t-17.5 -123zM227 -7q-57 -36 -85.5 -66.5t-28.5 -63.5q0 -14 8.5 -27t28.5 -13q23 0 43 11.5t35 28.5l13 -12q-15 -17 -38.5 -31.5t-52.5 -14.5q-34 0 -46 18.5t-12 39.5q0 22 11 41.5t27 36t34.5 29.5t32.5 23h30
v0z" />
    <glyph glyph-name="Oogonekmacron" unicode="&#x1ec;" horiz-adv-x="722" 
d="M677 434q0 -78 -23.5 -155.5t-69 -138.5t-112.5 -99t-153 -38q-63 0 -112.5 20t-83.5 56.5t-52 87.5t-18 113q0 79 23.5 156t68.5 138t112 99t154 38q65 0 114.5 -19.5t83.5 -56t51 -87.5t17 -114zM697 434q0 68 -19 123t-56 93.5t-90 59.5t-121 21q-92 0 -162.5 -39
t-118.5 -103t-72.5 -144.5t-24.5 -164.5q0 -68 19 -122.5t55 -93t89.5 -59.5t122.5 -21q91 0 161.5 39t118.5 102t73 144t25 165zM332 -12q-57 -36 -85.5 -66.5t-28.5 -63.5q0 -14 8.5 -27t28.5 -13q23 0 43 11.5t35 28.5l13 -12q-15 -17 -38.5 -31.5t-52.5 -14.5
q-34 0 -46 18.5t-12 39.5q0 22 11 41.5t27 36t34.5 29.5t32.5 23h30v0zM564 795h-233l-4 -20h232z" />
    <glyph glyph-name="oogonekmacron" unicode="&#x1ed;" horiz-adv-x="519" 
d="M26 191q0 56 15.5 112.5t46.5 101.5t77.5 73t108.5 28q81 0 129.5 -50t48.5 -141q0 -52 -16 -106.5t-47 -99t-77.5 -73t-108.5 -28.5q-88 0 -132.5 49.5t-44.5 133.5zM6 191q0 -94 50.5 -148t146.5 -54q66 0 116 29.5t84 76.5t51.5 105t17.5 115q0 47 -13.5 86t-39 66.5
t-62 43t-83.5 15.5q-65 0 -115 -28.5t-84 -76t-51.5 -107.5t-17.5 -123zM227 -7q-57 -36 -85.5 -66.5t-28.5 -63.5q0 -14 8.5 -27t28.5 -13q23 0 43 11.5t35 28.5l13 -12q-15 -17 -38.5 -31.5t-52.5 -14.5q-34 0 -46 18.5t-12 39.5q0 22 11 41.5t27 36t34.5 29.5t32.5 23h30
v0zM412 600h-233l-4 -20h232z" />
    <glyph glyph-name="DZ" unicode="&#x1f1;" horiz-adv-x="1167" 
d="M150 714l-156 -714h220q46 0 87 3.5t79 15.5t73.5 35t69.5 61q27 30 47.5 68.5t34.5 80.5t21 85.5t7 84.5q0 69 -15 117t-41 79t-59.5 48t-70.5 25t-75 9.5t-72 1.5h-150zM18 20l148 674h134q41 0 80 -2.5t74 -11.5t64 -26t50 -45.5t33 -71.5t12 -103q0 -47 -8.5 -92
t-23.5 -85t-34.5 -73.5t-41.5 -57.5q-33 -35 -64.5 -56t-66 -32t-73.5 -14.5t-87 -3.5h-196zM1124 20h-508l626 670l4 24h-497l-5 -20h475l-626 -670l-4 -24h532z" />
    <glyph glyph-name="Dz" unicode="&#x1f2;" horiz-adv-x="1074" 
d="M150 714l-156 -714h220q46 0 87 3.5t79 15.5t73.5 35t69.5 61q27 30 47.5 68.5t34.5 80.5t21 85.5t7 84.5q0 69 -15 117t-41 79t-59.5 48t-70.5 25t-75 9.5t-72 1.5h-150zM18 20l148 674h134q41 0 80 -2.5t74 -11.5t64 -26t50 -45.5t33 -71.5t12 -103q0 -47 -8.5 -92
t-23.5 -85t-34.5 -73.5t-41.5 -57.5q-33 -35 -64.5 -56t-66 -32t-73.5 -14.5t-87 -3.5h-196zM998 20h-366l473 471l6 23h-384l-4 -20h355l-469 -467l-6 -27h390z" />
    <glyph glyph-name="dz" unicode="&#x1f3;" horiz-adv-x="944" 
d="M392 76l-16 -76h21l154 714h-21l-62 -285l-12 -65h-2q0 78 -49.5 120t-127.5 42q-64 0 -114.5 -32.5t-85.5 -83t-53 -111t-18 -116.5q0 -90 47 -142t137 -52q41 0 74.5 11.5t60.5 32t47 48.5t34 60l2 -2zM440 336q-1 -54 -17 -112t-47.5 -106t-78 -79t-108.5 -31
q-40 0 -71 13t-51 36.5t-30.5 55.5t-10.5 70q0 53 16 110t48 104.5t79 78t108 30.5q81 0 122 -46t41 -124zM868 20h-366l473 471l6 23h-384l-4 -20h355l-469 -467l-6 -27h390z" />
    <glyph glyph-name="Gacute" unicode="&#x1f4;" horiz-adv-x="722" 
d="M608 99l-21 -99h20l71 334h-295l-4 -20h277q-15 -64 -42 -120.5t-67.5 -98.5t-96 -66.5t-128.5 -25.5q-55 2 -105 17.5t-89 54.5q-19 19 -33 43.5t-23.5 51.5t-14 55t-4.5 54q0 82 24 160.5t71 139t116.5 97t159.5 35.5q104 2 169.5 -50.5t76.5 -160.5h20
q-5 57 -26.5 100.5t-56 73t-81 44t-102.5 13.5q-95 1 -168 -36.5t-122.5 -100.5t-75 -145t-25.5 -170q-1 -57 16 -110.5t55 -98.5q42 -49 98 -66.5t120 -19.5q115 2 189.5 55.5t119.5 158.5l2 -2zM433 788l163 144h-28l-163 -144h28z" />
    <glyph glyph-name="gacute" unicode="&#x1f5;" horiz-adv-x="519" 
d="M499 514h-20l-16 -78l-14 -75h-2q-7 81 -53.5 123t-118.5 42q-64 0 -112.5 -26.5t-81.5 -68.5t-49.5 -94.5t-16.5 -103.5q0 -45 12 -83t36 -66t59.5 -43.5t82.5 -15.5q63 0 114 32t78 86l2 -2q-12 -62 -26 -118t-40 -98.5t-69.5 -67.5t-114.5 -25q-34 0 -62.5 8t-48.5 25
t-30 43.5t-8 62.5h-19q-4 -81 42.5 -120t125.5 -39q106 0 164.5 54.5t83.5 171.5zM433 330q0 -49 -15 -100t-44 -92t-71.5 -67t-97.5 -26q-44 0 -76 14.5t-53 40t-31 59.5t-10 74q0 51 16 100t46 87.5t72 62t94 23.5q45 0 76.5 -12.5t51.5 -35t30 -55t12 -73.5zM278 580
l163 144h-28l-163 -144h28z" />
    <glyph glyph-name="Ngrave" unicode="&#x1f8;" horiz-adv-x="667" 
d="M505 0h27l153 714h-21l-146 -691h-2l-344 691h-27l-151 -714h20l145 691h2zM323 908h-25l112 -144h25z" />
    <glyph glyph-name="ngrave" unicode="&#x1f9;" 
d="M92 514l-110 -514h20l51 237q10 48 28 96.5t47 86.5t70.5 62t98.5 24t93.5 -30t37.5 -90q0 -19 -4 -38l-8 -38l-65 -310h21l64 305q4 20 8 40.5t4 40.5q0 69 -42 104.5t-109 35.5q-75 0 -124 -36.5t-84 -99.5l-2 2l13 58l13 64h-21zM259 724h-25l112 -144h25z" />
    <glyph glyph-name="Aringacute" unicode="&#x1fa;" horiz-adv-x="574" 
d="M458 235l44 -235h20l-132 714h-20l-446 -714h22l146 235h366zM455 255h-350l269 431h2zM321 857q0 32 22 54t54 22t54 -22t22 -54t-22 -54t-54 -22t-54 22t-22 54zM301 857q0 -40 28 -68t68 -28t68 28t28 68t-28 68t-68 28t-68 -28t-28 -68zM425 994l163 144h-28
l-163 -144h28z" />
    <glyph glyph-name="aringacute" unicode="&#x1fb;" horiz-adv-x="481" 
d="M59 365h20q17 67 64.5 104.5t125.5 36.5q30 0 55 -5t43 -17.5t28.5 -33t10.5 -52.5q0 -36 -9.5 -58t-27 -35t-40.5 -17.5t-50 -4.5q-18 0 -36.5 -0.5t-38.5 -1.5q-43 0 -83 -6.5t-71 -24.5t-50 -50.5t-19 -84.5q0 -34 12.5 -58t33.5 -39t48.5 -22t57.5 -7q75 0 124.5 28
t85.5 88h2q-3 -13 -6.5 -24.5t-3.5 -31.5q0 -52 52 -52q18 0 34 3v20q-13 -4 -35 -4q-12 0 -21.5 6t-9.5 27q0 11 1 18.5t3 16.5l59 251q3 15 5.5 30t2.5 33q0 67 -42.5 97.5t-114.5 30.5q-81 -1 -135.5 -38t-74.5 -123zM386 290l-21 -89q-11 -42 -30.5 -77.5t-48.5 -61
t-67 -40t-86 -14.5q-27 0 -51 6.5t-42.5 19.5t-29 33t-10.5 48q0 47 18.5 75.5t47.5 43.5t65.5 20.5t73.5 7.5q22 0 49 0.5t52.5 3.5t46.5 9t31 17zM240 672q0 32 22 54t54 22t54 -22t22 -54t-22 -54t-54 -22t-54 22t-22 54zM220 672q0 -40 28 -68t68 -28t68 28t28 68
t-28 68t-68 28t-68 -28t-28 -68zM336 809l163 144h-28l-163 -144h28z" />
    <glyph glyph-name="AEacute" unicode="&#x1fc;" horiz-adv-x="833" 
d="M423 294h-267l311 400h41zM779 20h-393l72 342h349l4 20h-349l66 312h379l4 20h-452l-556 -714h27l214 274h276l-59 -274h414zM675 767l163 144h-28l-163 -144h28z" />
    <glyph glyph-name="aeacute" unicode="&#x1fd;" horiz-adv-x="833" 
d="M369 299l2 -2q-4 -18 -9.5 -41.5t-12 -48t-14.5 -48t-18 -40.5q-31 -51 -79.5 -81t-108.5 -30q-27 0 -51 6.5t-42 19.5t-28.5 33t-10.5 48q0 47 18 75.5t47 43.5t65.5 20.5t73.5 7.5q23 0 46.5 2t47.5 4q21 2 40.5 9t33.5 22zM382 253h400q2 16 3 35t1 38q0 42 -12 78.5
t-35 63.5t-58 42.5t-81 15.5q-35 0 -65.5 -11.5t-56 -31t-44.5 -46t-31 -56.5l-2 2q3 36 -7 62.5t-29 44.5t-45 27t-55 9q-81 -1 -135.5 -38t-74.5 -123h20q17 67 64.5 104.5t125.5 36.5q25 0 46.5 -7t38 -22t26 -38.5t9.5 -57.5q-1 -48 -24.5 -69t-71.5 -25
q-18 -2 -40.5 -3t-48.5 -3q-43 0 -83 -6.5t-71 -24.5t-50 -50.5t-19 -84.5q0 -34 12.5 -58t33.5 -39t48.5 -22t57.5 -7q39 0 75 13t66 35.5t52 53t33 64.5h2q0 -36 13.5 -66.5t37.5 -52.5t56 -34.5t69 -12.5q94 0 152 46t82 134h-23q-20 -82 -75.5 -121.5t-133.5 -39.5
q-37 0 -67 13t-51.5 36t-33 55t-11.5 70q0 20 2.5 38.5t7.5 32.5zM761 273h-376q7 44 25 85.5t45.5 74.5t64 53t80.5 20q42 0 73 -14.5t52 -39t31 -57.5t10 -69q0 -15 -1 -27t-4 -26zM459 586l163 144h-28l-163 -144h28z" />
    <glyph glyph-name="Oslashacute" unicode="&#x1fe;" horiz-adv-x="722" 
d="M592 652l-468 -573q-71 74 -71 201q0 79 23.5 156t68.5 138t112 99t154 38q113 0 181 -59zM137 66l469 573q71 -74 71 -205q0 -78 -23.5 -155.5t-69 -138.5t-112.5 -99t-153 -38q-57 0 -103 16.5t-79 46.5zM42 -20l14 -12l67 81q71 -65 196 -65q91 0 161.5 39t118.5 102
t73 144t25 165q0 140 -79 220l59 73l-14 11l-59 -71q-35 31 -84 47.5t-109 16.5q-92 0 -162.5 -39t-118.5 -103t-72.5 -144.5t-24.5 -164.5q0 -138 77 -218zM465 793l163 144h-28l-163 -144h28z" />
    <glyph glyph-name="oslashacute" unicode="&#x1ff;" horiz-adv-x="519" 
d="M471 518l-15 12l-45 -55q-52 51 -137 51q-65 0 -115 -28.5t-84 -76t-51.5 -107.5t-17.5 -123q0 -48 13 -85.5t37 -63.5l-48 -58l15 -12l47 57q24 -23 57.5 -31.5t75.5 -8.5q66 0 116 29.5t84 76.5t51.5 105t17.5 115q0 92 -48 146zM398 459l-329 -401q-43 47 -43 133
q0 56 15.5 112.5t46.5 101.5t77.5 73t108.5 28q77 0 124 -47zM83 45l327 399q42 -45 42 -129q0 -52 -16 -106.5t-47 -99t-77.5 -73t-108.5 -28.5q-38 0 -69 8.5t-51 28.5zM298 582l163 144h-28l-163 -144h28z" />
    <glyph glyph-name="Adblgrave" unicode="&#x200;" horiz-adv-x="574" 
d="M458 235l44 -235h20l-132 714h-20l-446 -714h22l146 235h366zM455 255h-350l269 431h2zM457 764h-25l-112 144h25zM327 764h-25l-112 144h25z" />
    <glyph glyph-name="adblgrave" unicode="&#x201;" horiz-adv-x="481" 
d="M59 365h20q17 67 64.5 104.5t125.5 36.5q30 0 55 -5t43 -17.5t28.5 -33t10.5 -52.5q0 -36 -9.5 -58t-27 -35t-40.5 -17.5t-50 -4.5q-18 0 -36.5 -0.5t-38.5 -1.5q-43 0 -83 -6.5t-71 -24.5t-50 -50.5t-19 -84.5q0 -34 12.5 -58t33.5 -39t48.5 -22t57.5 -7q75 0 124.5 28
t85.5 88h2q-3 -13 -6.5 -24.5t-3.5 -31.5q0 -52 52 -52q18 0 34 3v20q-13 -4 -35 -4q-12 0 -21.5 6t-9.5 27q0 11 1 18.5t3 16.5l59 251q3 15 5.5 30t2.5 33q0 67 -42.5 97.5t-114.5 30.5q-81 -1 -135.5 -38t-74.5 -123zM386 290l-21 -89q-11 -42 -30.5 -77.5t-48.5 -61
t-67 -40t-86 -14.5q-27 0 -51 6.5t-42.5 19.5t-29 33t-10.5 48q0 47 18.5 75.5t47.5 43.5t65.5 20.5t73.5 7.5q22 0 49 0.5t52.5 3.5t46.5 9t31 17zM420 577h-25l-112 144h25zM290 577h-25l-112 144h25z" />
    <glyph glyph-name="Ainvertedbreve" unicode="&#x202;" horiz-adv-x="574" 
d="M458 235l44 -235h20l-132 714h-20l-446 -714h22l146 235h366zM455 255h-350l269 431h2zM425 764q2 39 -23 65t-67 26q-43 0 -74.5 -25.5t-45.5 -65.5h-20q6 24 19 44.5t31.5 35t41 23t47.5 8.5q51 0 81 -30t30 -81h-20z" />
    <glyph glyph-name="ainvertedbreve" unicode="&#x203;" horiz-adv-x="481" 
d="M59 365h20q17 67 64.5 104.5t125.5 36.5q30 0 55 -5t43 -17.5t28.5 -33t10.5 -52.5q0 -36 -9.5 -58t-27 -35t-40.5 -17.5t-50 -4.5q-18 0 -36.5 -0.5t-38.5 -1.5q-43 0 -83 -6.5t-71 -24.5t-50 -50.5t-19 -84.5q0 -34 12.5 -58t33.5 -39t48.5 -22t57.5 -7q75 0 124.5 28
t85.5 88h2q-3 -13 -6.5 -24.5t-3.5 -31.5q0 -52 52 -52q18 0 34 3v20q-13 -4 -35 -4q-12 0 -21.5 6t-9.5 27q0 11 1 18.5t3 16.5l59 251q3 15 5.5 30t2.5 33q0 67 -42.5 97.5t-114.5 30.5q-81 -1 -135.5 -38t-74.5 -123zM386 290l-21 -89q-11 -42 -30.5 -77.5t-48.5 -61
t-67 -40t-86 -14.5q-27 0 -51 6.5t-42.5 19.5t-29 33t-10.5 48q0 47 18.5 75.5t47.5 43.5t65.5 20.5t73.5 7.5q22 0 49 0.5t52.5 3.5t46.5 9t31 17zM388 577q2 39 -23 65t-67 26q-43 0 -74.5 -25.5t-45.5 -65.5h-20q6 24 19 44.5t31.5 35t41 23t47.5 8.5q51 0 81 -30t30 -81
h-20z" />
    <glyph glyph-name="Edblgrave" unicode="&#x204;" horiz-adv-x="519" 
d="M465 20h-451l73 342h405l4 20h-404l67 312h433l4 20h-453l-152 -714h469zM528 764h-25l-112 144h25zM398 764h-25l-112 144h25z" />
    <glyph glyph-name="edblgrave" unicode="&#x205;" 
d="M433 273h-402q9 48 28.5 90t49.5 74t71 50.5t92 18.5q42 0 73 -14.5t52 -39t31 -57.5t10 -69q0 -15 -1 -27t-4 -26zM27 253h427q2 21 3 37.5t1 35.5q0 42 -12 78.5t-35 63.5t-58 42.5t-81 15.5q-67 0 -117.5 -28.5t-84 -75t-50 -105t-16.5 -118.5q0 -44 11.5 -82.5
t35.5 -67t60 -44.5t84 -16q94 0 151.5 46t80.5 134h-21q-23 -84 -77 -122.5t-135 -38.5q-24 0 -53.5 7.5t-55.5 28t-43.5 57.5t-17.5 97q0 33 3 55zM447 577h-25l-112 144h25zM317 577h-25l-112 144h25z" />
    <glyph glyph-name="Einvertedbreve" unicode="&#x206;" horiz-adv-x="519" 
d="M465 20h-451l73 342h405l4 20h-404l67 312h433l4 20h-453l-152 -714h469zM496 764q2 39 -23 65t-67 26q-43 0 -74.5 -25.5t-45.5 -65.5h-20q6 24 19 44.5t31.5 35t41 23t47.5 8.5q51 0 81 -30t30 -81h-20z" />
    <glyph glyph-name="einvertedbreve" unicode="&#x207;" 
d="M433 273h-402q9 48 28.5 90t49.5 74t71 50.5t92 18.5q42 0 73 -14.5t52 -39t31 -57.5t10 -69q0 -15 -1 -27t-4 -26zM27 253h427q2 21 3 37.5t1 35.5q0 42 -12 78.5t-35 63.5t-58 42.5t-81 15.5q-67 0 -117.5 -28.5t-84 -75t-50 -105t-16.5 -118.5q0 -44 11.5 -82.5
t35.5 -67t60 -44.5t84 -16q94 0 151.5 46t80.5 134h-21q-23 -84 -77 -122.5t-135 -38.5q-24 0 -53.5 7.5t-55.5 28t-43.5 57.5t-17.5 97q0 33 3 55zM415 577q2 39 -23 65t-67 26q-43 0 -74.5 -25.5t-45.5 -65.5h-20q6 24 19 44.5t31.5 35t41 23t47.5 8.5q51 0 81 -30t30 -81
h-20z" />
    <glyph glyph-name="Idblgrave" unicode="&#x208;" horiz-adv-x="148" 
d="M-6 0h19l153 714h-20zM314 764h-25l-112 144h25zM184 764h-25l-112 144h25z" />
    <glyph glyph-name="idblgrave" unicode="&#x209;" horiz-adv-x="130" 
d="M1 0l110 514h-22l-109 -514h21zM260 565h-25l-112 144h25zM130 565h-25l-112 144h25z" />
    <glyph glyph-name="Iinvertedbreve" unicode="&#x20a;" horiz-adv-x="148" 
d="M-6 0h19l153 714h-20zM282 764q2 39 -23 65t-67 26q-43 0 -74.5 -25.5t-45.5 -65.5h-20q6 24 19 44.5t31.5 35t41 23t47.5 8.5q51 0 81 -30t30 -81h-20z" />
    <glyph glyph-name="iinvertedbreve" unicode="&#x20b;" horiz-adv-x="130" 
d="M1 0l110 514h-22l-109 -514h21zM228 565q2 39 -23 65t-67 26q-43 0 -74.5 -25.5t-45.5 -65.5h-20q6 24 19 44.5t31.5 35t41 23t47.5 8.5q51 0 81 -30t30 -81h-20z" />
    <glyph glyph-name="Odblgrave" unicode="&#x20c;" horiz-adv-x="722" 
d="M677 434q0 -78 -23.5 -155.5t-69 -138.5t-112.5 -99t-153 -38q-63 0 -112.5 20t-83.5 56.5t-52 87.5t-18 113q0 79 23.5 156t68.5 138t112 99t154 38q65 0 114.5 -19.5t83.5 -56t51 -87.5t17 -114zM697 434q0 68 -19 123t-56 93.5t-90 59.5t-121 21q-92 0 -162.5 -39
t-118.5 -103t-72.5 -144.5t-24.5 -164.5q0 -68 19 -122.5t55 -93t89.5 -59.5t122.5 -21q91 0 161.5 39t118.5 102t73 144t25 165zM603 781h-25l-112 144h25zM473 781h-25l-112 144h25z" />
    <glyph glyph-name="odblgrave" unicode="&#x20d;" horiz-adv-x="519" 
d="M26 191q0 56 15.5 112.5t46.5 101.5t77.5 73t108.5 28q81 0 129.5 -50t48.5 -141q0 -52 -16 -106.5t-47 -99t-77.5 -73t-108.5 -28.5q-88 0 -132.5 49.5t-44.5 133.5zM6 191q0 -94 50.5 -148t146.5 -54q66 0 116 29.5t84 76.5t51.5 105t17.5 115q0 47 -13.5 86t-39 66.5
t-62 43t-83.5 15.5q-65 0 -115 -28.5t-84 -76t-51.5 -107.5t-17.5 -123zM455 577h-25l-112 144h25zM325 577h-25l-112 144h25z" />
    <glyph glyph-name="Oinvertedbreve" unicode="&#x20e;" horiz-adv-x="722" 
d="M677 434q0 -78 -23.5 -155.5t-69 -138.5t-112.5 -99t-153 -38q-63 0 -112.5 20t-83.5 56.5t-52 87.5t-18 113q0 79 23.5 156t68.5 138t112 99t154 38q65 0 114.5 -19.5t83.5 -56t51 -87.5t17 -114zM697 434q0 68 -19 123t-56 93.5t-90 59.5t-121 21q-92 0 -162.5 -39
t-118.5 -103t-72.5 -144.5t-24.5 -164.5q0 -68 19 -122.5t55 -93t89.5 -59.5t122.5 -21q91 0 161.5 39t118.5 102t73 144t25 165zM571 781q2 39 -23 65t-67 26q-43 0 -74.5 -25.5t-45.5 -65.5h-20q6 24 19 44.5t31.5 35t41 23t47.5 8.5q51 0 81 -30t30 -81h-20z" />
    <glyph glyph-name="oinvertedbreve" unicode="&#x20f;" horiz-adv-x="519" 
d="M26 191q0 56 15.5 112.5t46.5 101.5t77.5 73t108.5 28q81 0 129.5 -50t48.5 -141q0 -52 -16 -106.5t-47 -99t-77.5 -73t-108.5 -28.5q-88 0 -132.5 49.5t-44.5 133.5zM6 191q0 -94 50.5 -148t146.5 -54q66 0 116 29.5t84 76.5t51.5 105t17.5 115q0 47 -13.5 86t-39 66.5
t-62 43t-83.5 15.5q-65 0 -115 -28.5t-84 -76t-51.5 -107.5t-17.5 -123zM423 577q2 39 -23 65t-67 26q-43 0 -74.5 -25.5t-45.5 -65.5h-20q6 24 19 44.5t31.5 35t41 23t47.5 8.5q51 0 81 -30t30 -81h-20z" />
    <glyph glyph-name="Rdblgrave" unicode="&#x210;" horiz-adv-x="593" 
d="M142 714l-148 -714h19l70 335h245q23 0 49.5 -5.5t49 -21t37 -43.5t13.5 -74q-2 -30 -3 -58t-2 -57q0 -20 2 -38.5t9 -37.5h20q-6 18 -8 37t-2 38q1 30 2 59t2 57q1 69 -26.5 104.5t-81.5 43.5v2q45 1 82.5 15t65 40.5t43.5 64t17 85.5q1 51 -16 84t-43.5 51.5
t-58.5 25.5t-62 7h-275zM89 355l71 339h250q24 0 53.5 -4.5t55 -20t42.5 -44.5t16 -79q-1 -66 -28.5 -104t-66.5 -57.5t-81.5 -24.5t-72.5 -5h-239zM530 764h-25l-112 144h25zM400 764h-25l-112 144h25z" />
    <glyph glyph-name="rdblgrave" unicode="&#x211;" horiz-adv-x="259" 
d="M-22 0h21l54 258q8 33 16.5 57.5t18.5 45.5q8 17 24 41t39 46t52.5 38t65.5 16q25 0 36 -4l4 20q-15 4 -41 4q-63 0 -109.5 -39t-77.5 -100l-2 2l15 63l14 66h-22zM358 573h-25l-112 144h25zM228 573h-25l-112 144h25z" />
    <glyph glyph-name="Rinvertedbreve" unicode="&#x212;" horiz-adv-x="593" 
d="M142 714l-148 -714h19l70 335h245q23 0 49.5 -5.5t49 -21t37 -43.5t13.5 -74q-2 -30 -3 -58t-2 -57q0 -20 2 -38.5t9 -37.5h20q-6 18 -8 37t-2 38q1 30 2 59t2 57q1 69 -26.5 104.5t-81.5 43.5v2q45 1 82.5 15t65 40.5t43.5 64t17 85.5q1 51 -16 84t-43.5 51.5
t-58.5 25.5t-62 7h-275zM89 355l71 339h250q24 0 53.5 -4.5t55 -20t42.5 -44.5t16 -79q-1 -66 -28.5 -104t-66.5 -57.5t-81.5 -24.5t-72.5 -5h-239zM498 764q2 39 -23 65t-67 26q-43 0 -74.5 -25.5t-45.5 -65.5h-20q6 24 19 44.5t31.5 35t41 23t47.5 8.5q51 0 81 -30t30 -81
h-20z" />
    <glyph glyph-name="rinvertedbreve" unicode="&#x213;" horiz-adv-x="259" 
d="M-22 0h21l54 258q8 33 16.5 57.5t18.5 45.5q8 17 24 41t39 46t52.5 38t65.5 16q25 0 36 -4l4 20q-15 4 -41 4q-63 0 -109.5 -39t-77.5 -100l-2 2l15 63l14 66h-22zM326 573q2 39 -23 65t-67 26q-43 0 -74.5 -25.5t-45.5 -65.5h-20q6 24 19 44.5t31.5 35t41 23t47.5 8.5
q51 0 81 -30t30 -81h-20z" />
    <glyph glyph-name="Udblgrave" unicode="&#x214;" horiz-adv-x="648" 
d="M161 714h-21l-94 -430q-5 -28 -8 -49t-3 -50q0 -52 19 -90t51 -63t74.5 -36.5t90.5 -11.5q57 0 100 13t74.5 34t53 49t36 58t23 60t14.5 55l100 461h-21l-102 -467q-18 -85 -52 -134t-73.5 -73.5t-80 -30.5t-72.5 -6q-46 -1 -85 10.5t-68 34.5t-45.5 57.5t-16.5 79.5
q0 18 2 34.5t5 38.5zM589 764h-25l-112 144h25zM459 764h-25l-112 144h25z" />
    <glyph glyph-name="udblgrave" unicode="&#x215;" 
d="M368 0l111 514h-22l-50 -237q-10 -48 -28 -96.5t-47 -86.5t-70.5 -62t-98.5 -24t-93.5 30t-37.5 90q0 19 4 38l8 38l65 310h-21l-64 -305q-4 -20 -8 -40.5t-4 -40.5q0 -69 42 -104t109 -35q75 0 124 36t84 99l2 -2l-13 -58l-13 -64h21zM461 565h-25l-112 144h25zM331 565
h-25l-112 144h25z" />
    <glyph glyph-name="Uinvertedbreve" unicode="&#x216;" horiz-adv-x="648" 
d="M161 714h-21l-94 -430q-5 -28 -8 -49t-3 -50q0 -52 19 -90t51 -63t74.5 -36.5t90.5 -11.5q57 0 100 13t74.5 34t53 49t36 58t23 60t14.5 55l100 461h-21l-102 -467q-18 -85 -52 -134t-73.5 -73.5t-80 -30.5t-72.5 -6q-46 -1 -85 10.5t-68 34.5t-45.5 57.5t-16.5 79.5
q0 18 2 34.5t5 38.5zM557 764q2 39 -23 65t-67 26q-43 0 -74.5 -25.5t-45.5 -65.5h-20q6 24 19 44.5t31.5 35t41 23t47.5 8.5q51 0 81 -30t30 -81h-20z" />
    </font>
</defs>
</svg>
