<?xml version="1.0" standalone="no"?>
<!DOCTYPE svg PUBLIC "-//W3C//DTD SVG 1.1//EN" "http://www.w3.org/Graphics/SVG/1.1/DTD/svg11.dtd" >
<svg xmlns="http://www.w3.org/2000/svg" xmlns:xlink="http://www.w3.org/1999/xlink" version="1.1">
<metadata>
Created by FontForge 20141024 at Wed Feb 11 16:08:05 2015
 By System Administrator
Part of the digitally encoded machine readable outline data for producing the Typefaces provided is copyrighted (c) 2003 - 2006 Linotype GmbH, www.linotype.com. All rights reserved. This software is the property of Linotype GmbH, and may not be reproduced, modified, disclosed or transferred without the express written approval of Linotype GmbH. Copyright (c) 1988, 1990, 1993 Adobe Systems Incorporated. All Rights Reserved. Helvetica is a trademark of Heidelberger Druckmaschinen AG, exclusively licensed through Linotype GmbH, and may be registered in certain jurisdictions. This typeface is original artwork of Linotype Design Studio. The design may be protected in certain jurisdictions.
</metadata>
<defs>
<font id="HelveticaNeue-MediumItalic" horiz-adv-x="556" >
  <font-face 
    font-family="Helvetica Neue"
    font-weight="500"
    font-style="italic"
    font-stretch="normal"
    units-per-em="1000"
    panose-1="2 11 6 4 2 2 2 2 2 4"
    ascent="800"
    descent="-200"
    x-height="517"
    cap-height="714"
    bbox="-466 -370 1987 1213"
    underline-thickness="50"
    underline-position="-50"
    unicode-range="U+000D-FE38"
  />
<missing-glyph horiz-adv-x="512" 
d="M222 117v67h56v-67h-56zM225 234l-2 17q0 56 13 81q7 13 18 27.5t28 31.5q16 15 26 26.5t15 21t7 18t2 17.5q0 36 -22.5 60.5t-53.5 24.5t-53.5 -22t-28.5 -73l-50 8q7 72 44 104.5t91 32.5t89 -35.5t35 -95.5q0 -32 -12.5 -58.5t-50.5 -61.5q-37 -33 -43 -52
q-6 -20 -6 -72h-46zM462 50v617h-412v-617h412zM512 718v-718h-512v718h512z" />
    <glyph glyph-name=".notdef" horiz-adv-x="512" 
d="M222 117v67h56v-67h-56zM225 234l-2 17q0 56 13 81q7 13 18 27.5t28 31.5q16 15 26 26.5t15 21t7 18t2 17.5q0 36 -22.5 60.5t-53.5 24.5t-53.5 -22t-28.5 -73l-50 8q7 72 44 104.5t91 32.5t89 -35.5t35 -95.5q0 -32 -12.5 -58.5t-50.5 -61.5q-37 -33 -43 -52
q-6 -20 -6 -72h-46zM462 50v617h-412v-617h412zM512 718v-718h-512v718h512z" />
    <glyph glyph-name=".null" horiz-adv-x="500" 
 />
    <glyph glyph-name=".null" horiz-adv-x="500" 
 />
    <glyph glyph-name="nonmarkingreturn" unicode="&#xd;" horiz-adv-x="0" 
 />
    <glyph glyph-name="space" unicode=" " horiz-adv-x="278" 
 />
    <glyph glyph-name="exclam" unicode="!" horiz-adv-x="296" 
d="M160 714h123l-44 -212l-98 -303h-58l34 307zM36 125h129l-27 -125h-129z" />
    <glyph glyph-name="quotedbl" unicode="&#x22;" horiz-adv-x="444" 
d="M299 714h102v-282h-102v282zM123 714h102v-282h-102v282z" />
    <glyph glyph-name="numbersign" unicode="#" 
d="M237 415l-18 -130h111l18 130h-111zM495 210h-95l-30 -210h-80l29 210h-110l-30 -210h-80l29 210h-94l10 75h95l18 130h-94l10 75h94l29 210h81l-30 -210h111l29 210h81l-30 -210h96l-10 -75h-96l-18 -130h95z" />
    <glyph glyph-name="dollar" unicode="$" 
d="M322 641q-27 1 -52.5 -6.5t-44.5 -23.5t-30.5 -40.5t-11.5 -57.5q0 -23 7 -38.5t20 -25.5t30 -16.5t37 -11.5zM247 73q30 0 56.5 8.5t47 25t32.5 41t12 56.5q0 24 -8 41t-21.5 29t-31.5 20.5t-38 14.5zM256 321q-35 9 -68.5 22.5t-59.5 34.5t-42.5 52t-16.5 75
q0 58 21 101t57.5 71t86 41.5t106.5 12.5l15 71h42l-15 -75q88 -11 132.5 -61t41.5 -138h-108q4 45 -17.5 74.5t-66.5 38.5l-47 -230q37 -12 72 -27t61.5 -37t42.5 -54t16 -78q0 -59 -22.5 -104t-61 -74.5t-89.5 -43t-107 -10.5l-18 -85h-42l17 86q-90 10 -142.5 58
t-52.5 133v20q0 5 0.5 10.5t1.5 10.5h113q-1 -5 -1 -14v-12q0 -48 24 -77t76 -38z" />
    <glyph glyph-name="percent" unicode="%" horiz-adv-x="944" 
d="M775 240q0 32 -12 54t-43 22q-33 0 -54 -21t-33.5 -50.5t-17.5 -62t-5 -55.5q0 -35 12.5 -55.5t43.5 -20.5q33 0 54 21t33 50.5t17 62t5 55.5zM667 -14q-66 0 -105 39t-39 109q0 43 12 87t36 79.5t60.5 58t86.5 22.5q66 0 105 -39t39 -109q0 -45 -11.5 -89t-35 -79.5
t-60.5 -57t-88 -21.5zM334 573q0 32 -12 54t-43 22q-33 0 -54.5 -21t-33.5 -50.5t-17 -62t-5 -55.5q0 -35 13 -55.5t43 -20.5q33 0 54 21t33 50.5t17 62t5 55.5zM226 319q-66 0 -105 39t-39 109q0 43 12 87t36 79.5t60.5 58t86.5 22.5q66 0 105 -39t39 -109q0 -45 -11.5 -89
t-35 -79.5t-60.5 -57t-88 -21.5zM633 724h73l-400 -748h-71z" />
    <glyph glyph-name="ampersand" unicode="&#x26;" horiz-adv-x="667" 
d="M347 646q-37 0 -61.5 -22t-24.5 -70q0 -33 13.5 -57t28.5 -53q18 10 38 21.5t37.5 26.5t28.5 33.5t11 42.5q0 39 -20.5 58.5t-50.5 19.5zM586 0h-127l-40 66q-42 -40 -88.5 -60t-107.5 -20q-44 0 -82 14t-66 39.5t-43.5 62.5t-15.5 82q0 42 18 76t46 61t63 47.5t69 36.5
q-23 33 -38 67.5t-15 76.5q0 43 14.5 76.5t39.5 57t58 36t71 12.5q36 1 68 -8.5t56.5 -30t39 -51.5t14.5 -73q0 -36 -15.5 -65.5t-40 -53.5t-54.5 -42.5t-59 -33.5l93 -152q11 12 29.5 41.5t29.5 77.5h103q-9 -52 -38.5 -106.5t-69.5 -96.5zM260 328q-19 -9 -42.5 -23
t-44.5 -33t-35 -42.5t-14 -51.5q0 -25 9 -44t24 -32t33 -19.5t36 -6.5q38 0 78 19.5t66 51.5z" />
    <glyph glyph-name="quotesingle" unicode="'" horiz-adv-x="278" 
d="M128 714h102v-282h-102v282z" />
    <glyph glyph-name="parenleft" unicode="(" horiz-adv-x="296" 
d="M370 731q-54 -68 -97.5 -138.5t-73.5 -146.5t-46.5 -158t-16.5 -173q0 -81 11 -157t35 -149h-84q-32 82 -51 168t-19 179q0 88 18 165.5t50 147.5t77.5 134.5t99.5 127.5h97z" />
    <glyph glyph-name="parenright" unicode=")" horiz-adv-x="296" 
d="M-92 -191q63 84 107.5 158t73 146t41.5 147t13 162q0 160 -47 309h83q34 -84 53 -172t19 -185q0 -84 -18.5 -160t-51.5 -145.5t-78 -134t-98 -125.5h-97z" />
    <glyph glyph-name="asterisk" unicode="*" horiz-adv-x="389" 
d="M352 426l-61 -31l-51 106l-85 -91l-46 45l83 89l-101 52l32 59l102 -53l19 112h67l-23 -121l115 16l9 -64l-112 -15z" />
    <glyph glyph-name="plus" unicode="+" horiz-adv-x="600" 
d="M249 506h102v-202h201v-102h-201v-202h-102v202h-201v102h201v202z" />
    <glyph glyph-name="comma" unicode="," horiz-adv-x="278" 
d="M30 135h140q-12 -44 -20 -92t-25 -89t-49 -69t-91 -31l11 58q38 5 55.5 29t24.5 59h-76z" />
    <glyph glyph-name="hyphen" unicode="-" horiz-adv-x="389" 
d="M42 326h296l-21 -108h-296z" />
    <glyph glyph-name="period" unicode="." horiz-adv-x="278" 
d="M30 135h139l-30 -135h-139z" />
    <glyph glyph-name="slash" unicode="/" horiz-adv-x="352" 
d="M-27 -17l287 748h109l-287 -748h-109z" />
    <glyph glyph-name="zero" unicode="0" 
d="M11 254q0 7 3 44t13.5 88t31 108.5t56.5 106.5t89.5 81t129.5 32q112 0 159.5 -70t47.5 -198q0 -22 -5 -64.5t-17.5 -93.5t-35.5 -105t-58.5 -97.5t-86.5 -71.5t-120 -28q-56 0 -95.5 19.5t-64 55t-36 84.5t-11.5 109zM427 479q0 27 -5 52.5t-17 45t-32.5 31t-51.5 11.5
q-36 0 -64.5 -21.5t-50.5 -56.5t-37.5 -78.5t-25 -88t-14 -85t-4.5 -68.5q0 -27 5 -52.5t17 -45t32.5 -31t51.5 -11.5q36 0 64.5 21.5t50.5 56.5t37.5 78.5t25 88t14 85t4.5 68.5z" />
    <glyph glyph-name="one" unicode="1" 
d="M132 584q71 0 133 27.5t97 88.5h91l-147 -700h-121l106 511q-45 -10 -88.5 -13.5t-89.5 -3.5z" />
    <glyph glyph-name="two" unicode="2" 
d="M459 0h-486q14 88 63.5 153t124.5 110q39 24 80.5 49.5t84.5 51.5t70.5 62t27.5 95q0 24 -9.5 42.5t-25 31t-36.5 18.5t-43 6q-33 0 -59 -12.5t-44.5 -34t-29 -51t-12.5 -63.5h-108q5 57 24 104.5t52 81t80 52t107 18.5q46 0 85.5 -12t69 -36t46.5 -61t17 -86
q0 -58 -22.5 -101t-59 -76.5t-82 -61t-91 -54.5t-87.5 -56.5t-70 -67.5h355z" />
    <glyph glyph-name="three" unicode="3" 
d="M240 410h24q31 0 60 4t51.5 16t36 34t13.5 59q0 49 -31.5 72.5t-74.5 23.5q-61 0 -96.5 -38t-46.5 -96h-108q9 51 29.5 93.5t53.5 72.5t78 46.5t102 16.5q40 0 77.5 -10.5t66.5 -31.5t46.5 -54t17.5 -78q0 -66 -36 -110.5t-93 -58.5v-2q48 -18 67.5 -56t19.5 -89
q0 -58 -22.5 -102.5t-61 -74.5t-89.5 -45.5t-109 -15.5q-99 0 -158 52.5t-59 145.5q0 16 0.5 25t1.5 21h108q-1 -8 -1.5 -15.5t-0.5 -14.5q0 -55 34.5 -87t94.5 -32q67 0 107.5 39.5t40.5 106.5q0 30 -11.5 49.5t-30 30t-42 14.5t-47.5 4h-30z" />
    <glyph glyph-name="four" unicode="4" 
d="M510 166h-95l-35 -166h-114l35 166h-300l22 110l390 424h114l-93 -444h95zM385 549h-2l-271 -293h208z" />
    <glyph glyph-name="five" unicode="5" 
d="M160 700h385l-20 -102h-292l-52 -165l2 -2q29 22 61.5 31t68.5 9q45 0 81.5 -15.5t62 -43.5t39.5 -65.5t14 -81.5q0 -63 -21 -114.5t-59 -88t-90 -56.5t-113 -20q-50 0 -92 13.5t-72 40t-46.5 66t-14.5 92.5h114q3 -57 31 -87t88 -30q35 0 64.5 13t51 35.5t33.5 52.5
t12 65q0 66 -33.5 100t-87.5 34q-42 0 -74.5 -16.5t-54.5 -46.5h-101z" />
    <glyph glyph-name="six" unicode="6" 
d="M257 81q35 0 61.5 14.5t44.5 38t27 53.5t9 60q0 54 -30 88.5t-88 34.5q-35 0 -62 -12.5t-45 -34.5t-27.5 -50.5t-9.5 -61.5q0 -27 8 -50.5t23 -41t37.5 -28t51.5 -10.5zM447 523q0 45 -24.5 70.5t-67.5 25.5q-46 0 -79 -21t-56.5 -54t-39 -73t-25.5 -77l2 -2
q29 36 67.5 52t83.5 16q50 0 88.5 -16.5t64.5 -45.5t39 -69t13 -87q0 -54 -19.5 -101t-53 -81.5t-78 -54t-94.5 -19.5q-66 0 -112.5 19.5t-76 55.5t-43 88.5t-13.5 118.5q0 12 3 49.5t14 87.5t32.5 104t58.5 100t92 75.5t133 29.5q45 0 82 -12.5t64 -36.5t42.5 -60t16.5 -82
h-114z" />
    <glyph glyph-name="seven" unicode="7" 
d="M115 700h484l-22 -108q-10 -10 -38.5 -39t-66.5 -74t-81 -105t-82 -132q-31 -58 -54 -118.5t-40 -123.5h-127q49 171 142 320t219 278h-356z" />
    <glyph glyph-name="eight" unicode="8" 
d="M114 192q0 -30 10.5 -52t28 -36.5t41 -21t50.5 -6.5q33 0 60 10.5t46.5 29t30 44.5t10.5 57q0 59 -37 85.5t-94 26.5q-69 0 -107.5 -35.5t-38.5 -101.5zM191 510q0 -24 9 -42t24 -30t35 -18t42 -6q57 0 89.5 27.5t32.5 85.5q0 26 -9 44.5t-24 30t-35 17t-42 5.5
q-57 0 -89.5 -31.5t-32.5 -82.5zM0 190q0 40 14.5 73t38.5 58t54.5 40.5t62.5 20.5v2q-42 23 -64.5 55t-22.5 81q0 48 18.5 84t51 60.5t75.5 37t93 12.5q40 0 78 -9t67 -30t47 -54t18 -81q0 -70 -37 -113.5t-91 -54.5v-1q51 -20 76.5 -64.5t25.5 -104.5q0 -47 -23 -86.5
t-60.5 -68t-84 -45t-92.5 -16.5q-56 0 -101 14.5t-77 41t-49.5 64t-17.5 84.5z" />
    <glyph glyph-name="nine" unicode="9" 
d="M277 329q34 0 60.5 13t44 35.5t26.5 51.5t9 62q0 27 -6.5 50t-20.5 40.5t-35.5 27.5t-51.5 10q-36 0 -63 -14t-45 -37.5t-27.5 -53t-9.5 -59.5q0 -55 28.5 -90.5t90.5 -35.5zM116 177q1 -45 26 -70.5t74 -25.5t81.5 21t52.5 54t32 73t21 77l-2 2q-27 -36 -65.5 -52.5
t-86.5 -16.5q-20 0 -54 4t-68 25t-58.5 65.5t-24.5 124.5q0 54 19 100.5t52 81t78.5 54.5t98.5 20q67 0 110.5 -19t70 -48.5t39 -65t17 -67t3.5 -55.5t-1 -31q0 -43 -7 -92.5t-22.5 -99t-40.5 -94.5t-61 -80t-84 -55.5t-109 -20.5q-44 0 -81 12.5t-64 36.5t-43 59.5
t-17 82.5h114z" />
    <glyph glyph-name="colon" unicode=":" horiz-adv-x="278" 
d="M30 135h139l-30 -135h-139zM108 506h139l-30 -135h-139z" />
    <glyph glyph-name="semicolon" unicode=";" horiz-adv-x="278" 
d="M108 506h139l-30 -135h-139zM30 135h140q-12 -44 -20 -92t-25 -89t-49 -69t-91 -31l11 58q38 5 55.5 29t24.5 59h-76z" />
    <glyph glyph-name="less" unicode="&#x3c;" horiz-adv-x="600" 
d="M554 -8l-508 225v72l508 225v-102l-374 -159l374 -159v-102z" />
    <glyph glyph-name="equal" unicode="=" horiz-adv-x="600" 
d="M552 101h-504v102h504v-102zM552 303h-504v102h504v-102z" />
    <glyph glyph-name="greater" unicode="&#x3e;" horiz-adv-x="600" 
d="M420 253l-374 159v102l508 -225v-72l-508 -225v102z" />
    <glyph glyph-name="question" unicode="?" 
d="M157 125h129l-27 -125h-129zM183 203q6 35 14.5 62.5t22.5 50t35 42.5t51 40q22 14 44.5 28t40.5 31t29 39t11 52q0 21 -9.5 37t-24.5 27.5t-33.5 17.5t-37.5 6q-32 0 -56 -12t-41.5 -31.5t-28.5 -45.5t-15 -54h-113q6 52 26.5 96t53.5 75.5t77.5 49t98.5 17.5
q44 0 83.5 -10t69 -32t47 -56t17.5 -83q0 -44 -14 -75t-37.5 -55.5t-53.5 -45t-61 -42.5q-23 -15 -37 -27t-23.5 -26.5t-16 -32.5t-13.5 -43h-106z" />
    <glyph glyph-name="at" unicode="@" horiz-adv-x="800" 
d="M543 279q-4 -12 -6.5 -24t-2.5 -22t4.5 -16.5t14.5 -6.5q23 0 46.5 16.5t42.5 45.5t31 68.5t12 85.5q0 56 -21 100.5t-58 75.5t-86 47.5t-104 16.5q-64 0 -116.5 -23.5t-90.5 -64t-59 -95t-21 -117.5q0 -73 22.5 -132t62 -100t94 -63.5t117.5 -22.5q66 0 124.5 25.5
t100.5 73.5h70q-48 -78 -126.5 -121t-172.5 -43q-77 0 -145 28.5t-118.5 79.5t-79.5 122t-29 157q0 76 29.5 141.5t79.5 114.5t116.5 77t141.5 28q67 0 127.5 -21.5t106.5 -60.5t73.5 -93t27.5 -118q0 -75 -25.5 -131t-62 -93t-77.5 -55.5t-71 -18.5q-23 0 -40 14.5
t-19 43.5h-2q-20 -23 -50 -40t-62 -17t-58.5 12.5t-46 34t-30.5 50t-11 60.5q0 48 16 94t44.5 83t69 59.5t89.5 22.5q35 0 64 -17t48 -55l18 57h70zM361 216q30 0 55 17.5t43 44t28.5 58t10.5 58.5q0 18 -6.5 34t-17 28t-25 19t-30.5 7q-30 0 -55 -17t-43 -42.5t-28 -56.5
t-10 -59q0 -40 21.5 -65.5t56.5 -25.5z" />
    <glyph glyph-name="A" unicode="A" horiz-adv-x="685" 
d="M368 714h132l124 -714h-127l-29 189h-284l-110 -189h-134zM411 588h-2l-172 -304h218z" />
    <glyph glyph-name="B" unicode="B" horiz-adv-x="704" 
d="M147 102h179q16 0 45 1t59 10.5t53.5 32.5t27.5 67q1 13 -0.5 32t-14 37t-39 30.5t-74.5 12.5h-189zM212 415h187q46 0 74 12t43 29.5t20 37t5 33.5q0 11 -3 25.5t-14 28t-33 22.5t-60 9h-178zM149 714h308q71 0 112.5 -19t63 -45t27.5 -55t6 -48q0 -32 -9.5 -60.5
t-27.5 -51.5t-43.5 -38t-56.5 -20v-2q107 -34 107 -150q0 -28 -11 -66.5t-40.5 -74t-82 -60t-134.5 -24.5h-367z" />
    <glyph glyph-name="C" unicode="C" horiz-adv-x="722" 
d="M571 476q0 75 -41.5 114t-119.5 39q-64 0 -111.5 -29t-79 -76t-47.5 -106t-16 -119q0 -100 51 -157t145 -57q48 0 81 18.5t54.5 45t33 54.5t16.5 46h125q-15 -68 -45 -118t-71.5 -83t-92 -49t-105.5 -16q-77 0 -136 24t-99 66t-61 99t-21 123q0 112 33.5 194.5t88 136
t123 79.5t138.5 26q63 0 116 -17t90.5 -49t57.5 -80t18 -109h-125z" />
    <glyph glyph-name="D" unicode="D" horiz-adv-x="722" 
d="M148 102h156q54 0 94.5 18.5t69.5 47t48.5 64.5t31 70.5t16 65t4.5 48.5q0 94 -41 145t-116 51h-156zM151 714h262q138 0 209 -74.5t71 -224.5q0 -32 -7 -71.5t-21 -80t-35 -78t-50 -65.5q-32 -31 -62 -53.5t-67 -37.5t-84.5 -22t-114.5 -7h-251z" />
    <glyph glyph-name="E" unicode="E" horiz-adv-x="630" 
d="M149 714h520l-22 -108h-397l-39 -187h368l-21 -102h-369l-43 -209h400l-22 -108h-523z" />
    <glyph glyph-name="F" unicode="F" horiz-adv-x="593" 
d="M150 714h487l-22 -108h-363l-39 -187h315l-22 -102h-314l-66 -317h-125z" />
    <glyph glyph-name="G" unicode="G" horiz-adv-x="759" 
d="M620 0h-80v75h-2q-19 -24 -42.5 -41t-49 -28.5t-51 -17t-47.5 -5.5q-77 0 -136 24t-99 66t-61 99t-21 123q0 112 33.5 194.5t88 136t123 79.5t138.5 26q63 0 117.5 -15t94.5 -45t63 -76t23 -109h-125q-4 73 -51 108t-126 35q-64 0 -111.5 -29t-79 -76t-47.5 -106
t-16 -119q0 -100 51 -157t145 -57q46 0 82 14.5t62.5 40.5t44.5 62t28 79h-196l20 95h307z" />
    <glyph glyph-name="H" unicode="H" horiz-adv-x="722" 
d="M142 714h125l-59 -284h334l59 284h125l-148 -714h-125l67 322h-334l-67 -322h-125z" />
    <glyph glyph-name="I" unicode="I" horiz-adv-x="278" 
d="M153 714h125l-149 -714h-125z" />
    <glyph glyph-name="J" unicode="J" horiz-adv-x="537" 
d="M433 714h125l-82 -399q-4 -17 -11 -46.5t-16 -63t-20 -66.5t-24 -56q-18 -29 -41.5 -48t-49.5 -30.5t-55 -16.5t-57 -5q-65 0 -104.5 19t-60.5 45t-28 54.5t-7 48.5q0 27 2.5 51.5t8.5 48.5h117q-11 -39 -11 -78q0 -87 92 -87q33 0 54 13t35 36.5t23 56.5t17 73z" />
    <glyph glyph-name="K" unicode="K" horiz-adv-x="685" 
d="M149 714h125l-67 -324l2 -2l364 326h167l-343 -295l224 -419h-142l-179 341l-126 -108l-48 -233h-125z" />
    <glyph glyph-name="L" unicode="L" horiz-adv-x="574" 
d="M152 714h125l-126 -606h360l-22 -108h-485z" />
    <glyph glyph-name="M" unicode="M" horiz-adv-x="889" 
d="M152 714h172l78 -544h2l310 544h177l-147 -714h-120l124 572h-2l-323 -572h-98l-90 572h-2l-109 -572h-120z" />
    <glyph glyph-name="N" unicode="N" horiz-adv-x="722" 
d="M149 714h137l219 -533h2l109 533h125l-148 -714h-137l-220 530h-2l-108 -530h-125z" />
    <glyph glyph-name="O" unicode="O" horiz-adv-x="759" 
d="M156 299q0 -100 51 -157t145 -57q62 0 108.5 29t78 76t47 106t15.5 119q0 100 -48.5 157t-142.5 57q-64 0 -111.5 -29t-79 -76t-47.5 -106t-16 -119zM31 295q0 112 33.5 194.5t88 136t123 79.5t138.5 26t128 -23t98.5 -64.5t63 -98.5t22.5 -126q0 -113 -32 -195
t-85 -135.5t-121 -79.5t-140 -26q-77 0 -136 24t-99 66t-61 99t-21 123z" />
    <glyph glyph-name="P" unicode="P" horiz-adv-x="667" 
d="M152 714h287q56 0 94 -11.5t63 -30t38.5 -42t19.5 -47.5t7 -47t1 -40q0 -1 -1.5 -18t-9 -41.5t-23.5 -53t-45 -53t-73.5 -40.5t-109.5 -16h-214l-57 -274h-125zM207 376h189q42 0 69.5 12.5t43 32.5t22 44.5t6.5 48.5q0 15 -4.5 32t-17 32t-36 24.5t-61.5 9.5h-162z" />
    <glyph glyph-name="Q" unicode="Q" horiz-adv-x="759" 
d="M508 18q-74 -35 -160 -35q-77 0 -136 24t-99 66t-61 99t-21 123q0 112 33.5 194.5t88 136t123 79.5t138.5 26t128 -23t98.5 -64.5t63 -98.5t22.5 -126q0 -124 -38 -210t-100 -139l77 -81l-70 -63zM434 232l74 -78q46 48 69.5 118t23.5 143q0 100 -48.5 157t-142.5 57
q-64 0 -111.5 -29t-79 -76t-47.5 -106t-16 -119q0 -100 51 -157t145 -57q43 0 78 15l-66 69z" />
    <glyph glyph-name="R" unicode="R" horiz-adv-x="704" 
d="M209 389h183q81 0 123.5 33.5t42.5 96.5q0 29 -10.5 47.5t-28.5 28.5t-41 13.5t-48 3.5h-175zM149 714h309q23 0 61 -4t74.5 -22t63 -54.5t26.5 -101.5q0 -85 -43 -132.5t-119 -61.5v-2q45 -17 60.5 -50.5t15.5 -78.5q0 -37 -6 -74t-5 -74q0 -15 2.5 -30t10.5 -29h-131
q-5 14 -6.5 27t-1.5 28q0 40 6 78.5t6 77.5q0 31 -11.5 48t-30.5 24.5t-43 9t-49 1.5h-149l-61 -294h-127z" />
    <glyph glyph-name="S" unicode="S" horiz-adv-x="648" 
d="M133 236q-4 -83 41 -117t123 -34q25 0 53.5 6t51.5 19.5t38.5 35t15.5 53.5q0 30 -14.5 50t-38 33.5t-54.5 23t-64 18.5q-24 6 -57 16.5t-64 31t-52.5 53.5t-21.5 84q0 48 18 89t52 70.5t83.5 46t112.5 16.5q56 0 105 -12t85 -39t56 -70.5t18 -106.5h-120q-1 67 -37 96.5
t-109 29.5q-13 0 -36 -3t-46 -14t-40 -31.5t-17 -56.5q0 -26 12 -43t32.5 -29t47.5 -20t57 -15q38 -10 76.5 -22t70 -33.5t51 -56.5t19.5 -91q0 -42 -16 -83t-51.5 -74t-92 -53.5t-137.5 -20.5q-63 0 -114 14.5t-86.5 45t-54 78.5t-16.5 115h120z" />
    <glyph glyph-name="T" unicode="T" horiz-adv-x="593" 
d="M79 714h588l-23 -108h-227l-126 -606h-125l126 606h-235z" />
    <glyph glyph-name="U" unicode="U" horiz-adv-x="741" 
d="M150 714h125l-92 -437q-3 -14 -5 -28.5t-3 -29.5q-1 -36 10.5 -60.5t32.5 -39.5t49 -21.5t61 -6.5q36 0 66.5 8t55 28.5t43.5 56t31 90.5l94 440h125l-94 -448q-9 -44 -26 -94t-53.5 -92t-97.5 -69.5t-158 -27.5q-53 0 -101 13.5t-84 40.5t-57.5 68.5t-21.5 97.5
q0 25 3.5 48.5t8.5 47.5z" />
    <glyph glyph-name="V" unicode="V" horiz-adv-x="611" 
d="M67 714h127l67 -564h2l298 564h133l-392 -714h-142z" />
    <glyph glyph-name="W" unicode="W" horiz-adv-x="926" 
d="M70 714h128l24 -546h2l247 546h123l37 -546h2l234 546h128l-332 -714h-127l-34 546h-2l-250 -546h-127z" />
    <glyph glyph-name="X" unicode="X" horiz-adv-x="648" 
d="M265 375l-169 339h137l117 -256l204 256h147l-295 -349l177 -365h-134l-128 277l-225 -277h-149z" />
    <glyph glyph-name="Y" unicode="Y" horiz-adv-x="630" 
d="M228 283l-176 431h131l123 -324l250 324h148l-353 -441l-56 -273h-125z" />
    <glyph glyph-name="Z" unicode="Z" horiz-adv-x="630" 
d="M123 714h544l-21 -102l-509 -504h428l-23 -108h-584l22 104l503 502h-382z" />
    <glyph glyph-name="bracketleft" unicode="[" horiz-adv-x="296" 
d="M159 731h225l-19 -90h-115l-154 -742h113l-19 -90h-223z" />
    <glyph glyph-name="backslash" unicode="\" horiz-adv-x="352" 
d="M270 -17l-287 748h109l287 -748h-109z" />
    <glyph glyph-name="bracketright" unicode="]" horiz-adv-x="296" 
d="M102 -191h-225l19 90h115l154 742h-113l19 90h223z" />
    <glyph glyph-name="asciicircum" unicode="^" horiz-adv-x="600" 
d="M84 335l180 365h72l180 -365h-102l-114 237l-114 -237h-102z" />
    <glyph glyph-name="underscore" unicode="_" horiz-adv-x="500" 
d="M0 -125v50h500v-50h-500z" />
    <glyph glyph-name="grave" unicode="`" horiz-adv-x="241" 
d="M185 588l-118 143h125l77 -143h-84z" />
    <glyph glyph-name="a" unicode="a" 
d="M105 142q0 -19 8.5 -31.5t21.5 -20t29 -11t32 -3.5q42 0 70.5 14t47 38t29 56.5t16.5 69.5l-2 2q-12 -12 -32 -17t-39 -7q-24 -2 -55.5 -4t-59 -10.5t-47 -26t-19.5 -49.5zM448 150q-3 -14 -6.5 -27t-3.5 -24t5 -17t19 -6q10 0 20 2.5t20 3.5l-18 -82q-22 -5 -44 -9.5
t-45 -4.5q-29 0 -48 18t-21 48q-34 -34 -80 -50t-94 -16q-32 0 -61 9t-51.5 26t-35.5 43t-13 60q0 48 18 80.5t48 53.5t69 31t82 13q58 4 114 9q31 2 45.5 20.5t14.5 47.5q0 37 -26 49.5t-61 12.5q-48 0 -82.5 -16.5t-46.5 -64.5h-108q9 48 31 80.5t54 53t72.5 29t86.5 8.5
q70 0 109.5 -13.5t58 -32.5t22.5 -39.5t4 -34.5q0 -34 -10 -78z" />
    <glyph glyph-name="b" unicode="b" horiz-adv-x="611" 
d="M136 714h114l-53 -256l2 -2q58 75 157 75q46 0 82.5 -16t61.5 -44.5t38 -67.5t13 -85q0 -61 -17 -120.5t-51 -106.5t-85 -76t-118 -29q-60 0 -102.5 22t-68.5 79h-2l-15 -87h-104zM316 441q-43 0 -75 -22t-53.5 -56.5t-32 -76t-10.5 -80.5q0 -60 29 -95t92 -35
q43 0 75 22t53.5 56t32 75.5t10.5 80.5q0 60 -29 95.5t-92 35.5z" />
    <glyph glyph-name="c" unicode="c" 
d="M398 346q2 48 -26 71.5t-76 23.5q-43 0 -75 -22t-53 -56t-31.5 -74.5t-10.5 -77.5q0 -29 6 -53.5t19.5 -42.5t35.5 -28.5t54 -10.5q51 0 83.5 27t46.5 75h114q-28 -100 -94 -146t-169 -46q-51 0 -90 16t-65.5 45.5t-40.5 70t-14 89.5q0 65 20 124t58 103.5t92.5 70.5
t123.5 26q43 0 81 -12t66 -35t44 -58t15 -80h-114z" />
    <glyph glyph-name="d" unicode="d" horiz-adv-x="611" 
d="M468 0h-109l16 70l-2 2q-34 -50 -75 -68t-87 -18q-22 0 -56 6t-66.5 27.5t-55.5 63.5t-23 115q0 63 19 122.5t55 106.5t88 75.5t119 28.5q52 0 94 -19t62 -66h2l57 268h114zM419 317q0 25 -6.5 48t-20 39.5t-35.5 26.5t-52 10q-48 0 -82 -21.5t-56 -56.5t-32.5 -78.5
t-10.5 -86.5q0 -58 29 -90t89 -32q44 0 77 23t55.5 58.5t33.5 78t11 81.5z" />
    <glyph glyph-name="e" unicode="e" 
d="M402 304q1 5 1 8.5v7.5v16q0 46 -29 75.5t-80 29.5q-64 0 -102 -38.5t-55 -98.5h265zM485 160q-27 -91 -91 -132.5t-158 -41.5q-49 0 -90.5 15.5t-71.5 45t-47 71t-17 94.5q0 60 19 117t55.5 102t90 72.5t122.5 27.5t112 -23t67 -58t32.5 -77t8.5 -80q0 -19 -2 -35
t-4 -29h-385q-1 -5 -1.5 -9t-0.5 -8v-16q0 -54 28.5 -87t94.5 -33q46 0 79 21t45 63h114z" />
    <glyph glyph-name="f" unicode="f" horiz-adv-x="315" 
d="M110 432h-85l17 85h85q9 45 19 81t29 62t51 40t84 14q23 0 44 -2.5t41 -4.5l-19 -87q-17 4 -44 4q-29 0 -44.5 -8t-24 -22.5t-12.5 -34t-10 -42.5h100l-17 -85h-100l-90 -432h-114z" />
    <glyph glyph-name="g" unicode="g" horiz-adv-x="593" 
d="M133 218q0 -26 6 -49.5t19 -41t33.5 -27.5t49.5 -10q46 0 78.5 21t53.5 54t30.5 74t9.5 80q0 57 -29 89.5t-86 32.5q-42 0 -73 -21.5t-51.5 -54.5t-30.5 -72.5t-10 -74.5zM462 14q-13 -59 -32.5 -101t-50 -68t-74 -38t-104.5 -12q-44 0 -83.5 9t-70 28.5t-49 51
t-19.5 76.5h114q2 -44 35.5 -62t82.5 -18q38 0 63 11t41.5 30t25.5 45.5t16 58.5l11 51l-2 2q-54 -78 -146 -78q-97 0 -149 56.5t-52 155.5q0 58 17.5 115.5t51 102.5t83.5 73t115 28q57 0 98 -23t62 -77h2l15 86h108z" />
    <glyph glyph-name="h" unicode="h" horiz-adv-x="574" 
d="M136 714h114l-56 -270h2q29 39 75 63t95 24q78 0 114.5 -37t36.5 -100q0 -14 -1 -32t-4 -32l-69 -330h-114l66 319q3 13 5.5 25t2.5 23q0 6 -0.5 18.5t-7.5 25t-23.5 21.5t-47.5 9q-34 0 -60.5 -14.5t-47.5 -35.5q-20 -20 -34.5 -49.5t-21.5 -61.5l-58 -280h-114z" />
    <glyph glyph-name="i" unicode="i" horiz-adv-x="241" 
d="M136 714h113l-22 -108h-113zM95 517h114l-107 -517h-114z" />
    <glyph glyph-name="j" unicode="j" horiz-adv-x="241" 
d="M136 714h113l-22 -108h-113zM95 517h114l-109 -525q-6 -28 -12 -53t-17 -49q-20 -52 -53 -73.5t-88 -21.5q-35 0 -63 6l20 91q6 -5 16 -6t23 -1q17 0 27 9t16 22.5t9 30.5t6 32z" />
    <glyph glyph-name="k" unicode="k" horiz-adv-x="519" 
d="M136 714h114l-84 -404l2 -2l234 209h144l-228 -190l126 -327h-126l-91 251l-88 -75l-37 -176h-114z" />
    <glyph glyph-name="l" unicode="l" horiz-adv-x="241" 
d="M136 714h114l-148 -714h-114z" />
    <glyph glyph-name="m" unicode="m" horiz-adv-x="889" 
d="M101 517h108l-15 -73l2 -2q32 42 77.5 65.5t99.5 23.5q48 0 84 -20.5t47 -71.5q35 40 78 66t97 26q75 0 111 -37t36 -100q0 -14 -2.5 -32t-5.5 -32l-66 -330h-114l64 306q2 9 5.5 25.5t4.5 35.5q0 13 -2.5 26.5t-10.5 24t-22 17t-36 6.5q-33 0 -58.5 -13.5t-44 -34
t-30 -45t-15.5 -46.5l-63 -302h-114l59 284q4 20 9.5 45t5.5 48q0 26 -13.5 45t-49.5 19q-33 0 -56.5 -12t-40.5 -29t-35 -43.5t-25 -57.5l-62 -299h-114z" />
    <glyph glyph-name="n" unicode="n" horiz-adv-x="574" 
d="M95 517h107l-16 -75l2 -2q31 43 77.5 67t100.5 24q78 0 114.5 -37t36.5 -100q0 -14 -1 -32t-4 -32l-69 -330h-114l66 319q3 13 5.5 25t2.5 23q0 6 -0.5 18.5t-7.5 25t-23.5 21.5t-47.5 9q-34 0 -60.5 -14.5t-47.5 -35.5q-20 -20 -34.5 -49.5t-21.5 -61.5l-58 -280h-114z
" />
    <glyph glyph-name="o" unicode="o" horiz-adv-x="593" 
d="M300 441q-44 0 -76.5 -22t-54.5 -55.5t-32.5 -74.5t-10.5 -80q0 -57 28.5 -95t90.5 -38q44 0 76.5 21.5t54.5 55t32.5 75t10.5 80.5q0 57 -28.5 95t-90.5 38zM238 -14q-108 0 -167 58.5t-59 167.5q0 64 21 121.5t59.5 101.5t93 70t121.5 26q108 0 167 -56.5t59 -165.5
q0 -68 -20 -127t-58.5 -102.5t-93 -68.5t-123.5 -25z" />
    <glyph glyph-name="p" unicode="p" horiz-adv-x="611" 
d="M151 209q0 -28 6.5 -52t20 -42t35.5 -28.5t52 -10.5q46 0 79.5 20.5t55 53.5t32 74t10.5 82q0 28 -6.5 52.5t-20.5 43t-35.5 29t-51.5 10.5q-46 0 -79.5 -21t-55 -54.5t-32 -75t-10.5 -81.5zM97 517h113l-15 -66l2 -2q27 39 71 60.5t92 21.5t85 -16t61.5 -44.5t37 -68
t12.5 -85.5q0 -59 -16 -118.5t-49 -106.5t-83 -76.5t-117 -29.5q-57 0 -101 19.5t-68 74.5h-2l-56 -271h-114z" />
    <glyph glyph-name="q" unicode="q" horiz-adv-x="611" 
d="M124 206q0 -27 6.5 -50.5t20.5 -41t36.5 -28t54.5 -10.5q46 0 79.5 22t55 57t31.5 78t10 85q0 54 -29 88.5t-84 34.5q-46 0 -80 -22t-56.5 -56t-33.5 -75.5t-11 -81.5zM429 -191h-114l53 253l-2 2q-31 -42 -75.5 -60t-95.5 -18q-47 0 -82 15.5t-58 43.5t-34 65.5
t-11 81.5q0 64 18.5 125t54.5 108.5t89.5 76.5t124.5 29q51 0 93 -21.5t62 -70.5h2l16 78h106z" />
    <glyph glyph-name="r" unicode="r" horiz-adv-x="370" 
d="M95 517h108l-21 -101l2 -2q12 21 29.5 42t38.5 37.5t45.5 27t51.5 10.5q14 0 27.5 -0.5t27.5 -2.5l-24 -109q-10 2 -20 3t-20 1q-44 0 -76.5 -15.5t-55 -42.5t-36.5 -62t-22 -74l-48 -229h-114z" />
    <glyph glyph-name="s" unicode="s" horiz-adv-x="500" 
d="M354 366q-1 39 -29.5 57t-74.5 18q-17 0 -32.5 -3t-28 -10.5t-20 -20t-7.5 -31.5q0 -18 13.5 -29t35.5 -19.5t49 -16t54 -17.5q23 -9 45 -20t38.5 -27t26.5 -38t10 -53q0 -45 -20 -77t-52 -53t-73.5 -30.5t-83.5 -9.5q-45 0 -84 8.5t-68 29t-46 55t-18 87.5h108
q-2 -49 31 -69.5t83 -20.5q18 0 37 3.5t35 11.5t26.5 22.5t10.5 36.5q0 20 -14.5 33t-37 22.5t-51 17.5t-55.5 18q-23 8 -43.5 19t-36.5 26.5t-25 36.5t-9 50q0 42 18.5 72t48.5 49t68 28t78 9q42 0 79 -7.5t64.5 -26.5t43 -51t14.5 -80h-108z" />
    <glyph glyph-name="t" unicode="t" horiz-adv-x="333" 
d="M159 672h111l-32 -155h103l-18 -85h-103l-53 -253q-4 -17 -7 -32t-3 -24q0 -17 7.5 -27.5t33.5 -10.5q13 0 28.5 0.5t32.5 4.5l-19 -84q-22 -5 -47 -8t-47 -3q-31 0 -51 8t-31.5 21.5t-16 31t-4.5 35.5q0 15 2.5 33t4.5 25l59 283h-90l18 85h90z" />
    <glyph glyph-name="u" unicode="u" horiz-adv-x="574" 
d="M439 0h-107l16 75l-2 2q-31 -43 -77.5 -67t-100.5 -24q-78 0 -114.5 37t-36.5 100q0 14 1 32t4 32l69 330h114l-66 -319q-3 -13 -5.5 -25t-2.5 -23q0 -6 0.5 -18.5t7.5 -25t23 -21.5t48 -9q33 0 60.5 14.5t48.5 37.5t35 51.5t20 57.5l58 280h114z" />
    <glyph glyph-name="v" unicode="v" horiz-adv-x="500" 
d="M34 517h118l43 -377h2l200 377h120l-286 -517h-127z" />
    <glyph glyph-name="w" unicode="w" horiz-adv-x="778" 
d="M29 517h117l31 -373h2l172 373h119l22 -373h3l179 373h120l-269 -517h-120l-22 377h-2l-172 -377h-119z" />
    <glyph glyph-name="x" unicode="x" horiz-adv-x="500" 
d="M56 517h122l71 -165l134 165h132l-220 -250l132 -267h-124l-84 190l-158 -190h-131l240 275z" />
    <glyph glyph-name="y" unicode="y" horiz-adv-x="500" 
d="M29 517h120l54 -378h2l195 378h122l-296 -533q-20 -37 -39 -71t-43.5 -60.5t-57.5 -42t-81 -15.5q-29 0 -69 8l21 95q11 -3 22 -5.5t22 -2.5q26 0 44.5 9.5t29.5 34.5l45 83z" />
    <glyph glyph-name="z" unicode="z" horiz-adv-x="481" 
d="M69 517h415l-19 -83l-341 -344h293l-19 -90h-447l19 84l340 343h-261z" />
    <glyph glyph-name="braceleft" unicode="{" horiz-adv-x="296" 
d="M-18 315q11 0 27.5 3t33 11.5t30 22.5t18.5 36l43 206q16 76 59 106.5t98 30.5h91l-19 -90h-59q-20 0 -32 -6.5t-20 -17t-12 -23t-7 -23.5l-40 -195q-7 -30 -23 -49.5t-35 -31.5t-37.5 -17.5t-30.5 -6.5v-2q10 -1 24.5 -4t27.5 -11t22.5 -23.5t9.5 -40.5q0 -8 -0.5 -15.5
t-2.5 -16.5l-40 -189q-4 -11 -4 -26q0 -17 8.5 -30.5t37.5 -13.5h59l-19 -90h-91q-14 0 -32 6.5t-34 19.5t-26.5 33t-10.5 47q0 14 3 31l37 174q3 14 5 25.5t2 15.5q0 19 -9 31.5t-21.5 19.5t-26.5 10t-23 3z" />
    <glyph glyph-name="bar" unicode="|" horiz-adv-x="222" 
d="M60 786h102v-1000h-102v1000z" />
    <glyph glyph-name="braceright" unicode="}" horiz-adv-x="296" 
d="M268 225q-10 0 -27 -3.5t-33.5 -11.5t-30.5 -22t-18 -36l-43 -206q-15 -72 -53 -104.5t-104 -32.5h-91l19 90h59q19 0 31.5 6.5t20.5 17t12 23t7 23.5l40 195q7 31 23 50.5t34.5 30.5t37.5 16.5t31 7.5v2q-10 1 -24.5 4t-27.5 11t-22.5 23t-9.5 41q0 8 0.5 15.5t2.5 16.5
l40 189q4 11 4 26q0 17 -8.5 30.5t-37.5 13.5h-59l19 90h91q14 0 32 -6.5t33.5 -19.5t26.5 -33t11 -47q0 -15 -3 -31l-37 -174q-3 -14 -5 -25.5t-2 -15.5q0 -19 9 -31.5t21.5 -19.5t26.5 -10t23 -3z" />
    <glyph glyph-name="asciitilde" unicode="~" horiz-adv-x="600" 
d="M531 254q-11 -16 -23 -31.5t-27 -27.5t-33.5 -19.5t-41.5 -7.5q-28 0 -52.5 9.5t-49.5 23.5q-24 14 -52 24.5t-63 10.5q-17 0 -29.5 -6.5t-23 -16t-18 -21.5t-13.5 -24l-36 84q8 16 19 31.5t26.5 27.5t35 19.5t44.5 7.5q26 0 54 -9.5t57 -22.5q28 -12 55 -24t47 -12
q15 0 27.5 6.5t23 16t19.5 21.5l18 24z" />
    <glyph glyph-name="uni00A0" unicode="&#xa0;" horiz-adv-x="278" 
 />
    <glyph glyph-name="exclamdown" unicode="&#xa1;" horiz-adv-x="296" 
d="M173 332l-34 -307l-43 -208h-123l44 212l98 303h58zM91 406l27 125h129l-27 -125h-129z" />
    <glyph glyph-name="cent" unicode="&#xa2;" 
d="M350 528q36 -5 66.5 -19t52.5 -37t34 -54.5t11 -71.5h-114q2 39 -17.5 62t-52.5 30l-79 -362q48 2 78 29.5t44 72.5h114q-27 -99 -91.5 -144.5t-164.5 -47.5l-22 -102h-41l23 105q-88 10 -132.5 68.5t-44.5 149.5q0 65 20 124t58 103.5t92.5 70.5t123.5 26l21 89h41z
M290 441q-41 -3 -71.5 -25.5t-50.5 -56t-30 -73t-10 -75.5q0 -51 18.5 -86.5t64.5 -44.5z" />
    <glyph glyph-name="sterling" unicode="&#xa3;" 
d="M37 384h63q-11 29 -15.5 57.5t-4.5 60.5q0 55 19.5 97.5t54 71.5t80.5 44.5t100 15.5q53 0 95.5 -17t71.5 -48t42.5 -74.5t9.5 -95.5h-111q8 63 -22 101.5t-93 38.5q-74 0 -103.5 -39t-29.5 -102q0 -37 7.5 -62.5t12.5 -48.5h151l-12 -65h-128q2 -12 3 -26t1 -28
q0 -30 -9 -55t-24.5 -46.5t-35.5 -39.5t-41 -34l2 -2q7 5 18 9.5t23.5 8t24.5 5.5t21 2q23 0 43 -5.5t40 -11.5q20 -7 38 -12.5t38 -5.5q29 0 54.5 14.5t47.5 28.5l36 -89q-38 -24 -76.5 -36.5t-84.5 -12.5q-23 0 -46 6t-47.5 13.5t-50.5 14t-54 6.5q-32 0 -60 -11.5
t-54 -28.5l-34 87q24 20 46.5 40t39.5 42.5t27 49.5t10 63q0 14 -3.5 28l-6.5 26h-88z" />
    <glyph glyph-name="currency" unicode="&#xa4;" 
d="M279 201q30 0 56 12t44.5 32.5t29 48t10.5 57.5t-10.5 56.5t-29 47t-44 32.5t-55.5 12q-31 0 -57.5 -12t-46 -32t-30.5 -47.5t-11 -58.5t11 -58t30.5 -47t46 -31.5t56.5 -11.5zM20 146l57 61q-50 56 -50 142q0 42 12 80.5t38 63.5l-57 61l57 57l57 -56q25 21 64.5 33.5
t81.5 12.5q40 0 77 -12.5t60 -32.5l58 57l61 -61l-56 -58q23 -24 35 -62.5t12 -80.5t-12.5 -80t-35.5 -66l55 -59l-55 -55l-57 58q-25 -24 -63 -37t-80 -13q-45 0 -83 12.5t-64 36.5l-56 -58z" />
    <glyph glyph-name="yen" unicode="&#xa5;" 
d="M79 363h107l-133 351h120l104 -324l237 324h120l-266 -351h109l-13 -65h-142l-14 -68h142l-14 -65h-142l-34 -165h-114l34 165h-142l14 65h142l14 68h-142z" />
    <glyph glyph-name="brokenbar" unicode="&#xa6;" horiz-adv-x="222" 
d="M60 661h102v-250h-102v250zM60 161h102v-250h-102v250z" />
    <glyph glyph-name="section" unicode="&#xa7;" 
d="M315 131q35 0 62 19.5t27 58.5q0 22 -9 42.5t-26 35.5l-119 115q-8 8 -14.5 14t-17.5 6q-14 0 -28.5 -5.5t-26.5 -15t-19.5 -22.5t-7.5 -29q0 -27 9 -44t27 -36zM103 -14q-2 -45 25 -73t75 -28q16 0 32 5.5t28.5 16.5t20.5 29t8 44q0 28 -19.5 53.5t-49 51t-63.5 52
t-63.5 57t-49 66t-19.5 78.5q0 29 11 55.5t30.5 47t46 33t56.5 14.5q-12 20 -17 40t-5 43q0 37 16.5 67t42.5 50.5t59.5 31.5t68.5 11q104 0 149 -43.5t45 -139.5h-102q1 39 -20 66t-66 27q-15 0 -30 -4.5t-27.5 -13.5t-20 -22t-7.5 -30q0 -23 11.5 -43t30 -39.5t42 -38.5
t47.5 -39q23 -19 45 -38.5t39.5 -41.5t28 -46t10.5 -52q0 -64 -38 -108.5t-101 -55.5q14 -23 20.5 -42.5t6.5 -53.5q0 -21 -8 -51t-30.5 -58.5t-62.5 -48.5t-104 -20q-50 0 -86.5 14t-60.5 39.5t-35.5 60.5t-11.5 77h102z" />
    <glyph glyph-name="dieresis" unicode="&#xa8;" horiz-adv-x="241" 
d="M186 709l-19 -108h-110l19 108h110zM366 709l-19 -108h-110l19 108h110z" />
    <glyph glyph-name="copyright" unicode="&#xa9;" horiz-adv-x="800" 
d="M590 285q-6 -36 -22 -64.5t-39.5 -48.5t-53 -30.5t-62.5 -10.5q-48 0 -87 17t-67 47.5t-43 72t-15 89.5q0 45 14.5 84t41.5 68.5t66 46t88 16.5q69 0 118.5 -38t59.5 -113h-68q-8 38 -37.5 62t-72.5 24q-32 0 -56 -12t-40.5 -32t-25 -47.5t-8.5 -58.5q0 -33 9 -62
t26.5 -51t42 -35t54.5 -13q45 0 74 25t34 64h69zM687 357q0 68 -22 125t-61 98t-91 63.5t-112 22.5q-61 0 -113.5 -22.5t-91.5 -63.5t-61 -98t-22 -125q0 -64 20 -120t57.5 -98t90.5 -66.5t120 -24.5q60 0 112 22.5t91 63.5t61 97.5t22 125.5zM767 357q0 -84 -29.5 -153
t-80 -118t-117 -76t-139.5 -27q-81 0 -148.5 28.5t-116 78.5t-76 118.5t-27.5 148.5q0 84 29.5 153t80 118t117.5 76t141 27q73 0 139.5 -27t117 -76t80 -118t29.5 -153z" />
    <glyph glyph-name="ordfeminine" unicode="&#xaa;" horiz-adv-x="334" 
d="M117 473q0 -22 16 -32t39 -10q25 0 42 9t28 22t17 27t8 23l7 29l-2 2q-8 -8 -20.5 -11t-24.5 -4q-13 -1 -31.5 -2.5t-36 -6.5t-30 -16t-12.5 -30zM367 379q-11 -2 -24 -4t-27 -2q-30 0 -44 15t-15 33q-22 -27 -52 -37.5t-61 -10.5q-48 0 -80 21.5t-32 67.5q0 31 11.5 52
t32 34t47.5 19t57 8q38 2 74 6q18 1 27 12t9 28q0 11 -16.5 19.5t-36.5 8.5q-28 0 -50 -9.5t-30 -35.5h-81q12 63 56 86.5t110 23.5q48 0 75 -8.5t40 -20.5t15.5 -26t2.5 -24q0 -22 -7 -47l-24 -104q-2 -8 -4 -17t-2 -22q0 -14 16 -14q6 0 12.5 1.5t13.5 2.5z" />
    <glyph glyph-name="guillemotleft" unicode="&#xab;" horiz-adv-x="463" 
d="M245 341l177 110l-22 -107l-113 -68l80 -90l-21 -93l-126 138zM51 341l177 110l-22 -107l-113 -68l80 -90l-21 -93l-126 138z" />
    <glyph glyph-name="logicalnot" unicode="&#xac;" horiz-adv-x="600" 
d="M450 303h-402v102h504v-297h-102v195z" />
    <glyph glyph-name="uni00AD" unicode="&#xad;" horiz-adv-x="389" 
d="M42 326h296l-21 -108h-296z" />
    <glyph glyph-name="registered" unicode="&#xae;" horiz-adv-x="800" 
d="M687 357q0 68 -22 125t-61 98t-91 63.5t-112 22.5q-61 0 -113.5 -22.5t-91.5 -63.5t-61 -98t-22 -125q0 -64 20 -120t57.5 -98t90.5 -66.5t120 -24.5q60 0 112 22.5t91 63.5t61 97.5t22 125.5zM767 357q0 -84 -29.5 -153t-80 -118t-117 -76t-139.5 -27q-81 0 -148.5 28.5
t-116 78.5t-76 118.5t-27.5 148.5q0 84 29.5 153t80 118t117.5 76t141 27q73 0 139.5 -27t117 -76t80 -118t29.5 -153zM403 378q19 0 37 1.5t31.5 8.5t21.5 19.5t8 35.5q0 18 -8.5 29t-22 17t-30 8t-31.5 2h-84v-121h78zM325 143h-66v414h157q75 0 113 -28t38 -91
q0 -56 -31 -82t-77 -31l116 -182h-77l-107 177h-66v-177z" />
    <glyph glyph-name="macron" unicode="&#xaf;" horiz-adv-x="241" 
d="M59 623l12 65h285l-13 -65h-284z" />
    <glyph glyph-name="degree" unicode="&#xb0;" horiz-adv-x="400" 
d="M133 564q0 -20 7.5 -37t20 -29.5t29.5 -20t37 -7.5q19 0 36.5 7.5t30 20t20 29.5t7.5 37q0 19 -7.5 36.5t-20 30t-30 20t-36.5 7.5q-20 0 -37 -7.5t-29.5 -20t-20 -30t-7.5 -36.5zM77 564q0 31 12 58.5t32 47.5t47.5 32t58.5 12t58.5 -12t47.5 -32t32 -47.5t12 -58.5
t-12 -58.5t-32 -47.5t-47.5 -32t-58.5 -12t-58.5 12t-47.5 32t-32 47.5t-12 58.5z" />
    <glyph glyph-name="plusminus" unicode="&#xb1;" horiz-adv-x="600" 
d="M48 102h504v-102h-504v102zM249 506h102v-125h201v-102h-201v-125h-102v125h-201v102h201v125z" />
    <glyph glyph-name="twosuperior" unicode="&#xb2;" horiz-adv-x="333" 
d="M322 273h-317q11 60 42.5 101.5t82.5 70.5q25 14 52 29.5t55 30.5q22 12 34.5 22t19 20.5t8.5 22t2 25.5q0 13 -7 22.5t-18 15.5t-23.5 8.5t-22.5 2.5q-38 0 -64 -24.5t-30 -62.5h-80q8 78 53 117.5t123 39.5q30 0 57 -6.5t47.5 -20.5t32.5 -37.5t12 -56.5
q0 -40 -23 -75.5t-83 -67.5q-21 -11 -46.5 -24.5t-49.5 -28t-42.5 -28.5t-25.5 -26h228z" />
    <glyph glyph-name="threesuperior" unicode="&#xb3;" horiz-adv-x="333" 
d="M180 532h16q20 0 39 2.5t33.5 9t23 19t8.5 33.5q0 13 -6.5 22t-16.5 15t-22 8.5t-22 2.5q-33 0 -57.5 -19.5t-32.5 -51.5h-80q12 75 58.5 108t119.5 33q25 0 50 -6t45 -18.5t32 -33t12 -50.5q0 -40 -23.5 -66.5t-59.5 -34.5v-2q31 -11 43.5 -34t12.5 -54
q0 -38 -14.5 -66.5t-40 -47t-59.5 -28t-73 -9.5q-70 0 -109 32t-39 95v15v5.5t1 7.5h80q0 -5 -0.5 -9.5t-0.5 -8.5q0 -30 22 -48.5t59 -18.5q42 0 68 23t26 60q0 18 -7.5 29t-19.5 17t-27 8.5t-31 2.5h-20z" />
    <glyph glyph-name="acute" unicode="&#xb4;" horiz-adv-x="241" 
d="M343 731l-118 -143h-84l77 143h125z" />
    <glyph glyph-name="mu" unicode="&#xb5;" horiz-adv-x="574" 
d="M439 0h-107l16 75l-2 2q-31 -43 -77.5 -67t-100.5 -24q-21 0 -38.5 4t-30.5 18l-41 -199h-114l147 708h114l-66 -319q-3 -13 -5.5 -25t-2.5 -23q0 -6 0.5 -18.5t7.5 -25t23 -21.5t48 -9q33 0 60.5 14.5t48.5 37.5t35 51.5t20 57.5l58 280h114z" />
    <glyph glyph-name="paragraph" unicode="&#xb6;" horiz-adv-x="600" 
d="M390 649l-169 -809h-80l103 496q-35 -1 -64.5 9.5t-51 30.5t-33.5 48.5t-12 63.5q0 17 3.5 40.5t13 48.5t28 49.5t49 44t74 31.5t104.5 12h238l-182 -874h-80l169 809h-110z" />
    <glyph glyph-name="periodcentered" unicode="&#xb7;" horiz-adv-x="278" 
d="M64 302q0 15 6 28t16.5 23.5t24 16.5t28.5 6t28.5 -6t24 -16.5t16.5 -23.5t6 -28q0 -30 -22 -53t-53 -23t-53 23t-22 53z" />
    <glyph glyph-name="cedilla" unicode="&#xb8;" horiz-adv-x="241" 
d="M-45 -162q16 -8 32.5 -11.5t36.5 -5.5q8 -1 18 1t18.5 6.5t14.5 12t6 17.5q0 21 -14 30t-33 9q-9 0 -18.5 -2t-18.5 -5l-17 21l73 89h49l-57 -66l14 2t15 1q33 0 60 -17.5t27 -54.5q0 -23 -11.5 -40t-29 -28t-39 -16t-40.5 -5q-28 0 -58.5 7t-47.5 16z" />
    <glyph glyph-name="onesuperior" unicode="&#xb9;" horiz-adv-x="333" 
d="M97 635q45 0 85.5 18t55.5 52h74l-98 -432h-93l71 315q-23 -6 -50.5 -8.5t-57.5 -2.5z" />
    <glyph glyph-name="ordmasculine" unicode="&#xba;" horiz-adv-x="356" 
d="M197 438q27 0 47.5 13t34 32.5t20.5 43.5t7 46q0 31 -18 53.5t-56 22.5q-27 0 -47.5 -13t-34 -33t-20.5 -44t-7 -46q0 -31 18 -53t56 -22zM192 373q-75 0 -114.5 36t-39.5 106q0 40 14 76.5t39.5 63.5t62.5 43t83 16q75 0 114.5 -34.5t39.5 -106.5q0 -43 -13 -79.5
t-38.5 -63.5t-62.5 -42t-85 -15z" />
    <glyph glyph-name="guillemotright" unicode="&#xbb;" horiz-adv-x="463" 
d="M27 200l113 68l-80 90l21 93l126 -138l-25 -110l-177 -110zM221 200l113 68l-80 90l21 93l126 -138l-25 -110l-177 -110z" />
    <glyph glyph-name="onequarter" unicode="&#xbc;" horiz-adv-x="834" 
d="M806 97h-56l-23 -97h-93l23 97h-195l16 72l255 268h97l-62 -265h56zM712 324l-2 2l-150 -154h116zM86 635q45 0 85.5 18t55.5 52h74l-98 -432h-93l71 315q-23 -6 -50.5 -8.5t-57.5 -2.5zM581 724h78l-418 -748h-79z" />
    <glyph glyph-name="onehalf" unicode="&#xbd;" horiz-adv-x="834" 
d="M780 0h-317q11 60 42.5 101.5t82.5 70.5q25 14 52 29.5t55 30.5q22 12 34.5 22t19 20.5t8.5 22t2 25.5q0 26 -22 40t-49 14q-43 0 -67 -27t-27 -65h-80q7 76 49.5 119t126.5 43q32 0 59.5 -7t47.5 -22.5t31 -39.5t11 -57q0 -40 -23 -75.5t-83 -67.5q-21 -11 -46.5 -24.5
t-49.5 -28t-42.5 -28.5t-25.5 -26h228zM86 635q45 0 85.5 18t55.5 52h74l-98 -432h-93l71 315q-23 -6 -50.5 -8.5t-57.5 -2.5zM549 724h78l-418 -748h-79z" />
    <glyph glyph-name="threequarters" unicode="&#xbe;" horiz-adv-x="834" 
d="M807 97h-56l-23 -97h-93l23 97h-195l16 72l255 268h97l-62 -265h56zM713 324l-2 2l-150 -154h116zM48 573q13 72 59.5 106.5t118.5 34.5q25 0 50 -6t45 -18.5t32 -33t12 -50.5q0 -40 -23.5 -66.5t-59.5 -34.5v-2q31 -11 43.5 -34t12.5 -54q0 -38 -14.5 -66.5t-40 -47
t-59.5 -28t-73 -9.5q-70 0 -109 32t-39 95v15v5.5t1 7.5h80q0 -5 -0.5 -9.5t-0.5 -8.5q0 -30 22 -48.5t59 -18.5q42 0 68 23t26 60q0 18 -7.5 29t-19.5 17t-27 8.5t-31 2.5h-20l12 58h16q20 0 39 2.5t33.5 9t23 19t8.5 33.5q0 13 -6.5 22t-16.5 15t-22 8.5t-22 2.5
q-33 0 -57.5 -19.5t-32.5 -51.5h-80zM624 724h78l-418 -748h-79z" />
    <glyph glyph-name="questiondown" unicode="&#xbf;" 
d="M260 531h129l-27 -125h-129zM336 328q-6 -35 -14.5 -62.5t-22.5 -50.5t-35 -43t-51 -39q-23 -14 -45 -28t-40 -31t-29 -39t-11 -52q0 -21 9.5 -37t24.5 -27.5t33.5 -17.5t37.5 -6q31 0 55.5 11.5t42 31.5t28.5 45.5t15 54.5h113q-6 -53 -26.5 -96.5t-53.5 -75t-77.5 -49
t-98.5 -17.5q-44 0 -83.5 10t-69 31.5t-47 56t-17.5 83.5q0 43 14 74.5t37.5 56t53 45t61.5 42.5q22 15 36.5 27.5t24 26.5t16 31.5t13.5 43.5h106z" />
    <glyph glyph-name="Agrave" unicode="&#xc0;" horiz-adv-x="685" 
d="M368 714h132l124 -714h-127l-29 189h-284l-110 -189h-134zM411 588h-2l-172 -304h218zM412 782l-118 143h125l77 -143h-84z" />
    <glyph glyph-name="Aacute" unicode="&#xc1;" horiz-adv-x="685" 
d="M368 714h132l124 -714h-127l-29 189h-284l-110 -189h-134zM411 588h-2l-172 -304h218zM576 925l-118 -143h-84l77 143h125z" />
    <glyph glyph-name="Acircumflex" unicode="&#xc2;" horiz-adv-x="685" 
d="M368 714h132l124 -714h-127l-29 189h-284l-110 -189h-134zM411 588h-2l-172 -304h218zM282 782l134 143h104l78 -143h-86l-51 90l-87 -90h-92z" />
    <glyph glyph-name="Atilde" unicode="&#xc3;" horiz-adv-x="685" 
d="M368 714h132l124 -714h-127l-29 189h-284l-110 -189h-134zM411 588h-2l-172 -304h218zM619 913q-3 -19 -11 -40t-21.5 -38.5t-31.5 -29t-40 -11.5q-18 0 -38.5 7.5t-40.5 17t-37.5 17t-30.5 7.5q-16 0 -27.5 -16.5t-16.5 -29.5h-59q6 21 14 41.5t20.5 37t30 27t41.5 10.5
q23 0 42 -7t36 -16q18 -8 35 -16t34 -8q9 0 16 5t12.5 12.5t9 15.5t5.5 14h58z" />
    <glyph glyph-name="Adieresis" unicode="&#xc4;" horiz-adv-x="685" 
d="M368 714h132l124 -714h-127l-29 189h-284l-110 -189h-134zM411 588h-2l-172 -304h218zM428 903l-19 -108h-110l19 108h110zM608 903l-19 -108h-110l19 108h110z" />
    <glyph glyph-name="Aring" unicode="&#xc5;" horiz-adv-x="685" 
d="M368 714h132l124 -714h-127l-29 189h-284l-110 -189h-134zM411 588h-2l-172 -304h218zM380 853q0 -26 17.5 -43.5t43.5 -17.5t43.5 17.5t17.5 43.5t-17.5 43.5t-43.5 17.5t-43.5 -17.5t-17.5 -43.5zM441 750q-22 0 -41.5 8.5t-33.5 22.5t-22 32.5t-6 39.5q0 21 8 39.5
t22.5 33t33 22.5t39.5 8t39.5 -8t33 -22.5t22.5 -33t8 -39.5t-8 -39.5t-22.5 -32.5t-33 -22.5t-39.5 -8.5z" />
    <glyph glyph-name="AE" unicode="&#xc6;" horiz-adv-x="963" 
d="M257 278h188l70 334h-27zM432 714h570l-23 -108h-348l-39 -187h326l-21 -102h-326l-43 -209h352l-23 -108h-473l38 183h-230l-128 -183h-144z" />
    <glyph glyph-name="Ccedilla" unicode="&#xc7;" horiz-adv-x="722" 
d="M192 -162q16 -8 32.5 -11.5t36.5 -5.5q8 -1 18 1t18.5 6.5t14.5 12t6 17.5q0 21 -14 30t-33 9q-9 0 -18.5 -2t-18.5 -5l-17 21l63 77q-18 3 -35 7.5t-33 11.5q-88 36 -134.5 112t-46.5 176q0 112 33.5 194.5t88 136t123 79.5t138.5 26q63 0 116 -17t90.5 -49t57.5 -80
t18 -109h-125q0 75 -41.5 114t-119.5 39q-64 0 -111.5 -29t-79 -76t-47.5 -106t-16 -119q0 -100 51 -157t145 -57q48 0 81 18.5t54.5 45t33 54.5t16.5 46h125q-15 -68 -45 -118t-71.5 -83t-92 -49t-105.5 -16h-12t-12 1l-42 -50l14 2q5 1 15 1q33 0 60 -17.5t27 -54.5
q0 -23 -11.5 -40t-29 -28t-39 -16t-40.5 -5q-28 0 -58.5 7t-47.5 16z" />
    <glyph glyph-name="Egrave" unicode="&#xc8;" horiz-adv-x="630" 
d="M149 714h520l-22 -108h-397l-39 -187h368l-21 -102h-369l-43 -209h400l-22 -108h-523zM405 782l-118 143h125l77 -143h-84z" />
    <glyph glyph-name="Eacute" unicode="&#xc9;" horiz-adv-x="630" 
d="M149 714h520l-22 -108h-397l-39 -187h368l-21 -102h-369l-43 -209h400l-22 -108h-523zM568 925l-118 -143h-84l77 143h125z" />
    <glyph glyph-name="Ecircumflex" unicode="&#xca;" horiz-adv-x="630" 
d="M149 714h520l-22 -108h-397l-39 -187h368l-21 -102h-369l-43 -209h400l-22 -108h-523zM256 782l134 143h104l78 -143h-86l-51 90l-87 -90h-92z" />
    <glyph glyph-name="Edieresis" unicode="&#xcb;" horiz-adv-x="630" 
d="M149 714h520l-22 -108h-397l-39 -187h368l-21 -102h-369l-43 -209h400l-22 -108h-523zM400 903l-19 -108h-110l19 108h110zM580 903l-19 -108h-110l19 108h110z" />
    <glyph glyph-name="Igrave" unicode="&#xcc;" horiz-adv-x="278" 
d="M153 714h125l-149 -714h-125zM194 782l-118 143h125l77 -143h-84z" />
    <glyph glyph-name="Iacute" unicode="&#xcd;" horiz-adv-x="278" 
d="M153 714h125l-149 -714h-125zM356 925l-118 -143h-84l77 143h125z" />
    <glyph glyph-name="Icircumflex" unicode="&#xce;" horiz-adv-x="278" 
d="M153 714h125l-149 -714h-125zM68 782l134 143h104l78 -143h-86l-51 90l-87 -90h-92z" />
    <glyph glyph-name="Idieresis" unicode="&#xcf;" horiz-adv-x="278" 
d="M153 714h125l-149 -714h-125zM212 903l-19 -108h-110l19 108h110zM392 903l-19 -108h-110l19 108h110z" />
    <glyph glyph-name="Eth" unicode="&#xd0;" horiz-adv-x="722" 
d="M215 419h194l-20 -102h-196l-45 -215h156q54 0 94.5 18.5t69.5 47t48.5 64.5t31 70.5t16 65t4.5 48.5q0 94 -41 145t-116 51h-156zM68 317h-65l20 102h66l62 295h262q138 0 209 -74.5t71 -224.5q0 -32 -7 -71.5t-21 -80t-35 -78t-50 -65.5q-32 -31 -62 -53.5t-67 -37.5
t-84.5 -22t-114.5 -7h-251z" />
    <glyph glyph-name="Ntilde" unicode="&#xd1;" horiz-adv-x="722" 
d="M149 714h137l219 -533h2l109 533h125l-148 -714h-137l-220 530h-2l-108 -530h-125zM644 913q-3 -19 -11 -40t-21.5 -38.5t-31.5 -29t-40 -11.5q-18 0 -38.5 7.5t-40.5 17t-37.5 17t-30.5 7.5q-16 0 -27.5 -16.5t-16.5 -29.5h-59q6 21 14 41.5t20.5 37t30 27t41.5 10.5
q23 0 42 -7t36 -16q18 -8 35 -16t34 -8q9 0 16 5t12.5 12.5t9 15.5t5.5 14h58z" />
    <glyph glyph-name="Ograve" unicode="&#xd2;" horiz-adv-x="759" 
d="M156 299q0 -100 51 -157t145 -57q62 0 108.5 29t78 76t47 106t15.5 119q0 100 -48.5 157t-142.5 57q-64 0 -111.5 -29t-79 -76t-47.5 -106t-16 -119zM31 295q0 112 33.5 194.5t88 136t123 79.5t138.5 26t128 -23t98.5 -64.5t63 -98.5t22.5 -126q0 -113 -32 -195
t-85 -135.5t-121 -79.5t-140 -26q-77 0 -136 24t-99 66t-61 99t-21 123zM411 782l-118 143h125l77 -143h-84z" />
    <glyph glyph-name="Oacute" unicode="&#xd3;" horiz-adv-x="759" 
d="M156 299q0 -100 51 -157t145 -57q62 0 108.5 29t78 76t47 106t15.5 119q0 100 -48.5 157t-142.5 57q-64 0 -111.5 -29t-79 -76t-47.5 -106t-16 -119zM31 295q0 112 33.5 194.5t88 136t123 79.5t138.5 26t128 -23t98.5 -64.5t63 -98.5t22.5 -126q0 -113 -32 -195
t-85 -135.5t-121 -79.5t-140 -26q-77 0 -136 24t-99 66t-61 99t-21 123zM594 925l-118 -143h-84l77 143h125z" />
    <glyph glyph-name="Ocircumflex" unicode="&#xd4;" horiz-adv-x="759" 
d="M156 299q0 -100 51 -157t145 -57q62 0 108.5 29t78 76t47 106t15.5 119q0 100 -48.5 157t-142.5 57q-64 0 -111.5 -29t-79 -76t-47.5 -106t-16 -119zM31 295q0 112 33.5 194.5t88 136t123 79.5t138.5 26t128 -23t98.5 -64.5t63 -98.5t22.5 -126q0 -113 -32 -195
t-85 -135.5t-121 -79.5t-140 -26q-77 0 -136 24t-99 66t-61 99t-21 123zM284 782l134 143h104l78 -143h-86l-51 90l-87 -90h-92z" />
    <glyph glyph-name="Otilde" unicode="&#xd5;" horiz-adv-x="759" 
d="M156 299q0 -100 51 -157t145 -57q62 0 108.5 29t78 76t47 106t15.5 119q0 100 -48.5 157t-142.5 57q-64 0 -111.5 -29t-79 -76t-47.5 -106t-16 -119zM31 295q0 112 33.5 194.5t88 136t123 79.5t138.5 26t128 -23t98.5 -64.5t63 -98.5t22.5 -126q0 -113 -32 -195
t-85 -135.5t-121 -79.5t-140 -26q-77 0 -136 24t-99 66t-61 99t-21 123zM625 913q-3 -19 -11 -40t-21.5 -38.5t-31.5 -29t-40 -11.5q-18 0 -38.5 7.5t-40.5 17t-37.5 17t-30.5 7.5q-16 0 -27.5 -16.5t-16.5 -29.5h-59q6 21 14 41.5t20.5 37t30 27t41.5 10.5q23 0 42 -7
t36 -16q18 -8 35 -16t34 -8q9 0 16 5t12.5 12.5t9 15.5t5.5 14h58z" />
    <glyph glyph-name="Odieresis" unicode="&#xd6;" horiz-adv-x="759" 
d="M156 299q0 -100 51 -157t145 -57q62 0 108.5 29t78 76t47 106t15.5 119q0 100 -48.5 157t-142.5 57q-64 0 -111.5 -29t-79 -76t-47.5 -106t-16 -119zM31 295q0 112 33.5 194.5t88 136t123 79.5t138.5 26t128 -23t98.5 -64.5t63 -98.5t22.5 -126q0 -113 -32 -195
t-85 -135.5t-121 -79.5t-140 -26q-77 0 -136 24t-99 66t-61 99t-21 123zM422 903l-19 -108h-110l19 108h110zM602 903l-19 -108h-110l19 108h110z" />
    <glyph glyph-name="multiply" unicode="&#xd7;" horiz-adv-x="600" 
d="M55 427l86 56l158 -159l160 159l86 -56l-175 -174l175 -174l-86 -56l-160 160l-158 -160l-86 56l174 174z" />
    <glyph glyph-name="Oslash" unicode="&#xd8;" horiz-adv-x="759" 
d="M201 151q49 -66 151 -66q62 0 108.5 29t78 76t47 106t15.5 119t-16 98zM559 562q-23 32 -60.5 49.5t-88.5 17.5q-64 0 -111.5 -29t-79 -76t-47.5 -106t-16 -119q0 -58 18 -100zM82 112q-25 37 -38 83t-13 100q0 112 33.5 194.5t88 136t123 79.5t138.5 26
q72 0 129.5 -23.5t99.5 -66.5l103 97l36 -39l-106 -100q50 -77 50 -180q0 -113 -32 -195t-85 -135.5t-121 -79.5t-140 -26q-76 0 -134 23t-98 65l-102 -96l-36 39z" />
    <glyph glyph-name="Ugrave" unicode="&#xd9;" horiz-adv-x="741" 
d="M150 714h125l-92 -437q-3 -14 -5 -28.5t-3 -29.5q-1 -36 10.5 -60.5t32.5 -39.5t49 -21.5t61 -6.5q36 0 66.5 8t55 28.5t43.5 56t31 90.5l94 440h125l-94 -448q-9 -44 -26 -94t-53.5 -92t-97.5 -69.5t-158 -27.5q-53 0 -101 13.5t-84 40.5t-57.5 68.5t-21.5 97.5
q0 25 3.5 48.5t8.5 47.5zM430 782l-118 143h125l77 -143h-84z" />
    <glyph glyph-name="Uacute" unicode="&#xda;" horiz-adv-x="741" 
d="M150 714h125l-92 -437q-3 -14 -5 -28.5t-3 -29.5q-1 -36 10.5 -60.5t32.5 -39.5t49 -21.5t61 -6.5q36 0 66.5 8t55 28.5t43.5 56t31 90.5l94 440h125l-94 -448q-9 -44 -26 -94t-53.5 -92t-97.5 -69.5t-158 -27.5q-53 0 -101 13.5t-84 40.5t-57.5 68.5t-21.5 97.5
q0 25 3.5 48.5t8.5 47.5zM594 925l-118 -143h-84l77 143h125z" />
    <glyph glyph-name="Ucircumflex" unicode="&#xdb;" horiz-adv-x="741" 
d="M150 714h125l-92 -437q-3 -14 -5 -28.5t-3 -29.5q-1 -36 10.5 -60.5t32.5 -39.5t49 -21.5t61 -6.5q36 0 66.5 8t55 28.5t43.5 56t31 90.5l94 440h125l-94 -448q-9 -44 -26 -94t-53.5 -92t-97.5 -69.5t-158 -27.5q-53 0 -101 13.5t-84 40.5t-57.5 68.5t-21.5 97.5
q0 25 3.5 48.5t8.5 47.5zM295 782l134 143h104l78 -143h-86l-51 90l-87 -90h-92z" />
    <glyph glyph-name="Udieresis" unicode="&#xdc;" horiz-adv-x="741" 
d="M150 714h125l-92 -437q-3 -14 -5 -28.5t-3 -29.5q-1 -36 10.5 -60.5t32.5 -39.5t49 -21.5t61 -6.5q36 0 66.5 8t55 28.5t43.5 56t31 90.5l94 440h125l-94 -448q-9 -44 -26 -94t-53.5 -92t-97.5 -69.5t-158 -27.5q-53 0 -101 13.5t-84 40.5t-57.5 68.5t-21.5 97.5
q0 25 3.5 48.5t8.5 47.5zM440 903l-19 -108h-110l19 108h110zM620 903l-19 -108h-110l19 108h110z" />
    <glyph glyph-name="Yacute" unicode="&#xdd;" horiz-adv-x="630" 
d="M228 283l-176 431h131l123 -324l250 324h148l-353 -441l-56 -273h-125zM545 925l-118 -143h-84l77 143h125z" />
    <glyph glyph-name="Thorn" unicode="&#xde;" horiz-adv-x="667" 
d="M152 714h125l-22 -108h162q56 0 94 -11.5t63 -30t38.5 -42t19.5 -47.5t7 -47t1 -40q0 -1 -1.5 -18t-9 -41.5t-23.5 -53t-45 -53t-73.5 -40.5t-109.5 -16h-214l-35 -166h-125zM185 268h189q42 0 69.5 12.5t43 32.5t22 44.5t6.5 48.5q0 15 -4.5 32t-17 32t-36 24.5
t-61.5 9.5h-162z" />
    <glyph glyph-name="germandbls" unicode="&#xdf;" horiz-adv-x="574" 
d="M106 541q21 97 81 143.5t157 46.5q37 0 71.5 -10t61.5 -30t43.5 -51.5t16.5 -73.5q0 -32 -11 -60.5t-30.5 -51t-45.5 -38t-57 -20.5v-2q57 -11 84 -51.5t27 -97.5q0 -51 -21.5 -103t-59.5 -87q-42 -38 -85.5 -53.5t-97.5 -15.5q-18 0 -35.5 2t-35.5 3l18 89
q14 -2 27.5 -3t27.5 -1q35 0 62.5 15t46.5 39t29 55t10 64q0 30 -10.5 50.5t-28 32.5t-40 17.5t-46.5 5.5h-21l17 75h18q28 0 54.5 6.5t46 21t31.5 38t12 56.5q0 46 -24.5 67.5t-64.5 21.5q-30 0 -50.5 -9.5t-34.5 -26.5t-22.5 -42t-14.5 -56l-110 -507h-114z" />
    <glyph glyph-name="agrave" unicode="&#xe0;" 
d="M105 142q0 -19 8.5 -31.5t21.5 -20t29 -11t32 -3.5q42 0 70.5 14t47 38t29 56.5t16.5 69.5l-2 2q-12 -12 -32 -17t-39 -7q-24 -2 -55.5 -4t-59 -10.5t-47 -26t-19.5 -49.5zM448 150q-3 -14 -6.5 -27t-3.5 -24t5 -17t19 -6q10 0 20 2.5t20 3.5l-18 -82q-22 -5 -44 -9.5
t-45 -4.5q-29 0 -48 18t-21 48q-34 -34 -80 -50t-94 -16q-32 0 -61 9t-51.5 26t-35.5 43t-13 60q0 48 18 80.5t48 53.5t69 31t82 13q58 4 114 9q31 2 45.5 20.5t14.5 47.5q0 37 -26 49.5t-61 12.5q-48 0 -82.5 -16.5t-46.5 -64.5h-108q9 48 31 80.5t54 53t72.5 29t86.5 8.5
q70 0 109.5 -13.5t58 -32.5t22.5 -39.5t4 -34.5q0 -34 -10 -78zM319 588l-118 143h125l77 -143h-84z" />
    <glyph glyph-name="aacute" unicode="&#xe1;" 
d="M105 142q0 -19 8.5 -31.5t21.5 -20t29 -11t32 -3.5q42 0 70.5 14t47 38t29 56.5t16.5 69.5l-2 2q-12 -12 -32 -17t-39 -7q-24 -2 -55.5 -4t-59 -10.5t-47 -26t-19.5 -49.5zM448 150q-3 -14 -6.5 -27t-3.5 -24t5 -17t19 -6q10 0 20 2.5t20 3.5l-18 -82q-22 -5 -44 -9.5
t-45 -4.5q-29 0 -48 18t-21 48q-34 -34 -80 -50t-94 -16q-32 0 -61 9t-51.5 26t-35.5 43t-13 60q0 48 18 80.5t48 53.5t69 31t82 13q58 4 114 9q31 2 45.5 20.5t14.5 47.5q0 37 -26 49.5t-61 12.5q-48 0 -82.5 -16.5t-46.5 -64.5h-108q9 48 31 80.5t54 53t72.5 29t86.5 8.5
q70 0 109.5 -13.5t58 -32.5t22.5 -39.5t4 -34.5q0 -34 -10 -78zM469 731l-118 -143h-84l77 143h125z" />
    <glyph glyph-name="acircumflex" unicode="&#xe2;" 
d="M105 142q0 -19 8.5 -31.5t21.5 -20t29 -11t32 -3.5q42 0 70.5 14t47 38t29 56.5t16.5 69.5l-2 2q-12 -12 -32 -17t-39 -7q-24 -2 -55.5 -4t-59 -10.5t-47 -26t-19.5 -49.5zM448 150q-3 -14 -6.5 -27t-3.5 -24t5 -17t19 -6q10 0 20 2.5t20 3.5l-18 -82q-22 -5 -44 -9.5
t-45 -4.5q-29 0 -48 18t-21 48q-34 -34 -80 -50t-94 -16q-32 0 -61 9t-51.5 26t-35.5 43t-13 60q0 48 18 80.5t48 53.5t69 31t82 13q58 4 114 9q31 2 45.5 20.5t14.5 47.5q0 37 -26 49.5t-61 12.5q-48 0 -82.5 -16.5t-46.5 -64.5h-108q9 48 31 80.5t54 53t72.5 29t86.5 8.5
q70 0 109.5 -13.5t58 -32.5t22.5 -39.5t4 -34.5q0 -34 -10 -78zM161 588l134 143h104l78 -143h-86l-51 90l-87 -90h-92z" />
    <glyph glyph-name="atilde" unicode="&#xe3;" 
d="M105 142q0 -19 8.5 -31.5t21.5 -20t29 -11t32 -3.5q42 0 70.5 14t47 38t29 56.5t16.5 69.5l-2 2q-12 -12 -32 -17t-39 -7q-24 -2 -55.5 -4t-59 -10.5t-47 -26t-19.5 -49.5zM448 150q-3 -14 -6.5 -27t-3.5 -24t5 -17t19 -6q10 0 20 2.5t20 3.5l-18 -82q-22 -5 -44 -9.5
t-45 -4.5q-29 0 -48 18t-21 48q-34 -34 -80 -50t-94 -16q-32 0 -61 9t-51.5 26t-35.5 43t-13 60q0 48 18 80.5t48 53.5t69 31t82 13q58 4 114 9q31 2 45.5 20.5t14.5 47.5q0 37 -26 49.5t-61 12.5q-48 0 -82.5 -16.5t-46.5 -64.5h-108q9 48 31 80.5t54 53t72.5 29t86.5 8.5
q70 0 109.5 -13.5t58 -32.5t22.5 -39.5t4 -34.5q0 -34 -10 -78zM514 719q-3 -19 -11 -40t-21.5 -38.5t-31.5 -29t-40 -11.5q-18 0 -38.5 7.5t-40.5 17t-37.5 17t-30.5 7.5q-16 0 -27.5 -16.5t-16.5 -29.5h-59q6 21 14 41.5t20.5 37t30 27t41.5 10.5q23 0 42 -7t36 -16
q18 -8 35 -16t34 -8q9 0 16 5t12.5 12.5t9 15.5t5.5 14h58z" />
    <glyph glyph-name="adieresis" unicode="&#xe4;" 
d="M105 142q0 -19 8.5 -31.5t21.5 -20t29 -11t32 -3.5q42 0 70.5 14t47 38t29 56.5t16.5 69.5l-2 2q-12 -12 -32 -17t-39 -7q-24 -2 -55.5 -4t-59 -10.5t-47 -26t-19.5 -49.5zM448 150q-3 -14 -6.5 -27t-3.5 -24t5 -17t19 -6q10 0 20 2.5t20 3.5l-18 -82q-22 -5 -44 -9.5
t-45 -4.5q-29 0 -48 18t-21 48q-34 -34 -80 -50t-94 -16q-32 0 -61 9t-51.5 26t-35.5 43t-13 60q0 48 18 80.5t48 53.5t69 31t82 13q58 4 114 9q31 2 45.5 20.5t14.5 47.5q0 37 -26 49.5t-61 12.5q-48 0 -82.5 -16.5t-46.5 -64.5h-108q9 48 31 80.5t54 53t72.5 29t86.5 8.5
q70 0 109.5 -13.5t58 -32.5t22.5 -39.5t4 -34.5q0 -34 -10 -78zM311 709l-19 -108h-110l19 108h110zM491 709l-19 -108h-110l19 108h110z" />
    <glyph glyph-name="aring" unicode="&#xe5;" 
d="M105 142q0 -19 8.5 -31.5t21.5 -20t29 -11t32 -3.5q42 0 70.5 14t47 38t29 56.5t16.5 69.5l-2 2q-12 -12 -32 -17t-39 -7q-24 -2 -55.5 -4t-59 -10.5t-47 -26t-19.5 -49.5zM448 150q-3 -14 -6.5 -27t-3.5 -24t5 -17t19 -6q10 0 20 2.5t20 3.5l-18 -82q-22 -5 -44 -9.5
t-45 -4.5q-29 0 -48 18t-21 48q-34 -34 -80 -50t-94 -16q-32 0 -61 9t-51.5 26t-35.5 43t-13 60q0 48 18 80.5t48 53.5t69 31t82 13q58 4 114 9q31 2 45.5 20.5t14.5 47.5q0 37 -26 49.5t-61 12.5q-48 0 -82.5 -16.5t-46.5 -64.5h-108q9 48 31 80.5t54 53t72.5 29t86.5 8.5
q70 0 109.5 -13.5t58 -32.5t22.5 -39.5t4 -34.5q0 -34 -10 -78zM270 673q0 -26 17.5 -43.5t43.5 -17.5t43.5 17.5t17.5 43.5t-17.5 43.5t-43.5 17.5t-43.5 -17.5t-17.5 -43.5zM331 570q-22 0 -41.5 8.5t-33.5 22.5t-22 32.5t-6 39.5q0 21 8 39.5t22.5 33t33 22.5t39.5 8
t39.5 -8t33 -22.5t22.5 -33t8 -39.5t-8 -39.5t-22.5 -32.5t-33 -22.5t-39.5 -8.5z" />
    <glyph glyph-name="ae" unicode="&#xe6;" horiz-adv-x="889" 
d="M360 256h-2q-17 -12 -38 -17t-36 -7q-24 -2 -55 -4t-59 -11q-29 -8 -47 -25.5t-18 -49.5q3 -36 29 -51t64 -15q67 0 101 32.5t45 80.5zM815 160q-13 -42 -37.5 -74.5t-57.5 -54.5t-73 -33.5t-85 -11.5q-65 0 -114.5 23t-67.5 81q-38 -57 -91 -80.5t-119 -23.5
q-39 0 -71.5 9t-56.5 26t-37.5 43t-13.5 60q0 48 18 80.5t48 53.5t69 31t82 13q58 4 114 9q32 2 49.5 20.5t17.5 47.5q0 37 -27 49.5t-67 12.5q-48 0 -82.5 -16.5t-46.5 -64.5h-108q9 48 31 80.5t54 53t72.5 29t86.5 8.5q51 0 93 -14.5t71 -60.5q34 39 78 57t90 18
q54 0 94.5 -16t66.5 -44t39 -66t13 -82q0 -23 -2 -46.5t-8 -47.5h-377q-2 -11 -3.5 -21.5t-1.5 -21.5q0 -20 6.5 -40t20 -35.5t34.5 -25t51 -9.5q104 0 130 84h118zM731 304q1 5 1.5 9.5t0.5 9.5v17q0 101 -108 101q-31 0 -55.5 -10.5t-43 -28.5t-31.5 -43t-21 -55h257z" />
    <glyph glyph-name="ccedilla" unicode="&#xe7;" 
d="M93 -162q16 -8 32.5 -11.5t36.5 -5.5q8 -1 18 1t18.5 6.5t14.5 12t6 17.5q0 21 -14 30t-33 9q-9 0 -18.5 -2t-18.5 -5l-17 21l63 78q-28 5 -49 13q-58 24 -89 77.5t-31 127.5q0 65 20 124t58 103.5t92.5 70.5t123.5 26q43 0 81 -12t66 -35t44 -58t15 -80h-114
q2 48 -26 71.5t-76 23.5q-43 0 -75 -22t-53 -56t-31.5 -74.5t-10.5 -77.5q0 -29 6 -53.5t19.5 -42.5t35.5 -28.5t54 -10.5q51 0 83.5 27t46.5 75h114q-28 -100 -95 -146q-66 -45 -162 -46l-45 -52l14 2q5 1 15 1q33 0 60 -17.5t27 -54.5q0 -23 -11.5 -40t-29 -28t-39 -16
t-40.5 -5q-28 0 -58.5 7t-47.5 16z" />
    <glyph glyph-name="egrave" unicode="&#xe8;" 
d="M402 304q1 5 1 8.5v7.5v16q0 46 -29 75.5t-80 29.5q-64 0 -102 -38.5t-55 -98.5h265zM485 160q-27 -91 -91 -132.5t-158 -41.5q-49 0 -90.5 15.5t-71.5 45t-47 71t-17 94.5q0 60 19 117t55.5 102t90 72.5t122.5 27.5t112 -23t67 -58t32.5 -77t8.5 -80q0 -19 -2 -35
t-4 -29h-385q-1 -5 -1.5 -9t-0.5 -8v-16q0 -54 28.5 -87t94.5 -33q46 0 79 21t45 63h114zM299 588l-118 143h125l77 -143h-84z" />
    <glyph glyph-name="eacute" unicode="&#xe9;" 
d="M402 304q1 5 1 8.5v7.5v16q0 46 -29 75.5t-80 29.5q-64 0 -102 -38.5t-55 -98.5h265zM485 160q-27 -91 -91 -132.5t-158 -41.5q-49 0 -90.5 15.5t-71.5 45t-47 71t-17 94.5q0 60 19 117t55.5 102t90 72.5t122.5 27.5t112 -23t67 -58t32.5 -77t8.5 -80q0 -19 -2 -35
t-4 -29h-385q-1 -5 -1.5 -9t-0.5 -8v-16q0 -54 28.5 -87t94.5 -33q46 0 79 21t45 63h114zM469 731l-118 -143h-84l77 143h125z" />
    <glyph glyph-name="ecircumflex" unicode="&#xea;" 
d="M402 304q1 5 1 8.5v7.5v16q0 46 -29 75.5t-80 29.5q-64 0 -102 -38.5t-55 -98.5h265zM485 160q-27 -91 -91 -132.5t-158 -41.5q-49 0 -90.5 15.5t-71.5 45t-47 71t-17 94.5q0 60 19 117t55.5 102t90 72.5t122.5 27.5t112 -23t67 -58t32.5 -77t8.5 -80q0 -19 -2 -35
t-4 -29h-385q-1 -5 -1.5 -9t-0.5 -8v-16q0 -54 28.5 -87t94.5 -33q46 0 79 21t45 63h114zM150 588l134 143h104l78 -143h-86l-51 90l-87 -90h-92z" />
    <glyph glyph-name="edieresis" unicode="&#xeb;" 
d="M402 304q1 5 1 8.5v7.5v16q0 46 -29 75.5t-80 29.5q-64 0 -102 -38.5t-55 -98.5h265zM485 160q-27 -91 -91 -132.5t-158 -41.5q-49 0 -90.5 15.5t-71.5 45t-47 71t-17 94.5q0 60 19 117t55.5 102t90 72.5t122.5 27.5t112 -23t67 -58t32.5 -77t8.5 -80q0 -19 -2 -35
t-4 -29h-385q-1 -5 -1.5 -9t-0.5 -8v-16q0 -54 28.5 -87t94.5 -33q46 0 79 21t45 63h114zM302 709l-19 -108h-110l19 108h110zM482 709l-19 -108h-110l19 108h110z" />
    <glyph glyph-name="igrave" unicode="&#xec;" horiz-adv-x="241" 
d="M-12 0l107 517h114l-107 -517h-114zM124 588l-118 143h125l77 -143h-84z" />
    <glyph glyph-name="iacute" unicode="&#xed;" horiz-adv-x="241" 
d="M-12 0l107 517h114l-107 -517h-114zM299 731l-118 -143h-84l77 143h125z" />
    <glyph glyph-name="icircumflex" unicode="&#xee;" horiz-adv-x="241" 
d="M-12 0l107 517h114l-107 -517h-114zM7 588l134 143h104l78 -143h-86l-51 90l-87 -90h-92z" />
    <glyph glyph-name="idieresis" unicode="&#xef;" horiz-adv-x="241" 
d="M-12 0l107 517h114l-107 -517h-114zM149 709l-19 -108h-110l19 108h110zM329 709l-19 -108h-110l19 108h110z" />
    <glyph glyph-name="eth" unicode="&#xf0;" horiz-adv-x="593" 
d="M301 666q-20 17 -42 31t-45 27l86 50q51 -30 89 -65l107 52l50 -54l-106 -52q51 -63 72 -139t21 -169q0 -82 -20 -148.5t-58.5 -114t-93 -73t-123.5 -25.5q-108 0 -167 58.5t-59 167.5q0 57 21 110t59.5 94t93 65.5t121.5 24.5q32 0 65.5 -10.5t49.5 -33.5l2 2
q-10 48 -28 84t-42 65l-106 -52l-50 54zM245 76q44 0 76.5 21.5t54.5 55t32.5 75t10.5 80.5q0 20 -7 39.5t-21.5 34.5t-37 24.5t-53.5 9.5q-44 0 -76.5 -20.5t-54.5 -51.5t-32.5 -67.5t-10.5 -67.5q0 -57 28.5 -95t90.5 -38z" />
    <glyph glyph-name="ntilde" unicode="&#xf1;" horiz-adv-x="574" 
d="M95 517h107l-16 -75l2 -2q31 43 77.5 67t100.5 24q78 0 114.5 -37t36.5 -100q0 -14 -1 -32t-4 -32l-69 -330h-114l66 319q3 13 5.5 25t2.5 23q0 6 -0.5 18.5t-7.5 25t-23.5 21.5t-47.5 9q-34 0 -60.5 -14.5t-47.5 -35.5q-20 -20 -34.5 -49.5t-21.5 -61.5l-58 -280h-114z
M504 719q-3 -19 -11 -40t-21.5 -38.5t-31.5 -29t-40 -11.5q-18 0 -38.5 7.5t-40.5 17t-37.5 17t-30.5 7.5q-16 0 -27.5 -16.5t-16.5 -29.5h-59q6 21 14 41.5t20.5 37t30 27t41.5 10.5q23 0 42 -7t36 -16q18 -8 35 -16t34 -8q9 0 16 5t12.5 12.5t9 15.5t5.5 14h58z" />
    <glyph glyph-name="ograve" unicode="&#xf2;" horiz-adv-x="593" 
d="M300 441q-44 0 -76.5 -22t-54.5 -55.5t-32.5 -74.5t-10.5 -80q0 -57 28.5 -95t90.5 -38q44 0 76.5 21.5t54.5 55t32.5 75t10.5 80.5q0 57 -28.5 95t-90.5 38zM238 -14q-108 0 -167 58.5t-59 167.5q0 64 21 121.5t59.5 101.5t93 70t121.5 26q108 0 167 -56.5t59 -165.5
q0 -68 -20 -127t-58.5 -102.5t-93 -68.5t-123.5 -25zM308 588l-118 143h125l77 -143h-84z" />
    <glyph glyph-name="oacute" unicode="&#xf3;" horiz-adv-x="593" 
d="M300 441q-44 0 -76.5 -22t-54.5 -55.5t-32.5 -74.5t-10.5 -80q0 -57 28.5 -95t90.5 -38q44 0 76.5 21.5t54.5 55t32.5 75t10.5 80.5q0 57 -28.5 95t-90.5 38zM238 -14q-108 0 -167 58.5t-59 167.5q0 64 21 121.5t59.5 101.5t93 70t121.5 26q108 0 167 -56.5t59 -165.5
q0 -68 -20 -127t-58.5 -102.5t-93 -68.5t-123.5 -25zM476 731l-118 -143h-84l77 143h125z" />
    <glyph glyph-name="ocircumflex" unicode="&#xf4;" horiz-adv-x="593" 
d="M300 441q-44 0 -76.5 -22t-54.5 -55.5t-32.5 -74.5t-10.5 -80q0 -57 28.5 -95t90.5 -38q44 0 76.5 21.5t54.5 55t32.5 75t10.5 80.5q0 57 -28.5 95t-90.5 38zM238 -14q-108 0 -167 58.5t-59 167.5q0 64 21 121.5t59.5 101.5t93 70t121.5 26q108 0 167 -56.5t59 -165.5
q0 -68 -20 -127t-58.5 -102.5t-93 -68.5t-123.5 -25zM170 588l134 143h104l78 -143h-86l-51 90l-87 -90h-92z" />
    <glyph glyph-name="otilde" unicode="&#xf5;" horiz-adv-x="593" 
d="M300 441q-44 0 -76.5 -22t-54.5 -55.5t-32.5 -74.5t-10.5 -80q0 -57 28.5 -95t90.5 -38q44 0 76.5 21.5t54.5 55t32.5 75t10.5 80.5q0 57 -28.5 95t-90.5 38zM238 -14q-108 0 -167 58.5t-59 167.5q0 64 21 121.5t59.5 101.5t93 70t121.5 26q108 0 167 -56.5t59 -165.5
q0 -68 -20 -127t-58.5 -102.5t-93 -68.5t-123.5 -25zM519 719q-3 -19 -11 -40t-21.5 -38.5t-31.5 -29t-40 -11.5q-18 0 -38.5 7.5t-40.5 17t-37.5 17t-30.5 7.5q-16 0 -27.5 -16.5t-16.5 -29.5h-59q6 21 14 41.5t20.5 37t30 27t41.5 10.5q23 0 42 -7t36 -16q18 -8 35 -16
t34 -8q9 0 16 5t12.5 12.5t9 15.5t5.5 14h58z" />
    <glyph glyph-name="odieresis" unicode="&#xf6;" horiz-adv-x="593" 
d="M300 441q-44 0 -76.5 -22t-54.5 -55.5t-32.5 -74.5t-10.5 -80q0 -57 28.5 -95t90.5 -38q44 0 76.5 21.5t54.5 55t32.5 75t10.5 80.5q0 57 -28.5 95t-90.5 38zM238 -14q-108 0 -167 58.5t-59 167.5q0 64 21 121.5t59.5 101.5t93 70t121.5 26q108 0 167 -56.5t59 -165.5
q0 -68 -20 -127t-58.5 -102.5t-93 -68.5t-123.5 -25zM316 709l-19 -108h-110l19 108h110zM496 709l-19 -108h-110l19 108h110z" />
    <glyph glyph-name="divide" unicode="&#xf7;" horiz-adv-x="600" 
d="M301 -25q-29 0 -51 21.5t-22 50.5q0 30 21.5 51t50.5 21t50.5 -21.5t21.5 -50.5q0 -14 -6 -26.5t-15.5 -23t-22.5 -16.5t-27 -6zM301 387q-29 0 -51 21.5t-22 50.5q0 30 21.5 51t50.5 21t50.5 -21.5t21.5 -50.5q0 -14 -6 -26.5t-15.5 -23t-22.5 -16.5t-27 -6zM48 202v102
h504v-102h-504z" />
    <glyph glyph-name="oslash" unicode="&#xf8;" horiz-adv-x="593" 
d="M47 76q-35 53 -35 136q0 64 21 121.5t59.5 101.5t93 70t121.5 26q114 0 171 -62l71 64l27 -30l-73 -67q30 -51 30 -127q0 -68 -20 -127t-58.5 -102.5t-93 -68.5t-123.5 -25q-108 0 -165 59l-73 -66l-27 30zM396 394q-13 22 -37 34.5t-59 12.5q-44 0 -76.5 -22
t-54.5 -55.5t-32.5 -74.5t-10.5 -80q0 -30 8 -54zM152 117q14 -19 37.5 -30t55.5 -11q44 0 76.5 21.5t54.5 55t32.5 75t10.5 80.5q0 13 -1.5 24.5t-3.5 22.5z" />
    <glyph glyph-name="ugrave" unicode="&#xf9;" horiz-adv-x="574" 
d="M439 0h-107l16 75l-2 2q-31 -43 -77.5 -67t-100.5 -24q-78 0 -114.5 37t-36.5 100q0 14 1 32t4 32l69 330h114l-66 -319q-3 -13 -5.5 -25t-2.5 -23q0 -6 0.5 -18.5t7.5 -25t23 -21.5t48 -9q33 0 60.5 14.5t48.5 37.5t35 51.5t20 57.5l58 280h114zM304 588l-118 143h125
l77 -143h-84z" />
    <glyph glyph-name="uacute" unicode="&#xfa;" horiz-adv-x="574" 
d="M439 0h-107l16 75l-2 2q-31 -43 -77.5 -67t-100.5 -24q-78 0 -114.5 37t-36.5 100q0 14 1 32t4 32l69 330h114l-66 -319q-3 -13 -5.5 -25t-2.5 -23q0 -6 0.5 -18.5t7.5 -25t23 -21.5t48 -9q33 0 60.5 14.5t48.5 37.5t35 51.5t20 57.5l58 280h114zM482 731l-118 -143h-84
l77 143h125z" />
    <glyph glyph-name="ucircumflex" unicode="&#xfb;" horiz-adv-x="574" 
d="M439 0h-107l16 75l-2 2q-31 -43 -77.5 -67t-100.5 -24q-78 0 -114.5 37t-36.5 100q0 14 1 32t4 32l69 330h114l-66 -319q-3 -13 -5.5 -25t-2.5 -23q0 -6 0.5 -18.5t7.5 -25t23 -21.5t48 -9q33 0 60.5 14.5t48.5 37.5t35 51.5t20 57.5l58 280h114zM162 588l134 143h104
l78 -143h-86l-51 90l-87 -90h-92z" />
    <glyph glyph-name="udieresis" unicode="&#xfc;" horiz-adv-x="574" 
d="M439 0h-107l16 75l-2 2q-31 -43 -77.5 -67t-100.5 -24q-78 0 -114.5 37t-36.5 100q0 14 1 32t4 32l69 330h114l-66 -319q-3 -13 -5.5 -25t-2.5 -23q0 -6 0.5 -18.5t7.5 -25t23 -21.5t48 -9q33 0 60.5 14.5t48.5 37.5t35 51.5t20 57.5l58 280h114zM311 709l-19 -108h-110
l19 108h110zM491 709l-19 -108h-110l19 108h110z" />
    <glyph glyph-name="yacute" unicode="&#xfd;" horiz-adv-x="500" 
d="M29 517h120l54 -378h2l195 378h122l-296 -533q-20 -37 -39 -71t-43.5 -60.5t-57.5 -42t-81 -15.5q-29 0 -69 8l21 95q11 -3 22 -5.5t22 -2.5q26 0 44.5 9.5t29.5 34.5l45 83zM455 731l-118 -143h-84l77 143h125z" />
    <glyph glyph-name="thorn" unicode="&#xfe;" horiz-adv-x="611" 
d="M151 209q0 -28 6.5 -52t20 -42t35.5 -28.5t52 -10.5q46 0 79.5 20.5t55 53.5t32 74t10.5 82q0 28 -6.5 52.5t-20.5 43t-35.5 29t-51.5 10.5q-46 0 -79.5 -21t-55 -54.5t-32 -75t-10.5 -81.5zM138 714h115l-56 -263l2 -2q26 39 69.5 60.5t91.5 21.5t85 -16t61.5 -44.5
t37 -68t12.5 -85.5q0 -59 -16 -118.5t-49 -106.5t-83 -76.5t-117 -29.5q-57 0 -101 19.5t-68 74.5h-2l-56 -271h-114z" />
    <glyph glyph-name="ydieresis" unicode="&#xff;" horiz-adv-x="500" 
d="M29 517h120l54 -378h2l195 378h122l-296 -533q-20 -37 -39 -71t-43.5 -60.5t-57.5 -42t-81 -15.5q-29 0 -69 8l21 95q11 -3 22 -5.5t22 -2.5q26 0 44.5 9.5t29.5 34.5l45 83zM275 709l-19 -108h-110l19 108h110zM455 709l-19 -108h-110l19 108h110z" />
    <glyph glyph-name="Amacron" unicode="&#x100;" horiz-adv-x="685" 
d="M368 714h132l124 -714h-127l-29 189h-284l-110 -189h-134zM411 588h-2l-172 -304h218zM304 817l12 65h285l-13 -65h-284z" />
    <glyph glyph-name="amacron" unicode="&#x101;" 
d="M105 142q0 -19 8.5 -31.5t21.5 -20t29 -11t32 -3.5q42 0 70.5 14t47 38t29 56.5t16.5 69.5l-2 2q-12 -12 -32 -17t-39 -7q-24 -2 -55.5 -4t-59 -10.5t-47 -26t-19.5 -49.5zM448 150q-3 -14 -6.5 -27t-3.5 -24t5 -17t19 -6q10 0 20 2.5t20 3.5l-18 -82q-22 -5 -44 -9.5
t-45 -4.5q-29 0 -48 18t-21 48q-34 -34 -80 -50t-94 -16q-32 0 -61 9t-51.5 26t-35.5 43t-13 60q0 48 18 80.5t48 53.5t69 31t82 13q58 4 114 9q31 2 45.5 20.5t14.5 47.5q0 37 -26 49.5t-61 12.5q-48 0 -82.5 -16.5t-46.5 -64.5h-108q9 48 31 80.5t54 53t72.5 29t86.5 8.5
q70 0 109.5 -13.5t58 -32.5t22.5 -39.5t4 -34.5q0 -34 -10 -78zM188 623l12 65h285l-13 -65h-284z" />
    <glyph glyph-name="Abreve" unicode="&#x102;" horiz-adv-x="685" 
d="M368 714h132l124 -714h-127l-29 189h-284l-110 -189h-134zM411 588h-2l-172 -304h218zM348 925q2 -39 25.5 -57.5t65.5 -18.5t73 19t42 57h56q-13 -70 -59 -105.5t-115 -35.5q-33 0 -60 9t-46.5 27t-29.5 44t-8 61h56z" />
    <glyph glyph-name="abreve" unicode="&#x103;" 
d="M105 142q0 -19 8.5 -31.5t21.5 -20t29 -11t32 -3.5q42 0 70.5 14t47 38t29 56.5t16.5 69.5l-2 2q-12 -12 -32 -17t-39 -7q-24 -2 -55.5 -4t-59 -10.5t-47 -26t-19.5 -49.5zM448 150q-3 -14 -6.5 -27t-3.5 -24t5 -17t19 -6q10 0 20 2.5t20 3.5l-18 -82q-22 -5 -44 -9.5
t-45 -4.5q-29 0 -48 18t-21 48q-34 -34 -80 -50t-94 -16q-32 0 -61 9t-51.5 26t-35.5 43t-13 60q0 48 18 80.5t48 53.5t69 31t82 13q58 4 114 9q31 2 45.5 20.5t14.5 47.5q0 37 -26 49.5t-61 12.5q-48 0 -82.5 -16.5t-46.5 -64.5h-108q9 48 31 80.5t54 53t72.5 29t86.5 8.5
q70 0 109.5 -13.5t58 -32.5t22.5 -39.5t4 -34.5q0 -34 -10 -78zM229 731q2 -39 25.5 -57.5t65.5 -18.5t73 19t42 57h56q-13 -70 -59 -105.5t-115 -35.5q-33 0 -60 9t-46.5 27t-29.5 44t-8 61h56z" />
    <glyph glyph-name="Aogonek" unicode="&#x104;" horiz-adv-x="685" 
d="M570 -143q-25 -45 -59.5 -62.5t-74.5 -17.5q-11 0 -25 2.5t-27 10.5t-22 23t-9 39q0 26 15 48.5t37 41t47 33.5t45 25l-29 189h-284l-110 -189h-134l428 714h132l124 -714h-59q-70 -44 -101 -74t-31 -56q0 -16 8.5 -27t23.5 -11q14 0 27 7t30 26zM411 588h-2l-172 -304
h218z" />
    <glyph glyph-name="aogonek" unicode="&#x105;" 
d="M443 -143q-23 -45 -56 -62.5t-71 -17.5q-10 0 -23.5 2.5t-26 10.5t-21 23t-8.5 39q0 19 8.5 36.5t22 33.5t30 29.5t33.5 24.5q16 10 30 18q-4 2 -7.5 4.5t-6.5 5.5q-20 18 -21 48q-34 -34 -80 -50t-94 -16q-32 0 -61 9t-51.5 26t-35.5 43t-13 60q0 48 18 80.5t48 53.5
t69 31t82 13q58 4 114 9q31 2 45.5 20.5t14.5 47.5q0 37 -26 49.5t-61 12.5q-48 0 -82.5 -16.5t-46.5 -64.5h-108q9 48 31 80.5t54 53t72.5 29t86.5 8.5q70 0 109.5 -13.5t58 -32.5t22.5 -39.5t4 -34.5q0 -34 -10 -78l-38 -183q-3 -14 -6.5 -27t-3.5 -24t5 -17t19 -6
q10 0 20 2.5t20 3.5l-18 -82q-11 -2 -22 -4.5t-22 -4.5q-5 -1 -10.5 -2t-10.5 -2q-26 -17 -45 -32.5t-32 -28.5q-29 -31 -29 -56q0 -16 8 -27t23 -11q13 0 25.5 7t28.5 26zM105 142q0 -19 8.5 -31.5t21.5 -20t29 -11t32 -3.5q42 0 70.5 14t47 38t29 56.5t16.5 69.5l-2 2
q-12 -12 -32 -17t-39 -7q-24 -2 -55.5 -4t-59 -10.5t-47 -26t-19.5 -49.5z" />
    <glyph glyph-name="Cacute" unicode="&#x106;" horiz-adv-x="722" 
d="M571 476q0 75 -41.5 114t-119.5 39q-64 0 -111.5 -29t-79 -76t-47.5 -106t-16 -119q0 -100 51 -157t145 -57q48 0 81 18.5t54.5 45t33 54.5t16.5 46h125q-15 -68 -45 -118t-71.5 -83t-92 -49t-105.5 -16q-77 0 -136 24t-99 66t-61 99t-21 123q0 112 33.5 194.5t88 136
t123 79.5t138.5 26q63 0 116 -17t90.5 -49t57.5 -80t18 -109h-125zM588 925l-118 -143h-84l77 143h125z" />
    <glyph glyph-name="cacute" unicode="&#x107;" 
d="M398 346q2 48 -26 71.5t-76 23.5q-43 0 -75 -22t-53 -56t-31.5 -74.5t-10.5 -77.5q0 -29 6 -53.5t19.5 -42.5t35.5 -28.5t54 -10.5q51 0 83.5 27t46.5 75h114q-28 -100 -94 -146t-169 -46q-51 0 -90 16t-65.5 45.5t-40.5 70t-14 89.5q0 65 20 124t58 103.5t92.5 70.5
t123.5 26q43 0 81 -12t66 -35t44 -58t15 -80h-114zM475 731l-118 -143h-84l77 143h125z" />
    <glyph glyph-name="Ccircumflex" unicode="&#x108;" horiz-adv-x="722" 
d="M571 476q0 75 -41.5 114t-119.5 39q-64 0 -111.5 -29t-79 -76t-47.5 -106t-16 -119q0 -100 51 -157t145 -57q48 0 81 18.5t54.5 45t33 54.5t16.5 46h125q-15 -68 -45 -118t-71.5 -83t-92 -49t-105.5 -16q-77 0 -136 24t-99 66t-61 99t-21 123q0 112 33.5 194.5t88 136
t123 79.5t138.5 26q63 0 116 -17t90.5 -49t57.5 -80t18 -109h-125zM277 782l134 143h104l78 -143h-86l-51 90l-87 -90h-92z" />
    <glyph glyph-name="ccircumflex" unicode="&#x109;" 
d="M398 346q2 48 -26 71.5t-76 23.5q-43 0 -75 -22t-53 -56t-31.5 -74.5t-10.5 -77.5q0 -29 6 -53.5t19.5 -42.5t35.5 -28.5t54 -10.5q51 0 83.5 27t46.5 75h114q-28 -100 -94 -146t-169 -46q-51 0 -90 16t-65.5 45.5t-40.5 70t-14 89.5q0 65 20 124t58 103.5t92.5 70.5
t123.5 26q43 0 81 -12t66 -35t44 -58t15 -80h-114zM169 588l134 143h104l78 -143h-86l-51 90l-87 -90h-92z" />
    <glyph glyph-name="Cdotaccent" unicode="&#x10a;" horiz-adv-x="722" 
d="M571 476q0 75 -41.5 114t-119.5 39q-64 0 -111.5 -29t-79 -76t-47.5 -106t-16 -119q0 -100 51 -157t145 -57q48 0 81 18.5t54.5 45t33 54.5t16.5 46h125q-15 -68 -45 -118t-71.5 -83t-92 -49t-105.5 -16q-77 0 -136 24t-99 66t-61 99t-21 123q0 112 33.5 194.5t88 136
t123 79.5t138.5 26q63 0 116 -17t90.5 -49t57.5 -80t18 -109h-125zM504 903l-19 -108h-110l19 108h110z" />
    <glyph glyph-name="cdotaccent" unicode="&#x10b;" 
d="M398 346q2 48 -26 71.5t-76 23.5q-43 0 -75 -22t-53 -56t-31.5 -74.5t-10.5 -77.5q0 -29 6 -53.5t19.5 -42.5t35.5 -28.5t54 -10.5q51 0 83.5 27t46.5 75h114q-28 -100 -94 -146t-169 -46q-51 0 -90 16t-65.5 45.5t-40.5 70t-14 89.5q0 65 20 124t58 103.5t92.5 70.5
t123.5 26q43 0 81 -12t66 -35t44 -58t15 -80h-114zM395 709l-19 -108h-110l19 108h110z" />
    <glyph glyph-name="Ccaron" unicode="&#x10c;" horiz-adv-x="722" 
d="M571 476q0 75 -41.5 114t-119.5 39q-64 0 -111.5 -29t-79 -76t-47.5 -106t-16 -119q0 -100 51 -157t145 -57q48 0 81 18.5t54.5 45t33 54.5t16.5 46h125q-15 -68 -45 -118t-71.5 -83t-92 -49t-105.5 -16q-77 0 -136 24t-99 66t-61 99t-21 123q0 112 33.5 194.5t88 136
t123 79.5t138.5 26q63 0 116 -17t90.5 -49t57.5 -80t18 -109h-125zM304 925h84l52 -88l93 88h92l-137 -143h-106z" />
    <glyph glyph-name="ccaron" unicode="&#x10d;" 
d="M398 346q2 48 -26 71.5t-76 23.5q-43 0 -75 -22t-53 -56t-31.5 -74.5t-10.5 -77.5q0 -29 6 -53.5t19.5 -42.5t35.5 -28.5t54 -10.5q51 0 83.5 27t46.5 75h114q-28 -100 -94 -146t-169 -46q-51 0 -90 16t-65.5 45.5t-40.5 70t-14 89.5q0 65 20 124t58 103.5t92.5 70.5
t123.5 26q43 0 81 -12t66 -35t44 -58t15 -80h-114zM185 731h84l52 -88l93 88h92l-137 -143h-106z" />
    <glyph glyph-name="Dcaron" unicode="&#x10e;" horiz-adv-x="722" 
d="M148 102h156q54 0 94.5 18.5t69.5 47t48.5 64.5t31 70.5t16 65t4.5 48.5q0 94 -41 145t-116 51h-156zM151 714h262q138 0 209 -74.5t71 -224.5q0 -32 -7 -71.5t-21 -80t-35 -78t-50 -65.5q-32 -31 -62 -53.5t-67 -37.5t-84.5 -22t-114.5 -7h-251zM255 925h84l52 -88
l93 88h92l-137 -143h-106z" />
    <glyph glyph-name="dcaron" unicode="&#x10f;" horiz-adv-x="695" 
d="M468 0h-109l16 70l-2 2q-34 -50 -75 -68t-87 -18q-22 0 -56 6t-66.5 27.5t-55.5 63.5t-23 115q0 63 19 122.5t55 106.5t88 75.5t119 28.5q52 0 94 -19t62 -66h2l57 268h114zM419 317q0 25 -6.5 48t-20 39.5t-35.5 26.5t-52 10q-48 0 -82 -21.5t-56 -56.5t-32.5 -78.5
t-10.5 -86.5q0 -58 29 -90t89 -32q44 0 77 23t55.5 58.5t33.5 78t11 81.5zM821 714l-102 -143h-76l57 143h121z" />
    <glyph glyph-name="Dcroat" unicode="&#x110;" horiz-adv-x="722" 
d="M215 419h194l-20 -102h-196l-45 -215h156q54 0 94.5 18.5t69.5 47t48.5 64.5t31 70.5t16 65t4.5 48.5q0 94 -41 145t-116 51h-156zM68 317h-65l20 102h66l62 295h262q138 0 209 -74.5t71 -224.5q0 -32 -7 -71.5t-21 -80t-35 -78t-50 -65.5q-32 -31 -62 -53.5t-67 -37.5
t-84.5 -22t-114.5 -7h-251z" />
    <glyph glyph-name="dcroat" unicode="&#x111;" horiz-adv-x="614" 
d="M468 0h-109l16 70l-2 2q-34 -50 -75 -68t-87 -18q-22 0 -56 6t-66.5 27.5t-55.5 63.5t-23 115q0 63 19 122.5t55 106.5t88 75.5t119 28.5q52 0 94 -19t62 -66h2l29 138h-145l12 65h147l14 65h114l-14 -65h88l-13 -65h-89zM419 317q0 25 -6.5 48t-20 39.5t-35.5 26.5
t-52 10q-48 0 -82 -21.5t-56 -56.5t-32.5 -78.5t-10.5 -86.5q0 -58 29 -90t89 -32q44 0 77 23t55.5 58.5t33.5 78t11 81.5z" />
    <glyph glyph-name="Emacron" unicode="&#x112;" horiz-adv-x="630" 
d="M149 714h520l-22 -108h-397l-39 -187h368l-21 -102h-369l-43 -209h400l-22 -108h-523zM279 817l12 65h285l-13 -65h-284z" />
    <glyph glyph-name="emacron" unicode="&#x113;" 
d="M402 304q1 5 1 8.5v7.5v16q0 46 -29 75.5t-80 29.5q-64 0 -102 -38.5t-55 -98.5h265zM485 160q-27 -91 -91 -132.5t-158 -41.5q-49 0 -90.5 15.5t-71.5 45t-47 71t-17 94.5q0 60 19 117t55.5 102t90 72.5t122.5 27.5t112 -23t67 -58t32.5 -77t8.5 -80q0 -19 -2 -35
t-4 -29h-385q-1 -5 -1.5 -9t-0.5 -8v-16q0 -54 28.5 -87t94.5 -33q46 0 79 21t45 63h114zM174 623l12 65h285l-13 -65h-284z" />
    <glyph glyph-name="Ebreve" unicode="&#x114;" horiz-adv-x="630" 
d="M149 714h520l-22 -108h-397l-39 -187h368l-21 -102h-369l-43 -209h400l-22 -108h-523zM322 925q2 -39 25.5 -57.5t65.5 -18.5t73 19t42 57h56q-13 -70 -59 -105.5t-115 -35.5q-33 0 -60 9t-46.5 27t-29.5 44t-8 61h56z" />
    <glyph glyph-name="ebreve" unicode="&#x115;" 
d="M402 304q1 5 1 8.5v7.5v16q0 46 -29 75.5t-80 29.5q-64 0 -102 -38.5t-55 -98.5h265zM485 160q-27 -91 -91 -132.5t-158 -41.5q-49 0 -90.5 15.5t-71.5 45t-47 71t-17 94.5q0 60 19 117t55.5 102t90 72.5t122.5 27.5t112 -23t67 -58t32.5 -77t8.5 -80q0 -19 -2 -35
t-4 -29h-385q-1 -5 -1.5 -9t-0.5 -8v-16q0 -54 28.5 -87t94.5 -33q46 0 79 21t45 63h114zM232 731q2 -39 25.5 -57.5t65.5 -18.5t73 19t42 57h56q-13 -70 -59 -105.5t-115 -35.5q-33 0 -60 9t-46.5 27t-29.5 44t-8 61h56z" />
    <glyph glyph-name="Edotaccent" unicode="&#x116;" horiz-adv-x="630" 
d="M149 714h520l-22 -108h-397l-39 -187h368l-21 -102h-369l-43 -209h400l-22 -108h-523zM488 903l-19 -108h-110l19 108h110z" />
    <glyph glyph-name="edotaccent" unicode="&#x117;" 
d="M402 304q1 5 1 8.5v7.5v16q0 46 -29 75.5t-80 29.5q-64 0 -102 -38.5t-55 -98.5h265zM485 160q-27 -91 -91 -132.5t-158 -41.5q-49 0 -90.5 15.5t-71.5 45t-47 71t-17 94.5q0 60 19 117t55.5 102t90 72.5t122.5 27.5t112 -23t67 -58t32.5 -77t8.5 -80q0 -19 -2 -35
t-4 -29h-385q-1 -5 -1.5 -9t-0.5 -8v-16q0 -54 28.5 -87t94.5 -33q46 0 79 21t45 63h114zM387 709l-19 -108h-110l19 108h110z" />
    <glyph glyph-name="Eogonek" unicode="&#x118;" horiz-adv-x="630" 
d="M492 -143q-25 -45 -59.5 -62.5t-74.5 -17.5q-11 0 -25 2.5t-27 10.5t-22 23t-9 39q0 26 15 48.5t37 41t47 33.5t45 25h-418l148 714h520l-22 -108h-397l-39 -187h368l-21 -102h-369l-43 -209h400l-22 -108h-37q-70 -44 -101 -74t-31 -56q0 -16 8.5 -27t23.5 -11
q14 0 27 7t30 26z" />
    <glyph glyph-name="eogonek" unicode="&#x119;" 
d="M304 -143q-25 -45 -59.5 -62.5t-74.5 -17.5q-11 0 -25 2.5t-27 10.5t-22 23t-9 39q0 19 8.5 36.5t23 33.5t32 29.5t35.5 24.5l10 6l10 6q-16 2 -31.5 5t-29.5 8q-61 24 -98 78t-37 133q0 60 19 117t55.5 102t90 72.5t122.5 27.5t112 -23t67 -58t32.5 -77t8.5 -80
q0 -19 -2 -35t-4 -29h-385q-1 -5 -1.5 -9t-0.5 -8v-16q0 -54 28.5 -87t94.5 -33q46 0 79 21t45 63h114q-27 -90 -92 -133q-49 -31 -113 -38q-28 -19 -48.5 -34.5t-33.5 -28.5q-31 -30 -31 -56q0 -16 8.5 -27t23.5 -11q14 0 27 7t30 26zM402 304q1 5 1 8.5v7.5v16
q0 46 -29 75.5t-80 29.5q-64 0 -102 -38.5t-55 -98.5h265z" />
    <glyph glyph-name="Ecaron" unicode="&#x11a;" horiz-adv-x="630" 
d="M149 714h520l-22 -108h-397l-39 -187h368l-21 -102h-369l-43 -209h400l-22 -108h-523zM280 925h84l52 -88l93 88h92l-137 -143h-106z" />
    <glyph glyph-name="ecaron" unicode="&#x11b;" 
d="M402 304q1 5 1 8.5v7.5v16q0 46 -29 75.5t-80 29.5q-64 0 -102 -38.5t-55 -98.5h265zM485 160q-27 -91 -91 -132.5t-158 -41.5q-49 0 -90.5 15.5t-71.5 45t-47 71t-17 94.5q0 60 19 117t55.5 102t90 72.5t122.5 27.5t112 -23t67 -58t32.5 -77t8.5 -80q0 -19 -2 -35
t-4 -29h-385q-1 -5 -1.5 -9t-0.5 -8v-16q0 -54 28.5 -87t94.5 -33q46 0 79 21t45 63h114zM184 731h84l52 -88l93 88h92l-137 -143h-106z" />
    <glyph glyph-name="Gcircumflex" unicode="&#x11c;" horiz-adv-x="759" 
d="M620 0h-80v75h-2q-19 -24 -42.5 -41t-49 -28.5t-51 -17t-47.5 -5.5q-77 0 -136 24t-99 66t-61 99t-21 123q0 112 33.5 194.5t88 136t123 79.5t138.5 26q63 0 117.5 -15t94.5 -45t63 -76t23 -109h-125q-4 73 -51 108t-126 35q-64 0 -111.5 -29t-79 -76t-47.5 -106
t-16 -119q0 -100 51 -157t145 -57q46 0 82 14.5t62.5 40.5t44.5 62t28 79h-196l20 95h307zM280 782l134 143h104l78 -143h-86l-51 90l-87 -90h-92z" />
    <glyph glyph-name="gcircumflex" unicode="&#x11d;" horiz-adv-x="593" 
d="M133 218q0 -26 6 -49.5t19 -41t33.5 -27.5t49.5 -10q46 0 78.5 21t53.5 54t30.5 74t9.5 80q0 57 -29 89.5t-86 32.5q-42 0 -73 -21.5t-51.5 -54.5t-30.5 -72.5t-10 -74.5zM462 14q-13 -59 -32.5 -101t-50 -68t-74 -38t-104.5 -12q-44 0 -83.5 9t-70 28.5t-49 51
t-19.5 76.5h114q2 -44 35.5 -62t82.5 -18q38 0 63 11t41.5 30t25.5 45.5t16 58.5l11 51l-2 2q-54 -78 -146 -78q-97 0 -149 56.5t-52 155.5q0 58 17.5 115.5t51 102.5t83.5 73t115 28q57 0 98 -23t62 -77h2l15 86h108zM204 588l134 143h104l78 -143h-86l-51 90l-87 -90h-92z
" />
    <glyph glyph-name="Gbreve" unicode="&#x11e;" horiz-adv-x="759" 
d="M620 0h-80v75h-2q-19 -24 -42.5 -41t-49 -28.5t-51 -17t-47.5 -5.5q-77 0 -136 24t-99 66t-61 99t-21 123q0 112 33.5 194.5t88 136t123 79.5t138.5 26q63 0 117.5 -15t94.5 -45t63 -76t23 -109h-125q-4 73 -51 108t-126 35q-64 0 -111.5 -29t-79 -76t-47.5 -106
t-16 -119q0 -100 51 -157t145 -57q46 0 82 14.5t62.5 40.5t44.5 62t28 79h-196l20 95h307zM340 925q2 -39 25.5 -57.5t65.5 -18.5t73 19t42 57h56q-13 -70 -59 -105.5t-115 -35.5q-33 0 -60 9t-46.5 27t-29.5 44t-8 61h56z" />
    <glyph glyph-name="gbreve" unicode="&#x11f;" horiz-adv-x="593" 
d="M133 218q0 -26 6 -49.5t19 -41t33.5 -27.5t49.5 -10q46 0 78.5 21t53.5 54t30.5 74t9.5 80q0 57 -29 89.5t-86 32.5q-42 0 -73 -21.5t-51.5 -54.5t-30.5 -72.5t-10 -74.5zM462 14q-13 -59 -32.5 -101t-50 -68t-74 -38t-104.5 -12q-44 0 -83.5 9t-70 28.5t-49 51
t-19.5 76.5h114q2 -44 35.5 -62t82.5 -18q38 0 63 11t41.5 30t25.5 45.5t16 58.5l11 51l-2 2q-54 -78 -146 -78q-97 0 -149 56.5t-52 155.5q0 58 17.5 115.5t51 102.5t83.5 73t115 28q57 0 98 -23t62 -77h2l15 86h108zM263 731q2 -39 25.5 -57.5t65.5 -18.5t73 19t42 57h56
q-13 -70 -59 -105.5t-115 -35.5q-33 0 -60 9t-46.5 27t-29.5 44t-8 61h56z" />
    <glyph glyph-name="Gdotaccent" unicode="&#x120;" horiz-adv-x="759" 
d="M620 0h-80v75h-2q-19 -24 -42.5 -41t-49 -28.5t-51 -17t-47.5 -5.5q-77 0 -136 24t-99 66t-61 99t-21 123q0 112 33.5 194.5t88 136t123 79.5t138.5 26q63 0 117.5 -15t94.5 -45t63 -76t23 -109h-125q-4 73 -51 108t-126 35q-64 0 -111.5 -29t-79 -76t-47.5 -106
t-16 -119q0 -100 51 -157t145 -57q46 0 82 14.5t62.5 40.5t44.5 62t28 79h-196l20 95h307zM511 903l-19 -108h-110l19 108h110z" />
    <glyph glyph-name="gdotaccent" unicode="&#x121;" horiz-adv-x="593" 
d="M133 218q0 -26 6 -49.5t19 -41t33.5 -27.5t49.5 -10q46 0 78.5 21t53.5 54t30.5 74t9.5 80q0 57 -29 89.5t-86 32.5q-42 0 -73 -21.5t-51.5 -54.5t-30.5 -72.5t-10 -74.5zM462 14q-13 -59 -32.5 -101t-50 -68t-74 -38t-104.5 -12q-44 0 -83.5 9t-70 28.5t-49 51
t-19.5 76.5h114q2 -44 35.5 -62t82.5 -18q38 0 63 11t41.5 30t25.5 45.5t16 58.5l11 51l-2 2q-54 -78 -146 -78q-97 0 -149 56.5t-52 155.5q0 58 17.5 115.5t51 102.5t83.5 73t115 28q57 0 98 -23t62 -77h2l15 86h108zM414 709l-19 -108h-110l19 108h110z" />
    <glyph glyph-name="Gcommaaccent" unicode="&#x122;" horiz-adv-x="759" 
d="M620 0h-80v75h-2q-19 -24 -42.5 -41t-49 -28.5t-51 -17t-47.5 -5.5q-77 0 -136 24t-99 66t-61 99t-21 123q0 112 33.5 194.5t88 136t123 79.5t138.5 26q63 0 117.5 -15t94.5 -45t63 -76t23 -109h-125q-4 73 -51 108t-126 35q-64 0 -111.5 -29t-79 -76t-47.5 -106
t-16 -119q0 -100 51 -157t145 -57q46 0 82 14.5t62.5 40.5t44.5 62t28 79h-196l20 95h307zM265 -50h131l-18 -89q-4 -16 -12 -30.5t-23.5 -26t-39 -19t-59.5 -8.5l8 38q22 3 34 11t19 25h-60z" />
    <glyph glyph-name="gcommaaccent" unicode="&#x123;" horiz-adv-x="593" 
d="M133 218q0 -26 6 -49.5t19 -41t33.5 -27.5t49.5 -10q46 0 78.5 21t53.5 54t30.5 74t9.5 80q0 57 -29 89.5t-86 32.5q-42 0 -73 -21.5t-51.5 -54.5t-30.5 -72.5t-10 -74.5zM462 14q-13 -59 -32.5 -101t-50 -68t-74 -38t-104.5 -12q-44 0 -83.5 9t-70 28.5t-49 51
t-19.5 76.5h114q2 -44 35.5 -62t82.5 -18q38 0 63 11t41.5 30t25.5 45.5t16 58.5l11 51l-2 2q-54 -78 -146 -78q-97 0 -149 56.5t-52 155.5q0 58 17.5 115.5t51 102.5t83.5 73t115 28q57 0 98 -23t62 -77h2l15 86h108zM412 615h-131l18 89q4 16 12 30.5t23.5 26t39 18.5
t59.5 9l-8 -38q-22 -3 -34 -11t-19 -25h60z" />
    <glyph glyph-name="Hcircumflex" unicode="&#x124;" horiz-adv-x="722" 
d="M142 714h125l-59 -284h334l59 284h125l-148 -714h-125l67 322h-334l-67 -322h-125zM275 782l134 143h104l78 -143h-86l-51 90l-87 -90h-92z" />
    <glyph glyph-name="hcircumflex" unicode="&#x125;" horiz-adv-x="574" 
d="M136 714h114l-56 -270h2q29 39 75 63t95 24q78 0 114.5 -37t36.5 -100q0 -14 -1 -32t-4 -32l-69 -330h-114l66 319q3 13 5.5 25t2.5 23q0 6 -0.5 18.5t-7.5 25t-23.5 21.5t-47.5 9q-34 0 -60.5 -14.5t-47.5 -35.5q-20 -20 -34.5 -49.5t-21.5 -61.5l-58 -280h-114z
M194 782l134 143h104l78 -143h-86l-51 90l-87 -90h-92z" />
    <glyph glyph-name="Hbar" unicode="&#x126;" horiz-adv-x="722" 
d="M142 714h125l-35 -172h334l35 172h125l-148 -714h-125l63 297h-334l-63 -297h-125zM538 405l14 72h-334l-14 -72h334z" />
    <glyph glyph-name="hbar" unicode="&#x127;" horiz-adv-x="602" 
d="M164 714h114l-14 -65h122l-13 -65h-122l-29 -140h2q29 39 75 63t95 24q78 0 114.5 -37t36.5 -100q0 -14 -1 -32t-4 -32l-69 -330h-114l66 319q3 13 5.5 25t2.5 23q0 6 -0.5 18.5t-7.5 25t-23.5 21.5t-47.5 9q-34 0 -60.5 -14.5t-47.5 -35.5q-20 -20 -34.5 -49.5
t-21.5 -61.5l-58 -280h-114l121 584h-88l12 65h89z" />
    <glyph glyph-name="Itilde" unicode="&#x128;" horiz-adv-x="278" 
d="M153 714h125l-149 -714h-125zM408 913q-3 -19 -11 -40t-21.5 -38.5t-31.5 -29t-40 -11.5q-18 0 -38.5 7.5t-40.5 17t-37.5 17t-30.5 7.5q-16 0 -27.5 -16.5t-16.5 -29.5h-59q6 21 14 41.5t20.5 37t30 27t41.5 10.5q23 0 42 -7t36 -16q18 -8 35 -16t34 -8q9 0 16 5
t12.5 12.5t9 15.5t5.5 14h58z" />
    <glyph glyph-name="itilde" unicode="&#x129;" horiz-adv-x="241" 
d="M-12 0l107 517h114l-107 -517h-114zM336 719q-3 -19 -11 -40t-21.5 -38.5t-31.5 -29t-40 -11.5q-18 0 -38.5 7.5t-40.5 17t-37.5 17t-30.5 7.5q-16 0 -27.5 -16.5t-16.5 -29.5h-59q6 21 14 41.5t20.5 37t30 27t41.5 10.5q23 0 42 -7t36 -16q18 -8 35 -16t34 -8q9 0 16 5
t12.5 12.5t9 15.5t5.5 14h58z" />
    <glyph glyph-name="Imacron" unicode="&#x12a;" horiz-adv-x="278" 
d="M153 714h125l-149 -714h-125zM88 817l12 65h285l-13 -65h-284z" />
    <glyph glyph-name="imacron" unicode="&#x12b;" horiz-adv-x="241" 
d="M-12 0l107 517h114l-107 -517h-114zM21 623l12 65h285l-13 -65h-284z" />
    <glyph glyph-name="Iogonek" unicode="&#x12e;" horiz-adv-x="278" 
d="M133 -143q-23 -45 -54 -62.5t-67 -17.5q-9 0 -22 2.5t-24.5 10.5t-19.5 23t-8 39q0 26 13.5 48.5t33 41t42 33.5t40.5 25h-63l149 714h125l-149 -714h-1q-63 -45 -90.5 -74.5t-27.5 -55.5q0 -16 7.5 -27t20.5 -11t24.5 7t27.5 26z" />
    <glyph glyph-name="iogonek" unicode="&#x12f;" horiz-adv-x="241" 
d="M106 -143q-23 -45 -54 -62.5t-67 -17.5q-9 0 -22 2.5t-24.5 10.5t-19.5 23t-8 39q0 26 13.5 48.5t33 41t42 33.5t40.5 25h-52l107 517h114l-107 -517h-1q-63 -45 -90.5 -74.5t-27.5 -55.5q0 -16 7.5 -27t20.5 -11t24.5 7t27.5 26zM136 714h113l-22 -108h-113z" />
    <glyph glyph-name="Idotaccent" unicode="&#x130;" horiz-adv-x="278" 
d="M153 714h125l-149 -714h-125zM305 903l-19 -108h-110l19 108h110z" />
    <glyph glyph-name="dotlessi" unicode="&#x131;" horiz-adv-x="241" 
d="M-12 0l107 517h114l-107 -517h-114z" />
    <glyph glyph-name="IJ" unicode="&#x132;" horiz-adv-x="792" 
d="M153 714h125l-149 -714h-125zM688 714h125l-82 -399q-4 -17 -11 -46.5t-16 -63t-20 -66.5t-24 -56q-18 -29 -41.5 -48t-49.5 -30.5t-55 -16.5t-57 -5q-65 0 -104.5 19t-60.5 45t-28 54.5t-7 48.5q0 27 2.5 51.5t8.5 48.5h117q-11 -39 -11 -78q0 -87 92 -87q33 0 54 13
t35 36.5t23 56.5t17 73z" />
    <glyph glyph-name="ij" unicode="&#x133;" horiz-adv-x="497" 
d="M136 714h113l-22 -108h-113zM95 517h114l-107 -517h-114zM392 714h113l-22 -108h-113zM351 517h114l-109 -525q-6 -28 -12 -53t-17 -49q-20 -52 -53 -73.5t-88 -21.5q-35 0 -63 6l20 91q6 -5 16 -6t23 -1q17 0 27 9t16 22.5t9 30.5t6 32z" />
    <glyph glyph-name="Jcircumflex" unicode="&#x134;" horiz-adv-x="537" 
d="M433 714h125l-82 -399q-4 -17 -11 -46.5t-16 -63t-20 -66.5t-24 -56q-18 -29 -41.5 -48t-49.5 -30.5t-55 -16.5t-57 -5q-65 0 -104.5 19t-60.5 45t-28 54.5t-7 48.5q0 27 2.5 51.5t8.5 48.5h117q-11 -39 -11 -78q0 -87 92 -87q33 0 54 13t35 36.5t23 56.5t17 73zM341 782
l134 143h104l78 -143h-86l-51 90l-87 -90h-92z" />
    <glyph glyph-name="jcircumflex" unicode="&#x135;" horiz-adv-x="241" 
d="M95 517h114l-109 -525q-6 -28 -12 -53t-15 -49q-22 -52 -55 -73.5t-88 -21.5q-35 0 -63 6l20 91q8 -5 17 -6t22 -1q15 0 25 9t16.5 22.5t10 30.5t6.5 32zM1 588l134 143h104l78 -143h-86l-51 90l-87 -90h-92z" />
    <glyph glyph-name="Kcommaaccent" unicode="&#x136;" horiz-adv-x="685" 
d="M149 714h125l-67 -324l2 -2l364 326h167l-343 -295l224 -419h-142l-179 341l-126 -108l-48 -233h-125zM215 -50h131l-18 -89q-4 -16 -12 -30.5t-23.5 -26t-39 -19t-59.5 -8.5l8 38q22 3 34 11t19 25h-60z" />
    <glyph glyph-name="kcommaaccent" unicode="&#x137;" horiz-adv-x="519" 
d="M136 714h114l-84 -404l2 -2l234 209h144l-228 -190l126 -327h-126l-91 251l-88 -75l-37 -176h-114zM136 -50h131l-18 -89q-4 -16 -12 -30.5t-23.5 -26t-39 -19t-59.5 -8.5l8 38q22 3 34 11t19 25h-60z" />
    <glyph glyph-name="Lacute" unicode="&#x139;" horiz-adv-x="574" 
d="M152 714h125l-126 -606h360l-22 -108h-485zM387 925l-118 -143h-84l77 143h125z" />
    <glyph glyph-name="lacute" unicode="&#x13a;" horiz-adv-x="241" 
d="M136 714h114l-148 -714h-114zM340 925l-118 -143h-84l77 143h125z" />
    <glyph glyph-name="Lcommaaccent" unicode="&#x13b;" horiz-adv-x="574" 
d="M152 714h125l-126 -606h360l-22 -108h-485zM182 -50h131l-18 -89q-4 -16 -12 -30.5t-23.5 -26t-39 -19t-59.5 -8.5l8 38q22 3 34 11t19 25h-60z" />
    <glyph glyph-name="lcommaaccent" unicode="&#x13c;" horiz-adv-x="241" 
d="M136 714h114l-148 -714h-114zM-27 -50h131l-18 -89q-4 -16 -12 -30.5t-23.5 -26t-39 -19t-59.5 -8.5l8 38q22 3 34 11t19 25h-60z" />
    <glyph glyph-name="Lcaron" unicode="&#x13d;" horiz-adv-x="574" 
d="M152 714h125l-126 -606h360l-22 -108h-485zM521 714l-102 -143h-76l57 143h121z" />
    <glyph glyph-name="lcaron" unicode="&#x13e;" horiz-adv-x="327" 
d="M136 714h114l-148 -714h-114zM453 714l-102 -143h-76l57 143h121z" />
    <glyph glyph-name="Ldot" unicode="&#x13f;" horiz-adv-x="574" 
d="M152 714h125l-126 -606h360l-22 -108h-485zM472 517l-19 -108h-110l19 108h110z" />
    <glyph glyph-name="ldot" unicode="&#x140;" horiz-adv-x="383" 
d="M136 714h114l-148 -714h-114zM384 517l-19 -108h-110l19 108h110z" />
    <glyph glyph-name="Lslash" unicode="&#x141;" horiz-adv-x="574" 
d="M152 714h125l-64 -306l230 142l-19 -93l-230 -142l-43 -207h360l-22 -108h-485l47 227l-87 -54l19 90l87 54z" />
    <glyph glyph-name="lslash" unicode="&#x142;" horiz-adv-x="241" 
d="M136 714h114l-49 -235l93 63l-15 -71l-93 -63l-84 -408h-114l66 319l-81 -55l15 71l81 55z" />
    <glyph glyph-name="Nacute" unicode="&#x143;" horiz-adv-x="722" 
d="M149 714h137l219 -533h2l109 533h125l-148 -714h-137l-220 530h-2l-108 -530h-125zM607 925l-118 -143h-84l77 143h125z" />
    <glyph glyph-name="nacute" unicode="&#x144;" horiz-adv-x="574" 
d="M95 517h107l-16 -75l2 -2q31 43 77.5 67t100.5 24q78 0 114.5 -37t36.5 -100q0 -14 -1 -32t-4 -32l-69 -330h-114l66 319q3 13 5.5 25t2.5 23q0 6 -0.5 18.5t-7.5 25t-23.5 21.5t-47.5 9q-34 0 -60.5 -14.5t-47.5 -35.5q-20 -20 -34.5 -49.5t-21.5 -61.5l-58 -280h-114z
M472 731l-118 -143h-84l77 143h125z" />
    <glyph glyph-name="Ncommaaccent" unicode="&#x145;" horiz-adv-x="722" 
d="M149 714h137l219 -533h2l109 533h125l-148 -714h-137l-220 530h-2l-108 -530h-125zM229 -50h131l-18 -89q-4 -16 -12 -30.5t-23.5 -26t-39 -19t-59.5 -8.5l8 38q22 3 34 11t19 25h-60z" />
    <glyph glyph-name="ncommaaccent" unicode="&#x146;" horiz-adv-x="574" 
d="M95 517h107l-16 -75l2 -2q31 43 77.5 67t100.5 24q78 0 114.5 -37t36.5 -100q0 -14 -1 -32t-4 -32l-69 -330h-114l66 319q3 13 5.5 25t2.5 23q0 6 -0.5 18.5t-7.5 25t-23.5 21.5t-47.5 9q-34 0 -60.5 -14.5t-47.5 -35.5q-20 -20 -34.5 -49.5t-21.5 -61.5l-58 -280h-114z
M143 -50h131l-18 -89q-4 -16 -12 -30.5t-23.5 -26t-39 -19t-59.5 -8.5l8 38q22 3 34 11t19 25h-60z" />
    <glyph glyph-name="Ncaron" unicode="&#x147;" horiz-adv-x="722" 
d="M149 714h137l219 -533h2l109 533h125l-148 -714h-137l-220 530h-2l-108 -530h-125zM312 925h84l52 -88l93 88h92l-137 -143h-106z" />
    <glyph glyph-name="ncaron" unicode="&#x148;" horiz-adv-x="574" 
d="M95 517h107l-16 -75l2 -2q31 43 77.5 67t100.5 24q78 0 114.5 -37t36.5 -100q0 -14 -1 -32t-4 -32l-69 -330h-114l66 319q3 13 5.5 25t2.5 23q0 6 -0.5 18.5t-7.5 25t-23.5 21.5t-47.5 9q-34 0 -60.5 -14.5t-47.5 -35.5q-20 -20 -34.5 -49.5t-21.5 -61.5l-58 -280h-114z
M190 731h84l52 -88l93 88h92l-137 -143h-106z" />
    <glyph glyph-name="napostrophe" unicode="&#x149;" horiz-adv-x="610" 
d="M131 517h107l-16 -75l2 -2q31 43 77.5 67t100.5 24q78 0 114.5 -37t36.5 -100q0 -14 -1 -32t-4 -32l-69 -330h-114l66 319q3 13 5.5 25t2.5 23q0 6 -0.5 18.5t-7.5 25t-23.5 21.5t-47.5 9q-34 0 -60.5 -14.5t-47.5 -35.5q-20 -20 -34.5 -49.5t-21.5 -61.5l-58 -280h-114z
M112 813h131l-18 -89q-4 -16 -12 -30.5t-23.5 -26t-39 -19t-59.5 -8.5l8 38q22 3 34 11t19 25h-60z" />
    <glyph glyph-name="Omacron" unicode="&#x14c;" horiz-adv-x="759" 
d="M156 299q0 -100 51 -157t145 -57q62 0 108.5 29t78 76t47 106t15.5 119q0 100 -48.5 157t-142.5 57q-64 0 -111.5 -29t-79 -76t-47.5 -106t-16 -119zM31 295q0 112 33.5 194.5t88 136t123 79.5t138.5 26t128 -23t98.5 -64.5t63 -98.5t22.5 -126q0 -113 -32 -195
t-85 -135.5t-121 -79.5t-140 -26q-77 0 -136 24t-99 66t-61 99t-21 123zM304 817l12 65h285l-13 -65h-284z" />
    <glyph glyph-name="omacron" unicode="&#x14d;" horiz-adv-x="593" 
d="M300 441q-44 0 -76.5 -22t-54.5 -55.5t-32.5 -74.5t-10.5 -80q0 -57 28.5 -95t90.5 -38q44 0 76.5 21.5t54.5 55t32.5 75t10.5 80.5q0 57 -28.5 95t-90.5 38zM238 -14q-108 0 -167 58.5t-59 167.5q0 64 21 121.5t59.5 101.5t93 70t121.5 26q108 0 167 -56.5t59 -165.5
q0 -68 -20 -127t-58.5 -102.5t-93 -68.5t-123.5 -25zM196 623l12 65h285l-13 -65h-284z" />
    <glyph glyph-name="Obreve" unicode="&#x14e;" horiz-adv-x="759" 
d="M156 299q0 -100 51 -157t145 -57q62 0 108.5 29t78 76t47 106t15.5 119q0 100 -48.5 157t-142.5 57q-64 0 -111.5 -29t-79 -76t-47.5 -106t-16 -119zM31 295q0 112 33.5 194.5t88 136t123 79.5t138.5 26t128 -23t98.5 -64.5t63 -98.5t22.5 -126q0 -113 -32 -195
t-85 -135.5t-121 -79.5t-140 -26q-77 0 -136 24t-99 66t-61 99t-21 123zM352 925q2 -39 25.5 -57.5t65.5 -18.5t73 19t42 57h56q-13 -70 -59 -105.5t-115 -35.5q-33 0 -60 9t-46.5 27t-29.5 44t-8 61h56z" />
    <glyph glyph-name="obreve" unicode="&#x14f;" horiz-adv-x="593" 
d="M300 441q-44 0 -76.5 -22t-54.5 -55.5t-32.5 -74.5t-10.5 -80q0 -57 28.5 -95t90.5 -38q44 0 76.5 21.5t54.5 55t32.5 75t10.5 80.5q0 57 -28.5 95t-90.5 38zM238 -14q-108 0 -167 58.5t-59 167.5q0 64 21 121.5t59.5 101.5t93 70t121.5 26q108 0 167 -56.5t59 -165.5
q0 -68 -20 -127t-58.5 -102.5t-93 -68.5t-123.5 -25zM246 731q2 -39 25.5 -57.5t65.5 -18.5t73 19t42 57h56q-13 -70 -59 -105.5t-115 -35.5q-33 0 -60 9t-46.5 27t-29.5 44t-8 61h56z" />
    <glyph glyph-name="Ohungarumlaut" unicode="&#x150;" horiz-adv-x="759" 
d="M156 299q0 -100 51 -157t145 -57q62 0 108.5 29t78 76t47 106t15.5 119q0 100 -48.5 157t-142.5 57q-64 0 -111.5 -29t-79 -76t-47.5 -106t-16 -119zM31 295q0 112 33.5 194.5t88 136t123 79.5t138.5 26t128 -23t98.5 -64.5t63 -98.5t22.5 -126q0 -113 -32 -195
t-85 -135.5t-121 -79.5t-140 -26q-77 0 -136 24t-99 66t-61 99t-21 123zM489 925l-118 -143h-74l67 143h125zM671 925l-118 -143h-74l67 143h125z" />
    <glyph glyph-name="ohungarumlaut" unicode="&#x151;" horiz-adv-x="593" 
d="M300 441q-44 0 -76.5 -22t-54.5 -55.5t-32.5 -74.5t-10.5 -80q0 -57 28.5 -95t90.5 -38q44 0 76.5 21.5t54.5 55t32.5 75t10.5 80.5q0 57 -28.5 95t-90.5 38zM238 -14q-108 0 -167 58.5t-59 167.5q0 64 21 121.5t59.5 101.5t93 70t121.5 26q108 0 167 -56.5t59 -165.5
q0 -68 -20 -127t-58.5 -102.5t-93 -68.5t-123.5 -25zM387 731l-118 -143h-74l67 143h125zM569 731l-118 -143h-74l67 143h125z" />
    <glyph glyph-name="OE" unicode="&#x152;" horiz-adv-x="1093" 
d="M577 452q8 43 8 58q0 9 -4.5 28.5t-21 39.5t-48.5 35.5t-86 15.5q-62 0 -110 -27t-80.5 -72t-49 -104t-16.5 -122q0 -44 9.5 -83.5t30 -69.5t53 -48t77.5 -18q77 0 130 45t67 120zM980 0h-490l13 61h-2q-32 -42 -80.5 -60t-103.5 -18q-67 0 -118 24.5t-85.5 67t-52 99
t-17.5 121.5q0 84 26 162.5t75.5 139.5t120.5 97.5t161 36.5q58 0 108.5 -19.5t87.5 -67.5l15 70h487l-23 -108h-373l-39 -187h340l-21 -102h-340l-43 -209h377z" />
    <glyph glyph-name="oe" unicode="&#x153;" horiz-adv-x="926" 
d="M495 229q-2 -11 -3.5 -21.5t-1.5 -21.5q0 -20 6.5 -40t20 -35.5t34.5 -25t51 -9.5q104 0 130 84h118q-13 -42 -37.5 -74.5t-57.5 -54.5t-73 -33.5t-85 -11.5q-32 0 -58.5 4t-49 14.5t-40.5 29t-32 47.5q-36 -54 -85 -74.5t-115 -20.5q-100 0 -149.5 58t-49.5 161
q0 63 20.5 121.5t58.5 104t92 73t121 27.5q28 0 53.5 -4.5t48 -15.5t40.5 -29t30 -44q32 46 82.5 69.5t104.5 23.5t94.5 -16t66.5 -44t39 -66t13 -82q0 -23 -2 -46.5t-8 -47.5h-377zM766 304q1 5 1.5 9.5t0.5 9.5v17q0 101 -108 101q-31 0 -55.5 -10.5t-43 -28.5t-31.5 -43
t-21 -55h257zM306 441q-46 0 -79 -24t-54 -60t-31 -79t-10 -80q0 -57 28 -89.5t91 -32.5q42 0 72 25t49.5 62.5t28.5 79.5t9 77t-9 58.5t-23.5 37.5t-33.5 19.5t-38 5.5z" />
    <glyph glyph-name="Racute" unicode="&#x154;" horiz-adv-x="704" 
d="M209 389h183q81 0 123.5 33.5t42.5 96.5q0 29 -10.5 47.5t-28.5 28.5t-41 13.5t-48 3.5h-175zM149 714h309q23 0 61 -4t74.5 -22t63 -54.5t26.5 -101.5q0 -85 -43 -132.5t-119 -61.5v-2q45 -17 60.5 -50.5t15.5 -78.5q0 -37 -6 -74t-5 -74q0 -15 2.5 -30t10.5 -29h-131
q-5 14 -6.5 27t-1.5 28q0 40 6 78.5t6 77.5q0 31 -11.5 48t-30.5 24.5t-43 9t-49 1.5h-149l-61 -294h-127zM549 925l-118 -143h-84l77 143h125z" />
    <glyph glyph-name="racute" unicode="&#x155;" horiz-adv-x="370" 
d="M95 517h108l-21 -101l2 -2q12 21 29.5 42t38.5 37.5t45.5 27t51.5 10.5q14 0 27.5 -0.5t27.5 -2.5l-24 -109q-10 2 -20 3t-20 1q-44 0 -76.5 -15.5t-55 -42.5t-36.5 -62t-22 -74l-48 -229h-114zM334 731l-118 -143h-84l77 143h125z" />
    <glyph glyph-name="Rcommaaccent" unicode="&#x156;" horiz-adv-x="704" 
d="M209 389h183q81 0 123.5 33.5t42.5 96.5q0 29 -10.5 47.5t-28.5 28.5t-41 13.5t-48 3.5h-175zM149 714h309q23 0 61 -4t74.5 -22t63 -54.5t26.5 -101.5q0 -85 -43 -132.5t-119 -61.5v-2q45 -17 60.5 -50.5t15.5 -78.5q0 -37 -6 -74t-5 -74q0 -15 2.5 -30t10.5 -29h-131
q-5 14 -6.5 27t-1.5 28q0 40 6 78.5t6 77.5q0 31 -11.5 48t-30.5 24.5t-43 9t-49 1.5h-149l-61 -294h-127zM222 -50h131l-18 -89q-4 -16 -12 -30.5t-23.5 -26t-39 -19t-59.5 -8.5l8 38q22 3 34 11t19 25h-60z" />
    <glyph glyph-name="rcommaaccent" unicode="&#x157;" horiz-adv-x="370" 
d="M95 517h108l-21 -101l2 -2q12 21 29.5 42t38.5 37.5t45.5 27t51.5 10.5q14 0 27.5 -0.5t27.5 -2.5l-24 -109q-10 2 -20 3t-20 1q-44 0 -76.5 -15.5t-55 -42.5t-36.5 -62t-22 -74l-48 -229h-114zM-26 -50h131l-18 -89q-4 -16 -12 -30.5t-23.5 -26t-39 -19t-59.5 -8.5l8 38
q22 3 34 11t19 25h-60z" />
    <glyph glyph-name="Rcaron" unicode="&#x158;" horiz-adv-x="704" 
d="M209 389h183q81 0 123.5 33.5t42.5 96.5q0 29 -10.5 47.5t-28.5 28.5t-41 13.5t-48 3.5h-175zM149 714h309q23 0 61 -4t74.5 -22t63 -54.5t26.5 -101.5q0 -85 -43 -132.5t-119 -61.5v-2q45 -17 60.5 -50.5t15.5 -78.5q0 -37 -6 -74t-5 -74q0 -15 2.5 -30t10.5 -29h-131
q-5 14 -6.5 27t-1.5 28q0 40 6 78.5t6 77.5q0 31 -11.5 48t-30.5 24.5t-43 9t-49 1.5h-149l-61 -294h-127zM266 925h84l52 -88l93 88h92l-137 -143h-106z" />
    <glyph glyph-name="rcaron" unicode="&#x159;" horiz-adv-x="370" 
d="M95 517h108l-21 -101l2 -2q12 21 29.5 42t38.5 37.5t45.5 27t51.5 10.5q14 0 27.5 -0.5t27.5 -2.5l-24 -109q-10 2 -20 3t-20 1q-44 0 -76.5 -15.5t-55 -42.5t-36.5 -62t-22 -74l-48 -229h-114zM116 731h84l52 -88l93 88h92l-137 -143h-106z" />
    <glyph glyph-name="Sacute" unicode="&#x15a;" horiz-adv-x="648" 
d="M133 236q-4 -83 41 -117t123 -34q25 0 53.5 6t51.5 19.5t38.5 35t15.5 53.5q0 30 -14.5 50t-38 33.5t-54.5 23t-64 18.5q-24 6 -57 16.5t-64 31t-52.5 53.5t-21.5 84q0 48 18 89t52 70.5t83.5 46t112.5 16.5q56 0 105 -12t85 -39t56 -70.5t18 -106.5h-120q-1 67 -37 96.5
t-109 29.5q-13 0 -36 -3t-46 -14t-40 -31.5t-17 -56.5q0 -26 12 -43t32.5 -29t47.5 -20t57 -15q38 -10 76.5 -22t70 -33.5t51 -56.5t19.5 -91q0 -42 -16 -83t-51.5 -74t-92 -53.5t-137.5 -20.5q-63 0 -114 14.5t-86.5 45t-54 78.5t-16.5 115h120zM533 925l-118 -143h-84
l77 143h125z" />
    <glyph glyph-name="sacute" unicode="&#x15b;" horiz-adv-x="500" 
d="M354 366q-1 39 -29.5 57t-74.5 18q-17 0 -32.5 -3t-28 -10.5t-20 -20t-7.5 -31.5q0 -18 13.5 -29t35.5 -19.5t49 -16t54 -17.5q23 -9 45 -20t38.5 -27t26.5 -38t10 -53q0 -45 -20 -77t-52 -53t-73.5 -30.5t-83.5 -9.5q-45 0 -84 8.5t-68 29t-46 55t-18 87.5h108
q-2 -49 31 -69.5t83 -20.5q18 0 37 3.5t35 11.5t26.5 22.5t10.5 36.5q0 20 -14.5 33t-37 22.5t-51 17.5t-55.5 18q-23 8 -43.5 19t-36.5 26.5t-25 36.5t-9 50q0 42 18.5 72t48.5 49t68 28t78 9q42 0 79 -7.5t64.5 -26.5t43 -51t14.5 -80h-108zM432 731l-118 -143h-84l77 143
h125z" />
    <glyph glyph-name="Scircumflex" unicode="&#x15c;" horiz-adv-x="648" 
d="M133 236q-4 -83 41 -117t123 -34q25 0 53.5 6t51.5 19.5t38.5 35t15.5 53.5q0 30 -14.5 50t-38 33.5t-54.5 23t-64 18.5q-24 6 -57 16.5t-64 31t-52.5 53.5t-21.5 84q0 48 18 89t52 70.5t83.5 46t112.5 16.5q56 0 105 -12t85 -39t56 -70.5t18 -106.5h-120q-1 67 -37 96.5
t-109 29.5q-13 0 -36 -3t-46 -14t-40 -31.5t-17 -56.5q0 -26 12 -43t32.5 -29t47.5 -20t57 -15q38 -10 76.5 -22t70 -33.5t51 -56.5t19.5 -91q0 -42 -16 -83t-51.5 -74t-92 -53.5t-137.5 -20.5q-63 0 -114 14.5t-86.5 45t-54 78.5t-16.5 115h120zM228 782l134 143h104
l78 -143h-86l-51 90l-87 -90h-92z" />
    <glyph glyph-name="scircumflex" unicode="&#x15d;" horiz-adv-x="500" 
d="M354 366q-1 39 -29.5 57t-74.5 18q-17 0 -32.5 -3t-28 -10.5t-20 -20t-7.5 -31.5q0 -18 13.5 -29t35.5 -19.5t49 -16t54 -17.5q23 -9 45 -20t38.5 -27t26.5 -38t10 -53q0 -45 -20 -77t-52 -53t-73.5 -30.5t-83.5 -9.5q-45 0 -84 8.5t-68 29t-46 55t-18 87.5h108
q-2 -49 31 -69.5t83 -20.5q18 0 37 3.5t35 11.5t26.5 22.5t10.5 36.5q0 20 -14.5 33t-37 22.5t-51 17.5t-55.5 18q-23 8 -43.5 19t-36.5 26.5t-25 36.5t-9 50q0 42 18.5 72t48.5 49t68 28t78 9q42 0 79 -7.5t64.5 -26.5t43 -51t14.5 -80h-108zM130 588l134 143h104l78 -143
h-86l-51 90l-87 -90h-92z" />
    <glyph glyph-name="Scedilla" unicode="&#x15e;" horiz-adv-x="648" 
d="M147 -162q16 -8 32.5 -11.5t36.5 -5.5q8 -1 18 1t18.5 6.5t14.5 12t6 17.5q0 21 -14 30t-33 9q-9 0 -18.5 -2t-18.5 -5l-17 21l61 75q-35 3 -63 12q-76 21 -118 79t-39 159h120q-4 -83 41 -117t123 -34q25 0 53.5 6t51.5 19.5t38.5 35t15.5 53.5q0 30 -14.5 50t-38 33.5
t-54.5 23t-64 18.5q-24 6 -57 16.5t-64 31t-52.5 53.5t-21.5 84q0 48 18 89t52 70.5t83.5 46t112.5 16.5q56 0 105 -12t85 -39t56 -70.5t18 -106.5h-120q-1 67 -37 96.5t-109 29.5q-13 0 -36 -3t-46 -14t-40 -31.5t-17 -56.5q0 -26 12 -43t32.5 -29t47.5 -20t57 -15
q38 -10 76.5 -22t70 -33.5t51 -56.5t19.5 -91q0 -42 -16 -83t-51.5 -74t-92 -53.5t-137.5 -20.5h-5l-42 -49l14 2q5 1 15 1q33 0 60 -17.5t27 -54.5q0 -23 -11.5 -40t-29 -28t-39 -16t-40.5 -5q-28 0 -58.5 7t-47.5 16z" />
    <glyph glyph-name="scedilla" unicode="&#x15f;" horiz-adv-x="500" 
d="M70 -162q16 -8 32.5 -11.5t36.5 -5.5q8 -1 18 1t18.5 6.5t14.5 12t6 17.5q0 21 -14 30t-33 9q-9 0 -18.5 -2t-18.5 -5l-17 21l63 78q-19 1 -37 6q-58 12 -94 52t-38 119h108q-2 -49 31 -69.5t83 -20.5q18 0 37 3.5t35 11.5t26.5 22.5t10.5 36.5q0 20 -14.5 33t-37 22.5
t-51 17.5t-55.5 18q-23 8 -43.5 19t-36.5 26.5t-25 36.5t-9 50q0 42 18.5 72t48.5 49t68 28t78 9q42 0 79 -7.5t64.5 -26.5t43 -51t14.5 -80h-108q-1 39 -29.5 57t-74.5 18q-17 0 -32.5 -3t-28 -10.5t-20 -20t-7.5 -31.5q0 -18 13.5 -29t35.5 -19.5t49 -16t54 -17.5
q23 -9 45 -20t38.5 -27t26.5 -38t10 -53q0 -45 -20 -77t-52 -53t-73.5 -30.5t-83.5 -9.5l-45 -52l14 2q5 1 15 1q33 0 60 -17.5t27 -54.5q0 -23 -11.5 -40t-29 -28t-39 -16t-40.5 -5q-28 0 -58.5 7t-47.5 16z" />
    <glyph glyph-name="Scaron" unicode="&#x160;" horiz-adv-x="648" 
d="M133 236q-4 -83 41 -117t123 -34q25 0 53.5 6t51.5 19.5t38.5 35t15.5 53.5q0 30 -14.5 50t-38 33.5t-54.5 23t-64 18.5q-24 6 -57 16.5t-64 31t-52.5 53.5t-21.5 84q0 48 18 89t52 70.5t83.5 46t112.5 16.5q56 0 105 -12t85 -39t56 -70.5t18 -106.5h-120q-1 67 -37 96.5
t-109 29.5q-13 0 -36 -3t-46 -14t-40 -31.5t-17 -56.5q0 -26 12 -43t32.5 -29t47.5 -20t57 -15q38 -10 76.5 -22t70 -33.5t51 -56.5t19.5 -91q0 -42 -16 -83t-51.5 -74t-92 -53.5t-137.5 -20.5q-63 0 -114 14.5t-86.5 45t-54 78.5t-16.5 115h120zM250 925h84l52 -88l93 88
h92l-137 -143h-106z" />
    <glyph glyph-name="scaron" unicode="&#x161;" horiz-adv-x="500" 
d="M354 366q-1 39 -29.5 57t-74.5 18q-17 0 -32.5 -3t-28 -10.5t-20 -20t-7.5 -31.5q0 -18 13.5 -29t35.5 -19.5t49 -16t54 -17.5q23 -9 45 -20t38.5 -27t26.5 -38t10 -53q0 -45 -20 -77t-52 -53t-73.5 -30.5t-83.5 -9.5q-45 0 -84 8.5t-68 29t-46 55t-18 87.5h108
q-2 -49 31 -69.5t83 -20.5q18 0 37 3.5t35 11.5t26.5 22.5t10.5 36.5q0 20 -14.5 33t-37 22.5t-51 17.5t-55.5 18q-23 8 -43.5 19t-36.5 26.5t-25 36.5t-9 50q0 42 18.5 72t48.5 49t68 28t78 9q42 0 79 -7.5t64.5 -26.5t43 -51t14.5 -80h-108zM152 731h84l52 -88l93 88h92
l-137 -143h-106z" />
    <glyph glyph-name="Tcommaaccent" unicode="&#x162;" horiz-adv-x="593" 
d="M79 714h588l-23 -108h-227l-126 -606h-125l126 606h-235zM155 -50h131l-18 -89q-4 -16 -12 -30.5t-23.5 -26t-39 -19t-59.5 -8.5l8 38q22 3 34 11t19 25h-60z" />
    <glyph glyph-name="tcommaaccent" unicode="&#x163;" horiz-adv-x="333" 
d="M159 672h111l-32 -155h103l-18 -85h-103l-53 -253q-4 -17 -7 -32t-3 -24q0 -17 7.5 -27.5t33.5 -10.5q13 0 28.5 0.5t32.5 4.5l-19 -84q-22 -5 -47 -8t-47 -3q-31 0 -51 8t-31.5 21.5t-16 31t-4.5 35.5q0 15 2.5 33t4.5 25l59 283h-90l18 85h90zM66 -50h131l-18 -89
q-4 -16 -12 -30.5t-23.5 -26t-39 -19t-59.5 -8.5l8 38q22 3 34 11t19 25h-60z" />
    <glyph glyph-name="Tcaron" unicode="&#x164;" horiz-adv-x="593" 
d="M79 714h588l-23 -108h-227l-126 -606h-125l126 606h-235zM253 925h84l52 -88l93 88h92l-137 -143h-106z" />
    <glyph glyph-name="tcaron" unicode="&#x165;" horiz-adv-x="396" 
d="M518 714l-102 -143h-76l57 143h121zM159 672h111l-32 -155h103l-18 -85h-103l-53 -253q-4 -17 -7 -32t-3 -24q0 -17 7.5 -27.5t33.5 -10.5q13 0 28.5 0.5t32.5 4.5l-19 -84q-22 -5 -47 -8t-47 -3q-31 0 -51 8t-31.5 21.5t-16 31t-4.5 35.5q0 15 2.5 33t4.5 25l59 283h-90
l18 85h90z" />
    <glyph glyph-name="Tbar" unicode="&#x166;" horiz-adv-x="593" 
d="M79 714h588l-23 -108h-227l-29 -138h160l-13 -65h-160l-84 -403h-125l84 403h-159l12 65h160l29 138h-235z" />
    <glyph glyph-name="tbar" unicode="&#x167;" horiz-adv-x="333" 
d="M159 672h111l-32 -155h103l-18 -85h-103l-18 -86h113l-13 -65h-114l-21 -102q-4 -17 -7 -32t-3 -24q0 -17 7.5 -27.5t33.5 -10.5q13 0 28.5 0.5t32.5 4.5l-19 -84q-22 -5 -47 -8t-47 -3q-31 0 -51 8t-31.5 21.5t-16 31t-4.5 35.5q0 15 2.5 33t4.5 25l27 132h-98l12 65
h100l18 86h-90l18 85h90z" />
    <glyph glyph-name="Utilde" unicode="&#x168;" horiz-adv-x="741" 
d="M150 714h125l-92 -437q-3 -14 -5 -28.5t-3 -29.5q-1 -36 10.5 -60.5t32.5 -39.5t49 -21.5t61 -6.5q36 0 66.5 8t55 28.5t43.5 56t31 90.5l94 440h125l-94 -448q-9 -44 -26 -94t-53.5 -92t-97.5 -69.5t-158 -27.5q-53 0 -101 13.5t-84 40.5t-57.5 68.5t-21.5 97.5
q0 25 3.5 48.5t8.5 47.5zM645 913q-3 -19 -11 -40t-21.5 -38.5t-31.5 -29t-40 -11.5q-18 0 -38.5 7.5t-40.5 17t-37.5 17t-30.5 7.5q-16 0 -27.5 -16.5t-16.5 -29.5h-59q6 21 14 41.5t20.5 37t30 27t41.5 10.5q23 0 42 -7t36 -16q18 -8 35 -16t34 -8q9 0 16 5t12.5 12.5
t9 15.5t5.5 14h58z" />
    <glyph glyph-name="utilde" unicode="&#x169;" horiz-adv-x="574" 
d="M439 0h-107l16 75l-2 2q-31 -43 -77.5 -67t-100.5 -24q-78 0 -114.5 37t-36.5 100q0 14 1 32t4 32l69 330h114l-66 -319q-3 -13 -5.5 -25t-2.5 -23q0 -6 0.5 -18.5t7.5 -25t23 -21.5t48 -9q33 0 60.5 14.5t48.5 37.5t35 51.5t20 57.5l58 280h114zM510 719q-3 -19 -11 -40
t-21.5 -38.5t-31.5 -29t-40 -11.5q-18 0 -38.5 7.5t-40.5 17t-37.5 17t-30.5 7.5q-16 0 -27.5 -16.5t-16.5 -29.5h-59q6 21 14 41.5t20.5 37t30 27t41.5 10.5q23 0 42 -7t36 -16q18 -8 35 -16t34 -8q9 0 16 5t12.5 12.5t9 15.5t5.5 14h58z" />
    <glyph glyph-name="Umacron" unicode="&#x16a;" horiz-adv-x="741" 
d="M150 714h125l-92 -437q-3 -14 -5 -28.5t-3 -29.5q-1 -36 10.5 -60.5t32.5 -39.5t49 -21.5t61 -6.5q36 0 66.5 8t55 28.5t43.5 56t31 90.5l94 440h125l-94 -448q-9 -44 -26 -94t-53.5 -92t-97.5 -69.5t-158 -27.5q-53 0 -101 13.5t-84 40.5t-57.5 68.5t-21.5 97.5
q0 25 3.5 48.5t8.5 47.5zM316 817l12 65h285l-13 -65h-284z" />
    <glyph glyph-name="umacron" unicode="&#x16b;" horiz-adv-x="574" 
d="M439 0h-107l16 75l-2 2q-31 -43 -77.5 -67t-100.5 -24q-78 0 -114.5 37t-36.5 100q0 14 1 32t4 32l69 330h114l-66 -319q-3 -13 -5.5 -25t-2.5 -23q0 -6 0.5 -18.5t7.5 -25t23 -21.5t48 -9q33 0 60.5 14.5t48.5 37.5t35 51.5t20 57.5l58 280h114zM183 623l12 65h285
l-13 -65h-284z" />
    <glyph glyph-name="Ubreve" unicode="&#x16c;" horiz-adv-x="741" 
d="M150 714h125l-92 -437q-3 -14 -5 -28.5t-3 -29.5q-1 -36 10.5 -60.5t32.5 -39.5t49 -21.5t61 -6.5q36 0 66.5 8t55 28.5t43.5 56t31 90.5l94 440h125l-94 -448q-9 -44 -26 -94t-53.5 -92t-97.5 -69.5t-158 -27.5q-53 0 -101 13.5t-84 40.5t-57.5 68.5t-21.5 97.5
q0 25 3.5 48.5t8.5 47.5zM359 925q2 -39 25.5 -57.5t65.5 -18.5t73 19t42 57h56q-13 -70 -59 -105.5t-115 -35.5q-33 0 -60 9t-46.5 27t-29.5 44t-8 61h56z" />
    <glyph glyph-name="ubreve" unicode="&#x16d;" horiz-adv-x="574" 
d="M439 0h-107l16 75l-2 2q-31 -43 -77.5 -67t-100.5 -24q-78 0 -114.5 37t-36.5 100q0 14 1 32t4 32l69 330h114l-66 -319q-3 -13 -5.5 -25t-2.5 -23q0 -6 0.5 -18.5t7.5 -25t23 -21.5t48 -9q33 0 60.5 14.5t48.5 37.5t35 51.5t20 57.5l58 280h114zM236 731
q2 -39 25.5 -57.5t65.5 -18.5t73 19t42 57h56q-13 -70 -59 -105.5t-115 -35.5q-33 0 -60 9t-46.5 27t-29.5 44t-8 61h56z" />
    <glyph glyph-name="Uring" unicode="&#x16e;" horiz-adv-x="741" 
d="M150 714h125l-92 -437q-3 -14 -5 -28.5t-3 -29.5q-1 -36 10.5 -60.5t32.5 -39.5t49 -21.5t61 -6.5q36 0 66.5 8t55 28.5t43.5 56t31 90.5l94 440h125l-94 -448q-9 -44 -26 -94t-53.5 -92t-97.5 -69.5t-158 -27.5q-53 0 -101 13.5t-84 40.5t-57.5 68.5t-21.5 97.5
q0 25 3.5 48.5t8.5 47.5zM399 853q0 -26 17.5 -43.5t43.5 -17.5t43.5 17.5t17.5 43.5t-17.5 43.5t-43.5 17.5t-43.5 -17.5t-17.5 -43.5zM460 750q-22 0 -41.5 8.5t-33.5 22.5t-22 32.5t-6 39.5q0 21 8 39.5t22.5 33t33 22.5t39.5 8t39.5 -8t33 -22.5t22.5 -33t8 -39.5
t-8 -39.5t-22.5 -32.5t-33 -22.5t-39.5 -8.5z" />
    <glyph glyph-name="uring" unicode="&#x16f;" horiz-adv-x="574" 
d="M439 0h-107l16 75l-2 2q-31 -43 -77.5 -67t-100.5 -24q-78 0 -114.5 37t-36.5 100q0 14 1 32t4 32l69 330h114l-66 -319q-3 -13 -5.5 -25t-2.5 -23q0 -6 0.5 -18.5t7.5 -25t23 -21.5t48 -9q33 0 60.5 14.5t48.5 37.5t35 51.5t20 57.5l58 280h114zM270 673
q0 -26 17.5 -43.5t43.5 -17.5t43.5 17.5t17.5 43.5t-17.5 43.5t-43.5 17.5t-43.5 -17.5t-17.5 -43.5zM331 570q-22 0 -41.5 8.5t-33.5 22.5t-22 32.5t-6 39.5q0 21 8 39.5t22.5 33t33 22.5t39.5 8t39.5 -8t33 -22.5t22.5 -33t8 -39.5t-8 -39.5t-22.5 -32.5t-33 -22.5
t-39.5 -8.5z" />
    <glyph glyph-name="Uhungarumlaut" unicode="&#x170;" horiz-adv-x="741" 
d="M150 714h125l-92 -437q-3 -14 -5 -28.5t-3 -29.5q-1 -36 10.5 -60.5t32.5 -39.5t49 -21.5t61 -6.5q36 0 66.5 8t55 28.5t43.5 56t31 90.5l94 440h125l-94 -448q-9 -44 -26 -94t-53.5 -92t-97.5 -69.5t-158 -27.5q-53 0 -101 13.5t-84 40.5t-57.5 68.5t-21.5 97.5
q0 25 3.5 48.5t8.5 47.5zM519 925l-118 -143h-74l67 143h125zM701 925l-118 -143h-74l67 143h125z" />
    <glyph glyph-name="uhungarumlaut" unicode="&#x171;" horiz-adv-x="574" 
d="M439 0h-107l16 75l-2 2q-31 -43 -77.5 -67t-100.5 -24q-78 0 -114.5 37t-36.5 100q0 14 1 32t4 32l69 330h114l-66 -319q-3 -13 -5.5 -25t-2.5 -23q0 -6 0.5 -18.5t7.5 -25t23 -21.5t48 -9q33 0 60.5 14.5t48.5 37.5t35 51.5t20 57.5l58 280h114zM385 731l-118 -143h-74
l67 143h125zM567 731l-118 -143h-74l67 143h125z" />
    <glyph glyph-name="Uogonek" unicode="&#x172;" horiz-adv-x="741" 
d="M372 -143q-25 -45 -59.5 -62.5t-74.5 -17.5q-11 0 -25 2.5t-27 10.5t-22 23t-9 39q0 19 8.5 36.5t23 33.5t32 29.5t35.5 24.5q4 2 8 4.5t8 4.5q-29 4 -57 12q-35 9 -65 27t-52 43.5t-34 59.5t-12 76q0 25 3.5 48.5t8.5 47.5l88 415h125l-92 -437q-3 -14 -5 -28.5
t-3 -29.5q-1 -36 10.5 -60.5t32.5 -39.5t49 -21.5t61 -6.5q36 0 66.5 8t55 28.5t43.5 56t31 90.5l94 440h125l-94 -448q-7 -33 -18 -70t-31 -71.5t-51 -65t-77 -49.5q-54 -23 -131 -26q-25 -17 -43.5 -31.5t-31.5 -26.5q-31 -30 -31 -56q0 -16 8.5 -27t23.5 -11q14 0 27 7
t30 26z" />
    <glyph glyph-name="uogonek" unicode="&#x173;" horiz-adv-x="574" 
d="M401 -143q-23 -45 -56 -62.5t-71 -17.5q-10 0 -23.5 2.5t-26 10.5t-21 23t-8.5 39q0 26 14.5 48.5t35.5 41.5t44.5 33.5t42.5 24.5l16 75l-2 2q-31 -43 -77.5 -67t-100.5 -24q-78 0 -114.5 37t-36.5 100q0 14 1 32t4 32l69 330h114l-66 -319q-3 -13 -5.5 -25t-2.5 -23
q0 -6 0.5 -18.5t7.5 -25t23 -21.5t48 -9q33 0 60.5 14.5t48.5 37.5t35 51.5t20 57.5l58 280h114l-107 -517h-42q-67 -44 -96.5 -74t-29.5 -56q0 -16 8 -27t23 -11q13 0 25.5 7t28.5 26z" />
    <glyph glyph-name="Wcircumflex" unicode="&#x174;" horiz-adv-x="926" 
d="M70 714h128l24 -546h2l247 546h123l37 -546h2l234 546h128l-332 -714h-127l-34 546h-2l-250 -546h-127zM385 782l134 143h104l78 -143h-86l-51 90l-87 -90h-92z" />
    <glyph glyph-name="wcircumflex" unicode="&#x175;" horiz-adv-x="778" 
d="M29 517h117l31 -373h2l172 373h119l22 -373h3l179 373h120l-269 -517h-120l-22 377h-2l-172 -377h-119zM264 588l134 143h104l78 -143h-86l-51 90l-87 -90h-92z" />
    <glyph glyph-name="Ycircumflex" unicode="&#x176;" horiz-adv-x="630" 
d="M228 283l-176 431h131l123 -324l250 324h148l-353 -441l-56 -273h-125zM224 782l134 143h104l78 -143h-86l-51 90l-87 -90h-92z" />
    <glyph glyph-name="ycircumflex" unicode="&#x177;" horiz-adv-x="500" 
d="M29 517h120l54 -378h2l195 378h122l-296 -533q-20 -37 -39 -71t-43.5 -60.5t-57.5 -42t-81 -15.5q-29 0 -69 8l21 95q11 -3 22 -5.5t22 -2.5q26 0 44.5 9.5t29.5 34.5l45 83zM130 588l134 143h104l78 -143h-86l-51 90l-87 -90h-92z" />
    <glyph glyph-name="Ydieresis" unicode="&#x178;" horiz-adv-x="630" 
d="M228 283l-176 431h131l123 -324l250 324h148l-353 -441l-56 -273h-125zM369 903l-19 -108h-110l19 108h110zM549 903l-19 -108h-110l19 108h110z" />
    <glyph glyph-name="Zacute" unicode="&#x179;" horiz-adv-x="630" 
d="M123 714h544l-21 -102l-509 -504h428l-23 -108h-584l22 104l503 502h-382zM540 925l-118 -143h-84l77 143h125z" />
    <glyph glyph-name="zacute" unicode="&#x17a;" horiz-adv-x="481" 
d="M69 517h415l-19 -83l-341 -344h293l-19 -90h-447l19 84l340 343h-261zM438 731l-118 -143h-84l77 143h125z" />
    <glyph glyph-name="Zdotaccent" unicode="&#x17b;" horiz-adv-x="630" 
d="M123 714h544l-21 -102l-509 -504h428l-23 -108h-584l22 104l503 502h-382zM470 903l-19 -108h-110l19 108h110z" />
    <glyph glyph-name="zdotaccent" unicode="&#x17c;" horiz-adv-x="481" 
d="M69 517h415l-19 -83l-341 -344h293l-19 -90h-447l19 84l340 343h-261zM358 709l-19 -108h-110l19 108h110z" />
    <glyph glyph-name="Zcaron" unicode="&#x17d;" horiz-adv-x="630" 
d="M123 714h544l-21 -102l-509 -504h428l-23 -108h-584l22 104l503 502h-382zM260 925h84l52 -88l93 88h92l-137 -143h-106z" />
    <glyph glyph-name="zcaron" unicode="&#x17e;" horiz-adv-x="481" 
d="M69 517h415l-19 -83l-341 -344h293l-19 -90h-447l19 84l340 343h-261zM147 731h84l52 -88l93 88h92l-137 -143h-106z" />
    <glyph glyph-name="florin" unicode="&#x192;" 
d="M149 438h94l34 122q10 36 23.5 67.5t35.5 54.5t56.5 36t86.5 13q17 0 33.5 -2.5t33.5 -4.5l-25 -89q-20 6 -40 6q-23 0 -38 -8t-25.5 -21t-17 -30.5t-11.5 -36.5l-28 -107h107l-22 -85h-107l-94 -335q-11 -37 -22.5 -71.5t-37.5 -63.5q-23 -27 -60 -40t-72 -13
q-17 0 -33.5 0.5t-33.5 4.5l24 89q12 -4 27 -4q40 0 59 21t28 57l97 355h-94z" />
    <glyph glyph-name="Scommaaccent" unicode="&#x218;" horiz-adv-x="648" 
d="M133 236q-4 -83 41 -117t123 -34q25 0 53.5 6t51.5 19.5t38.5 35t15.5 53.5q0 30 -14.5 50t-38 33.5t-54.5 23t-64 18.5q-24 6 -57 16.5t-64 31t-52.5 53.5t-21.5 84q0 48 18 89t52 70.5t83.5 46t112.5 16.5q56 0 105 -12t85 -39t56 -70.5t18 -106.5h-120q-1 67 -37 96.5
t-109 29.5q-13 0 -36 -3t-46 -14t-40 -31.5t-17 -56.5q0 -26 12 -43t32.5 -29t47.5 -20t57 -15q38 -10 76.5 -22t70 -33.5t51 -56.5t19.5 -91q0 -42 -16 -83t-51.5 -74t-92 -53.5t-137.5 -20.5q-63 0 -114 14.5t-86.5 45t-54 78.5t-16.5 115h120zM204 -50h131l-18 -89
q-4 -16 -12 -30.5t-23.5 -26t-39 -19t-59.5 -8.5l8 38q22 3 34 11t19 25h-60z" />
    <glyph glyph-name="scommaaccent" unicode="&#x219;" horiz-adv-x="500" 
d="M354 366q-1 39 -29.5 57t-74.5 18q-17 0 -32.5 -3t-28 -10.5t-20 -20t-7.5 -31.5q0 -18 13.5 -29t35.5 -19.5t49 -16t54 -17.5q23 -9 45 -20t38.5 -27t26.5 -38t10 -53q0 -45 -20 -77t-52 -53t-73.5 -30.5t-83.5 -9.5q-45 0 -84 8.5t-68 29t-46 55t-18 87.5h108
q-2 -49 31 -69.5t83 -20.5q18 0 37 3.5t35 11.5t26.5 22.5t10.5 36.5q0 20 -14.5 33t-37 22.5t-51 17.5t-55.5 18q-23 8 -43.5 19t-36.5 26.5t-25 36.5t-9 50q0 42 18.5 72t48.5 49t68 28t78 9q42 0 79 -7.5t64.5 -26.5t43 -51t14.5 -80h-108zM123 -50h131l-18 -89
q-4 -16 -12 -30.5t-23.5 -26t-39 -19t-59.5 -8.5l8 38q22 3 34 11t19 25h-60z" />
    <glyph glyph-name="uni021A" unicode="&#x21a;" horiz-adv-x="593" 
d="M79 714h588l-23 -108h-227l-126 -606h-125l126 606h-235zM155 -50h131l-18 -89q-4 -16 -12 -30.5t-23.5 -26t-39 -19t-59.5 -8.5l8 38q22 3 34 11t19 25h-60z" />
    <glyph glyph-name="uni021B" unicode="&#x21b;" horiz-adv-x="333" 
d="M159 672h111l-32 -155h103l-18 -85h-103l-53 -253q-4 -17 -7 -32t-3 -24q0 -17 7.5 -27.5t33.5 -10.5q13 0 28.5 0.5t32.5 4.5l-19 -84q-22 -5 -47 -8t-47 -3q-31 0 -51 8t-31.5 21.5t-16 31t-4.5 35.5q0 15 2.5 33t4.5 25l59 283h-90l18 85h90zM66 -50h131l-18 -89
q-4 -16 -12 -30.5t-23.5 -26t-39 -19t-59.5 -8.5l8 38q22 3 34 11t19 25h-60z" />
    <glyph glyph-name="circumflex" unicode="&#x2c6;" horiz-adv-x="241" 
d="M36 588l134 143h104l78 -143h-86l-51 90l-87 -90h-92z" />
    <glyph glyph-name="caron" unicode="&#x2c7;" horiz-adv-x="241" 
d="M41 731h84l52 -88l93 88h92l-137 -143h-106z" />
    <glyph glyph-name="uni02C9" unicode="&#x2c9;" horiz-adv-x="241" 
d="M59 623l12 65h285l-13 -65h-284z" />
    <glyph glyph-name="breve" unicode="&#x2d8;" horiz-adv-x="241" 
d="M116 731q2 -39 25.5 -57.5t65.5 -18.5t73 19t42 57h56q-13 -70 -59 -105.5t-115 -35.5q-33 0 -60 9t-46.5 27t-29.5 44t-8 61h56z" />
    <glyph glyph-name="dotaccent" unicode="&#x2d9;" horiz-adv-x="241" 
d="M275 709l-19 -108h-110l19 108h110z" />
    <glyph glyph-name="ring" unicode="&#x2da;" horiz-adv-x="241" 
d="M121 673q0 -26 17.5 -43.5t43.5 -17.5t43.5 17.5t17.5 43.5t-17.5 43.5t-43.5 17.5t-43.5 -17.5t-17.5 -43.5zM182 570q-22 0 -41.5 8.5t-33.5 22.5t-22 32.5t-6 39.5q0 21 8 39.5t22.5 33t33 22.5t39.5 8t39.5 -8t33 -22.5t22.5 -33t8 -39.5t-8 -39.5t-22.5 -32.5
t-33 -22.5t-39.5 -8.5z" />
    <glyph glyph-name="ogonek" unicode="&#x2db;" horiz-adv-x="241" 
d="M230 -143q-25 -45 -59.5 -62.5t-74.5 -17.5q-11 0 -25 2.5t-27 10.5t-22 23t-9 39q0 26 15 48.5t37 41t47 33.5t45 25h68q-70 -44 -101 -74t-31 -56q0 -16 8.5 -27t23.5 -11q14 0 27 7t30 26z" />
    <glyph glyph-name="tilde" unicode="&#x2dc;" horiz-adv-x="241" 
d="M383 719q-3 -19 -11 -40t-21.5 -38.5t-31.5 -29t-40 -11.5q-18 0 -38.5 7.5t-40.5 17t-37.5 17t-30.5 7.5q-16 0 -27.5 -16.5t-16.5 -29.5h-59q6 21 14 41.5t20.5 37t30 27t41.5 10.5q23 0 42 -7t36 -16q18 -8 35 -16t34 -8q9 0 16 5t12.5 12.5t9 15.5t5.5 14h58z" />
    <glyph glyph-name="hungarumlaut" unicode="&#x2dd;" horiz-adv-x="241" 
d="M242 731l-118 -143h-74l67 143h125zM424 731l-118 -143h-74l67 143h125z" />
    <glyph glyph-name="uni0394" unicode="&#x394;" horiz-adv-x="683" 
d="M381 588l-286 -491h373zM-78 0l423 712h110l132 -712h-665z" />
    <glyph glyph-name="uni03A9" unicode="&#x3a9;" horiz-adv-x="757" 
d="M702 448q0 -55 -17.5 -107t-50 -94.5t-78 -72t-101.5 -38.5l-10 -49h188l-19 -87h-270l40 192q45 7 83 30t65 57t42.5 76t15.5 87q0 84 -48 133t-132 49q-56 0 -102.5 -23.5t-80.5 -62t-53 -88.5t-19 -102q0 -29 7 -55.5t22 -47.5t37.5 -35t53.5 -18l-40 -192h-262l18 87
h178l13 55q-35 10 -61 30.5t-43.5 48.5t-26.5 61t-9 67q0 76 30 144t81 118.5t119 80t144 29.5q61 0 113 -19t90.5 -54.5t60.5 -86t22 -113.5z" />
    <glyph glyph-name="uni03BC" unicode="&#x3bc;" horiz-adv-x="574" 
d="M439 0h-107l16 75l-2 2q-31 -43 -77.5 -67t-100.5 -24q-21 0 -38.5 4t-30.5 18l-41 -199h-114l147 708h114l-66 -319q-3 -13 -5.5 -25t-2.5 -23q0 -6 0.5 -18.5t7.5 -25t23 -21.5t48 -9q33 0 60.5 14.5t48.5 37.5t35 51.5t20 57.5l58 280h114z" />
    <glyph glyph-name="pi" horiz-adv-x="589" 
d="M568 387h-78l-52 -245q-2 -9 -4 -18.5t-2 -19.5q0 -14 9 -19.5t22 -5.5q11 0 22.5 3t22.5 7l-16 -76q-20 -8 -41.5 -14t-44.5 -6q-32 0 -57.5 15t-25.5 52q0 16 3 32t6 31l56 264h-209l-82 -387h-102l82 387h-70l20 96h562z" />
    <glyph glyph-name="endash" unicode="&#x2013;" horiz-adv-x="500" 
d="M-5 326h501l-21 -108h-501z" />
    <glyph glyph-name="emdash" unicode="&#x2014;" horiz-adv-x="1000" 
d="M125 326h741l-21 -108h-741z" />
    <glyph glyph-name="quoteleft" unicode="&#x2018;" horiz-adv-x="278" 
d="M128 566q6 26 16 52t27.5 46.5t45 34t68.5 15.5l-12 -58q-40 -5 -56.5 -28.5t-24.5 -60.5h75l-28 -135h-139z" />
    <glyph glyph-name="quoteright" unicode="&#x2019;" horiz-adv-x="278" 
d="M134 714h139l-28 -134q-6 -26 -16 -52t-27.5 -46.5t-45 -34t-68.5 -15.5l12 58q40 5 56.5 28.5t24.5 60.5h-75z" />
    <glyph glyph-name="quotesinglbase" unicode="&#x201a;" horiz-adv-x="278" 
d="M168 135l-28 -134q-6 -26 -16 -52t-27.5 -46.5t-45 -34t-68.5 -15.5l12 58q40 5 56.5 28.5t24.5 60.5h-75l28 135h139z" />
    <glyph glyph-name="quotedblleft" unicode="&#x201c;" horiz-adv-x="444" 
d="M300 566q6 26 16 52t27.5 46.5t45 34t68.5 15.5l-12 -58q-40 -5 -56.5 -28.5t-24.5 -60.5h75l-28 -135h-139zM103 566q6 26 16 52t27.5 46.5t45 34t68.5 15.5l-12 -58q-40 -5 -56.5 -28.5t-24.5 -60.5h75l-28 -135h-139z" />
    <glyph glyph-name="quotedblright" unicode="&#x201d;" horiz-adv-x="444" 
d="M121 714h139l-28 -134q-6 -26 -16 -52t-27.5 -46.5t-45 -34t-68.5 -15.5l12 58q40 5 56.5 28.5t24.5 60.5h-75zM318 714h139l-28 -134q-6 -26 -16 -52t-27.5 -46.5t-45 -34t-68.5 -15.5l12 58q40 5 56.5 28.5t24.5 60.5h-75z" />
    <glyph glyph-name="quotedblbase" unicode="&#x201e;" horiz-adv-x="444" 
d="M342 135l-28 -134q-6 -26 -16 -52t-27.5 -46.5t-45 -34t-68.5 -15.5l12 58q40 5 56.5 28.5t24.5 60.5h-75l28 135h139zM145 135l-28 -134q-6 -26 -16 -52t-27.5 -46.5t-45 -34t-68.5 -15.5l12 58q40 5 56.5 28.5t24.5 60.5h-75l28 135h139z" />
    <glyph glyph-name="dagger" unicode="&#x2020;" 
d="M44 422l20 95h187l42 197h114l-42 -197h192l-20 -95h-191l-121 -582h-114l121 582h-188z" />
    <glyph glyph-name="daggerdbl" unicode="&#x2021;" 
d="M228 422h-184l20 95h184l41 197h114l-41 -197h193l-20 -95h-193l-60 -290h191l-19 -95h-192l-41 -197h-114l41 197h-186l20 95h186z" />
    <glyph glyph-name="bullet" unicode="&#x2022;" horiz-adv-x="500" 
d="M72 357q0 37 14 69.5t38 56.5t56.5 38t69.5 14t69.5 -14t57 -38t38.5 -56.5t14 -69.5t-14 -69.5t-38.5 -57t-57 -38.5t-69.5 -14t-69.5 14t-56.5 38.5t-38 57t-14 69.5z" />
    <glyph glyph-name="ellipsis" unicode="&#x2026;" horiz-adv-x="1000" 
d="M717 135h139l-30 -135h-139zM384 135h139l-30 -135h-139zM51 135h139l-30 -135h-139z" />
    <glyph glyph-name="perthousand" unicode="&#x2030;" horiz-adv-x="1093" 
d="M213 431q27 0 45 17t28 41t14 48.5t4 39.5q0 13 -2 26.5t-7.5 24.5t-15.5 18.5t-26 7.5q-27 0 -44.5 -17t-27.5 -41t-14 -48.5t-5 -39.5q0 -13 2 -26.5t7.5 -25t15.5 -18.5t26 -7zM206 371q-63 0 -93.5 37t-30.5 100q0 35 10.5 71.5t31.5 66.5t53.5 49t77.5 19
q63 0 96 -33.5t33 -103.5q0 -39 -12 -76t-34.5 -66t-55.5 -46.5t-76 -17.5zM533 724h73l-400 -748h-71zM840 46q27 0 45 17t28 41t14 48.5t4 39.5q0 13 -2 26.5t-7.5 24.5t-15.5 18.5t-26 7.5q-27 0 -44.5 -17t-27.5 -41t-14 -48.5t-5 -39.5q0 -13 2 -26.5t7.5 -25
t15.5 -18.5t26 -7zM833 -14q-63 0 -93.5 37t-30.5 100q0 35 10.5 71.5t31.5 66.5t53.5 49t77.5 19q63 0 96 -33.5t33 -103.5q0 -39 -12 -76t-34.5 -66t-55.5 -46.5t-76 -17.5zM486 46q27 0 45 17t28 41t14 48.5t4 39.5q0 13 -2 26.5t-7.5 24.5t-15.5 18.5t-26 7.5
q-27 0 -44.5 -17t-27.5 -41t-14 -48.5t-5 -39.5q0 -13 2 -26.5t7.5 -25t15.5 -18.5t26 -7zM479 -14q-63 0 -93.5 37t-30.5 100q0 35 10.5 71.5t31.5 66.5t53.5 49t77.5 19q63 0 96 -33.5t33 -103.5q0 -39 -12 -76t-34.5 -66t-55.5 -46.5t-76 -17.5z" />
    <glyph glyph-name="guilsinglleft" unicode="&#x2039;" horiz-adv-x="259" 
d="M51 341l177 110l-22 -107l-113 -68l80 -90l-21 -93l-126 138z" />
    <glyph glyph-name="guilsinglright" unicode="&#x203a;" horiz-adv-x="259" 
d="M27 200l113 68l-80 90l21 93l126 -138l-25 -110l-177 -110z" />
    <glyph glyph-name="fraction" unicode="&#x2044;" horiz-adv-x="167" 
d="M254 724h78l-418 -748h-79z" />
    <glyph glyph-name="Euro" unicode="&#x20ac;" 
d="M551 561q-55 64 -126 64q-65 0 -120 -54q-50 -47 -72 -116h264l-35 -64h-245q-5 -19 -7 -36t-3 -32h231l-34 -63h-201q1 -184 147 -184q81 0 161 66l-16 -111q-74 -44 -157 -44q-125 0 -191 74q-62 75 -61 199h-77l36 63h45q1 15 3 32t7 36h-72l35 64h53q91 259 317 259
q93 0 176 -62z" />
    <glyph glyph-name="afii61289" unicode="&#x2113;" horiz-adv-x="500" 
d="M479 608q0 -44 -18 -87t-51 -85.5t-79 -84t-102 -81.5q-11 -47 -17.5 -76t-9.5 -45.5t-3.5 -24t-0.5 -12.5q0 -29 15 -40t33 -11q20 0 43 8.5t56 31.5h2l26 -59q-41 -29 -77.5 -42.5t-77.5 -13.5q-57 0 -89.5 28.5t-32.5 79.5q0 5 0.5 11.5t3 18.5t6.5 30.5t10 48.5
l-65 -52h-2l-29 57l114 83l53 250q19 88 67 134t114 46q50 0 80.5 -32.5t30.5 -80.5zM395 603q0 21 -10 35.5t-27 14.5q-21 0 -38 -19.5t-28 -69.5l-44 -203q25 22 51 51t47.5 61t35 65t13.5 65z" />
    <glyph glyph-name="trademark" unicode="&#x2122;" horiz-adv-x="990" 
d="M704 422l112 292h115v-412h-75v322h-2l-123 -322h-56l-123 322h-2v-322h-75v412h116zM391 649h-126v-347h-80v347h-126v65h332v-65z" />
    <glyph glyph-name="Omega" unicode="&#x2126;" horiz-adv-x="757" 
d="M702 448q0 -55 -17.5 -107t-50 -94.5t-78 -72t-101.5 -38.5l-10 -49h188l-19 -87h-270l40 192q45 7 83 30t65 57t42.5 76t15.5 87q0 84 -48 133t-132 49q-56 0 -102.5 -23.5t-80.5 -62t-53 -88.5t-19 -102q0 -29 7 -55.5t22 -47.5t37.5 -35t53.5 -18l-40 -192h-262l18 87
h178l13 55q-35 10 -61 30.5t-43.5 48.5t-26.5 61t-9 67q0 76 30 144t81 118.5t119 80t144 29.5q61 0 113 -19t90.5 -54.5t60.5 -86t22 -113.5z" />
    <glyph glyph-name="estimated" unicode="&#x212e;" horiz-adv-x="600" 
d="M157 259v-181q59 -59 145 -59q63 0 109 28.5t84 91.5l35 -21q-23 -36 -46.5 -61.5t-51 -42t-59.5 -24t-71 -7.5q-59 0 -106.5 21.5t-81.5 59t-52 87.5t-18 108t18 108.5t52 87.5t81.5 58.5t106.5 21.5q58 0 105.5 -20.5t81.5 -57t53 -87t19 -111.5h-404zM448 295v145
q-63 60 -147 60t-144 -60v-145h291z" />
    <glyph glyph-name="partialdiff" unicode="&#x2202;" horiz-adv-x="548" 
d="M372 287q-26 31 -56.5 49t-72.5 18q-32 0 -55 -12t-39 -32t-23.5 -46.5t-7.5 -54.5q0 -27 7 -52.5t21 -45t36.5 -31.5t52.5 -12q36 0 62.5 19t43.5 48.5t25 64t7 64.5zM483 359q0 -63 -10 -129t-38 -119.5t-77 -88t-127 -34.5q-49 0 -89 17.5t-68 48t-43.5 72t-15.5 89.5
q0 47 15.5 87t43 69.5t67 46t87.5 16.5q43 0 78.5 -15t67.5 -43l1 30q1 37 -6.5 77.5t-26 75t-49 57t-75.5 22.5q-34 0 -63 -14t-55 -34l-57 66q41 32 79.5 48.5t91.5 16.5q77 0 128.5 -32t83 -84t44.5 -116.5t13 -129.5z" />
    <glyph glyph-name="Delta" unicode="&#x2206;" horiz-adv-x="683" 
d="M381 588l-286 -491h373zM-78 0l423 712h110l132 -712h-665z" />
    <glyph glyph-name="product" unicode="&#x220f;" horiz-adv-x="737" 
d="M566 -214v902h-396v-902h-107v1000h611v-1000h-108z" />
    <glyph glyph-name="summation" unicode="&#x2211;" horiz-adv-x="643" 
d="M25 -214v86l306 419l-293 411v84h567v-98h-424l279 -396l-297 -409h455v-97h-593z" />
    <glyph glyph-name="minus" unicode="&#x2212;" horiz-adv-x="600" 
d="M48 202v102h504v-102h-504z" />
    <glyph glyph-name="uni2215" unicode="&#x2215;" horiz-adv-x="167" 
d="M254 724h78l-418 -748h-79z" />
    <glyph glyph-name="uni2219" unicode="&#x2219;" horiz-adv-x="278" 
d="M64 302q0 15 6 28t16.5 23.5t24 16.5t28.5 6t28.5 -6t24 -16.5t16.5 -23.5t6 -28q0 -30 -22 -53t-53 -23t-53 23t-22 53z" />
    <glyph glyph-name="radical" unicode="&#x221a;" horiz-adv-x="531" 
d="M307 -214h-101l-154 319l-50 -23l-39 85l142 65l133 -281l170 835h110z" />
    <glyph glyph-name="infinity" unicode="&#x221e;" horiz-adv-x="806" 
d="M311 258q-13 13 -29 28t-34.5 28t-38.5 21.5t-39 8.5q-36 0 -56.5 -25.5t-20.5 -59.5q0 -37 21.5 -60t59.5 -23q19 0 38.5 7.5t37.5 19.5t33.5 26.5t27.5 28.5zM638 259q0 37 -21 61.5t-59 24.5q-20 0 -39 -9t-36.5 -22t-33 -28.5l-28.5 -28.5q13 -14 29 -28.5
t33.5 -26.5t37 -19.5t40.5 -7.5q37 0 57 24.5t20 59.5zM724 262q0 -38 -11 -70.5t-32.5 -56.5t-52 -38t-69.5 -14q-30 0 -57 9.5t-51 25.5t-45 36t-40 41q-21 -21 -41.5 -41t-43 -35t-48.5 -24.5t-59 -9.5q-38 0 -69 13.5t-53 36.5t-33.5 55t-11.5 70q0 37 11.5 69t32.5 56
t51.5 37.5t68.5 13.5q33 0 60 -10t50.5 -26.5t44 -38t40.5 -43.5q19 22 40 43.5t45 38t51 27t58 10.5q38 0 68.5 -13.5t51.5 -37t32.5 -55.5t11.5 -69z" />
    <glyph glyph-name="integral" unicode="&#x222b;" horiz-adv-x="600" 
d="M474 713q0 -21 -15 -35t-36 -14q-22 0 -32 10t-15.5 22.5t-10 22.5t-13.5 10q-13 0 -16 -11t-3 -21q0 -33 1 -66.5t1 -66.5l1 -524q0 -39 -1.5 -83.5t-14.5 -82.5t-42 -63t-83 -25q-16 0 -34 4t-33 13t-25 22.5t-10 32.5q0 21 13 35t35 14q21 0 31.5 -10.5t16 -23
t9.5 -23t13 -10.5t13 5.5t5.5 13.5t1 16.5t-0.5 13.5q0 24 -1.5 48.5t-1.5 48.5v535q0 40 0.5 86.5t13 86t42 66t86.5 26.5q16 0 34.5 -4t34 -13t26 -23t10.5 -33z" />
    <glyph glyph-name="approxequal" unicode="&#x2248;" horiz-adv-x="593" 
d="M536 241q-3 -32 -12.5 -62t-26.5 -53.5t-43 -37.5t-63 -14q-30 0 -66 11t-71.5 23.5t-67 23.5t-53.5 11q-29 0 -45 -21.5t-20 -47.5h-68q3 31 12.5 61t27 54t43 38.5t61.5 14.5q32 0 65.5 -10.5t66.5 -23t65.5 -23t62.5 -10.5q29 0 44 20t20 46h68zM537 444
q-3 -32 -12.5 -62t-26.5 -53.5t-43 -37.5t-63 -14q-30 0 -66 11t-71 23.5t-66.5 23.5t-53.5 11q-29 0 -44.5 -21.5t-20.5 -47.5h-68q3 31 12.5 61t26.5 54t43 38.5t62 14.5q31 0 64.5 -10.5t67.5 -23t66.5 -23t61.5 -10.5t43.5 20t19.5 46h68z" />
    <glyph glyph-name="notequal" unicode="&#x2260;" horiz-adv-x="593" 
d="M243 99l-77 -152l-89 46l54 106h-122v102h174l60 117h-234v101h285l78 152l88 -45l-54 -107h122v-101h-174l-60 -117h234v-102h-285z" />
    <glyph glyph-name="lessequal" unicode="&#x2264;" horiz-adv-x="593" 
d="M9 -35v101h519v-101h-519zM9 272v103l519 179v-107l-381 -123l381 -117v-107z" />
    <glyph glyph-name="greaterequal" unicode="&#x2265;" horiz-adv-x="593" 
d="M9 -35v101h519v-101h-519zM9 100v107l381 117l-381 123v107l519 -179v-103z" />
    <glyph glyph-name="lozenge" unicode="&#x25ca;" horiz-adv-x="593" 
d="M295 646l-119 -290l119 -291l122 291zM343 -35h-95l-176 391l176 391h95l177 -391z" />
    <glyph glyph-name="dotlessj" unicode="&#xe0d6;" horiz-adv-x="241" 
d="M95 517h114l-109 -525q-6 -28 -12 -53t-15 -49q-22 -52 -55 -73.5t-88 -21.5q-35 0 -63 6l20 91q8 -5 17 -6t22 -1q15 0 25 9t16.5 22.5t10 30.5t6.5 32z" />
    <glyph glyph-name="grave.cap" unicode="&#xe300;" horiz-adv-x="241" 
d="M185 782l-118 143h125l77 -143h-84z" />
    <glyph glyph-name="acute.cap" unicode="&#xe301;" horiz-adv-x="241" 
d="M343 925l-118 -143h-84l77 143h125z" />
    <glyph glyph-name="circumflex.cap" unicode="&#xe302;" horiz-adv-x="241" 
d="M36 782l134 143h104l78 -143h-86l-51 90l-87 -90h-92z" />
    <glyph glyph-name="caron.cap" unicode="&#xe303;" horiz-adv-x="241" 
d="M41 925h84l52 -88l93 88h92l-137 -143h-106z" />
    <glyph glyph-name="tilde.cap" unicode="&#xe304;" horiz-adv-x="241" 
d="M383 913q-3 -19 -11 -40t-21.5 -38.5t-31.5 -29t-40 -11.5q-18 0 -38.5 7.5t-40.5 17t-37.5 17t-30.5 7.5q-16 0 -27.5 -16.5t-16.5 -29.5h-59q6 21 14 41.5t20.5 37t30 27t41.5 10.5q23 0 42 -7t36 -16q18 -8 35 -16t34 -8q9 0 16 5t12.5 12.5t9 15.5t5.5 14h58z" />
    <glyph glyph-name="dieresis.cap" unicode="&#xe305;" horiz-adv-x="241" 
d="M186 903l-19 -108h-110l19 108h110zM366 903l-19 -108h-110l19 108h110z" />
    <glyph glyph-name="macron.cap" unicode="&#xe306;" horiz-adv-x="241" 
d="M59 817l12 65h285l-13 -65h-284z" />
    <glyph glyph-name="breve.cap" unicode="&#xe307;" horiz-adv-x="241" 
d="M116 925q2 -39 25.5 -57.5t65.5 -18.5t73 19t42 57h56q-13 -70 -59 -105.5t-115 -35.5q-33 0 -60 9t-46.5 27t-29.5 44t-8 61h56z" />
    <glyph glyph-name="ring.cap" unicode="&#xe308;" horiz-adv-x="241" 
d="M121 853q0 -26 17.5 -43.5t43.5 -17.5t43.5 17.5t17.5 43.5t-17.5 43.5t-43.5 17.5t-43.5 -17.5t-17.5 -43.5zM182 750q-22 0 -41.5 8.5t-33.5 22.5t-22 32.5t-6 39.5q0 21 8 39.5t22.5 33t33 22.5t39.5 8t39.5 -8t33 -22.5t22.5 -33t8 -39.5t-8 -39.5t-22.5 -32.5
t-33 -22.5t-39.5 -8.5z" />
    <glyph glyph-name="hungarumlaut.cap" unicode="&#xe309;" horiz-adv-x="241" 
d="M242 925l-118 -143h-74l67 143h125zM424 925l-118 -143h-74l67 143h125z" />
    <glyph glyph-name="dotaccent.cap" unicode="&#xe30a;" horiz-adv-x="241" 
d="M275 903l-19 -108h-110l19 108h110z" />
    <glyph glyph-name="caron.alt" unicode="&#xe30b;" horiz-adv-x="241" 
d="M329 714l-102 -143h-76l57 143h121z" />
    <glyph glyph-name="commaaccent" unicode="&#xe30c;" horiz-adv-x="278" 
d="M36 -50h131l-18 -89q-4 -16 -12 -30.5t-23.5 -26t-39 -19t-59.5 -8.5l8 38q22 3 34 11t19 25h-60z" />
    <glyph glyph-name="commaaccent.alt" unicode="&#xe30d;" horiz-adv-x="278" 
d="M218 615h-131l18 89q4 16 12 30.5t23.5 26t39 18.5t59.5 9l-8 -38q-22 -3 -34 -11t-19 -25h60z" />
    <glyph glyph-name="uniF8FF" unicode="&#xf8ff;" horiz-adv-x="790" 
d="M408 588q20 0 71 17t87 17q60 0 107 -32q13 -10 26 -22t26 -28q-39 -34 -57 -60q-33 -46 -33 -103q0 -62 35 -112q34 -49 79 -63q-10 -30 -25 -61.5t-36 -63.5q-64 -97 -129 -97q-27 0 -71 16q-43 15 -75 15q-33 0 -72 -16q-42 -17 -66 -17q-76 0 -150 129
q-74 128 -74 252q0 114 56 187q57 72 143 72q37 0 89 -15q53 -15 69 -15zM561 790q0 -32 -15 -69t-46 -69q-29 -27 -55 -36q-19 -5 -51 -8q1 74 38.5 128.5t125.5 74.5q2 -7 2.5 -12t0.5 -9z" />
    <glyph glyph-name="fi" unicode="&#xfb01;" 
d="M450 714h114l-22 -108h-114zM410 517h114l-107 -517h-114zM110 432h-85l17 85h85q9 45 19 81t29 62t51 40t84 14q23 0 44 -2.5t41 -4.5l-19 -87q-17 4 -44 4q-29 0 -44.5 -8t-24 -22.5t-12.5 -34t-10 -42.5h100l-17 -85h-100l-90 -432h-114z" />
    <glyph glyph-name="fl" unicode="&#xfb02;" 
d="M451 714h114l-148 -714h-114zM110 432h-85l17 85h85q9 45 19 81t29 62t51 40t84 14q23 0 44 -2.5t41 -4.5l-19 -87q-17 4 -44 4q-29 0 -44.5 -8t-24 -22.5t-12.5 -34t-10 -42.5h100l-17 -85h-100l-90 -432h-114z" />
    <glyph glyph-name="gravecmb" unicode="&#x300;" horiz-adv-x="0" 
d="M-123 588l-118 143h125l77 -143h-84z" />
    <glyph glyph-name="acutecmb" unicode="&#x301;" horiz-adv-x="0" 
d="M-39 731l-118 -143h-84l77 143h125z" />
    <glyph glyph-name="circumflexcmb" unicode="&#x302;" horiz-adv-x="0" 
d="M-241 588l134 143h104l78 -143h-86l-51 90l-87 -90h-92z" />
    <glyph glyph-name="tildecmb" unicode="&#x303;" horiz-adv-x="0" 
d="M113 719q-3 -19 -11 -40t-21.5 -38.5t-31.5 -29t-40 -11.5q-18 0 -38.5 7.5t-40.5 17t-37.5 17t-30.5 7.5q-16 0 -27.5 -16.5t-16.5 -29.5h-59q6 21 14 41.5t20.5 37t30 27t41.5 10.5q23 0 42 -7t36 -16q18 -8 35 -16t34 -8q9 0 16 5t12.5 12.5t9 15.5t5.5 14h58z" />
    <glyph glyph-name="macroncmb" unicode="&#x304;" horiz-adv-x="0" 
d="M-241 623l12 65h285l-13 -65h-284z" />
    <glyph glyph-name="brevecmb" unicode="&#x306;" horiz-adv-x="0" 
d="M-184 731q2 -39 25.5 -57.5t65.5 -18.5t73 19t42 57h56q-13 -70 -59 -105.5t-115 -35.5q-33 0 -60 9t-46.5 27t-29.5 44t-8 61h56z" />
    <glyph glyph-name="dotaccentcmb" unicode="&#x307;" horiz-adv-x="0" 
d="M-112 709l-19 -108h-110l19 108h110z" />
    <glyph glyph-name="dieresiscmb" unicode="&#x308;" horiz-adv-x="0" 
d="M-112 709l-19 -108h-110l19 108h110zM68 709l-19 -108h-110l19 108h110z" />
    <glyph glyph-name="hookabovecmb" unicode="&#x309;" horiz-adv-x="0" 
d="M-261 634q25 45 59.5 62.5t74.5 17.5q10 0 24.5 -2.5t27.5 -10.5t22 -23t9 -39q0 -26 -15 -48.5t-37 -41.5t-47 -33.5t-45 -24.5h-68q70 44 101 74t31 56q0 16 -8.5 27t-23.5 11q-14 0 -27 -7t-30 -26z" />
    <glyph glyph-name="ringcmb" unicode="&#x30a;" horiz-adv-x="0" 
d="M-198 673q0 -26 17.5 -43.5t43.5 -17.5t43.5 17.5t17.5 43.5t-17.5 43.5t-43.5 17.5t-43.5 -17.5t-17.5 -43.5zM-137 570q-22 0 -41.5 8.5t-33.5 22.5t-22 32.5t-6 39.5q0 21 8 39.5t22.5 33t33 22.5t39.5 8t39.5 -8t33 -22.5t22.5 -33t8 -39.5t-8 -39.5t-22.5 -32.5
t-33 -22.5t-39.5 -8.5z" />
    <glyph glyph-name="hungarumlautcmb" unicode="&#x30b;" horiz-adv-x="0" 
d="M-49 731l-118 -143h-74l67 143h125zM133 731l-118 -143h-74l67 143h125z" />
    <glyph glyph-name="caroncmb" unicode="&#x30c;" horiz-adv-x="0" 
d="M-241 731h84l52 -88l93 88h92l-137 -143h-106z" />
    <glyph glyph-name="doublegravecmb" unicode="&#x30f;" horiz-adv-x="0" 
d="M-123 588l-118 143h125l77 -143h-84zM-244 588l-118 143h125l77 -143h-84z" />
    <glyph glyph-name="invertedbrevecmb" unicode="&#x311;" horiz-adv-x="0" 
d="M-262 731q2 -39 25.5 -57.5t65.5 -18.5t73 19t42 57h56q-13 -70 -59 -105.5t-115 -35.5q-33 0 -60 9t-46.5 27t-29.5 44t-8 61h56z" />
    <glyph glyph-name="horncmb" unicode="&#x31b;" horiz-adv-x="0" 
d="M-155 693q45 -25 62.5 -59.5t17.5 -74.5q0 -11 -2.5 -25t-10.5 -27t-23 -22t-39 -9q-26 0 -48.5 15t-41.5 37t-33.5 47t-24.5 45v68q44 -70 74 -101t56 -31q16 0 27 8.5t11 23.5q0 14 -7 27t-26 30z" />
    <glyph glyph-name="dotbelowcmb" unicode="&#x323;" horiz-adv-x="0" 
d="M-248 -70h139l-30 -135h-139z" />
    <glyph glyph-name="dieresisbelowcmb" unicode="&#x324;" horiz-adv-x="0" 
d="M-112 -70l-19 -108h-110l19 108h110zM68 -70l-19 -108h-110l19 108h110z" />
    <glyph glyph-name="ringbelowcmb" unicode="&#x325;" horiz-adv-x="0" 
d="M-198 -173q0 -26 17.5 -43.5t43.5 -17.5t43.5 17.5t17.5 43.5t-17.5 43.5t-43.5 17.5t-43.5 -17.5t-17.5 -43.5zM-137 -276q-22 0 -41.5 8.5t-33.5 22.5t-22 32.5t-6 39.5q0 21 8 39.5t22.5 33t33 22.5t39.5 8t39.5 -8t33 -22.5t22.5 -33t8 -39.5t-8 -39.5t-22.5 -32.5
t-33 -22.5t-39.5 -8.5z" />
    <glyph glyph-name="commabelowcmb" unicode="&#x326;" horiz-adv-x="0" 
d="M-233 -70h140q-12 -44 -20 -92t-25 -89t-49 -69t-91 -31l11 58q38 5 55.5 29t24.5 59h-76z" />
    <glyph glyph-name="cedillacmb" unicode="&#x327;" horiz-adv-x="0" 
d="M-221 -162q16 -8 32.5 -11.5t36.5 -5.5q8 -1 18 1t18.5 6.5t14.5 12t6 17.5q0 21 -14 30t-33 9q-9 0 -18.5 -2t-18.5 -5l-17 21l73 89h49l-57 -66l14 2t15 1q33 0 60 -17.5t27 -54.5q0 -23 -11.5 -40t-29 -28t-39 -16t-40.5 -5q-28 0 -58.5 7t-47.5 16z" />
    <glyph glyph-name="ogonekcmb" unicode="&#x328;" horiz-adv-x="0" 
d="M-24 -143q-25 -45 -59.5 -62.5t-74.5 -17.5q-11 0 -25 2.5t-27 10.5t-22 23t-9 39q0 26 15 48.5t37 41t47 33.5t45 25h68q-70 -44 -101 -74t-31 -56q0 -16 8.5 -27t23.5 -11q14 0 27 7t30 26z" />
    <glyph glyph-name="circumflexbelowcmb" unicode="&#x32d;" horiz-adv-x="0" 
d="M-241 -213l134 143h104l78 -143h-86l-51 90l-87 -90h-92z" />
    <glyph glyph-name="brevebelowcmb" unicode="&#x32e;" horiz-adv-x="0" 
d="M-184 -70q2 -39 25.5 -57.5t65.5 -18.5t73 19t42 57h56q-13 -70 -59 -105.5t-115 -35.5q-33 0 -60 9t-46.5 27t-29.5 44t-8 61h56z" />
    <glyph glyph-name="tildebelowcmb" unicode="&#x330;" horiz-adv-x="0" 
d="M113 -70q-3 -19 -11 -40t-21.5 -38.5t-31.5 -29t-40 -11.5q-18 0 -38.5 7.5t-40.5 17t-37.5 17t-30.5 7.5q-16 0 -27.5 -16.5t-16.5 -29.5h-59q6 21 14 41.5t20.5 37t30 27t41.5 10.5q23 0 42 -7t36 -16q18 -8 35 -16t34 -8q9 0 16 5t12.5 12.5t9 15.5t5.5 14h58z" />
    <glyph glyph-name="macronbelowcmb" unicode="&#x331;" horiz-adv-x="0" 
d="M-241 -135l12 65h285l-13 -65h-284z" />
    <glyph glyph-name="Ohorn" unicode="&#x1a0;" horiz-adv-x="923" 
d="M176 299q0 -100 51 -157t145 -57q62 0 108.5 29t78 76t47 106t15.5 119q0 100 -48.5 157t-142.5 57q-64 0 -111.5 -29t-79 -76t-47.5 -106t-16 -119zM51 295q0 112 33.5 194.5t88 136t123 79.5t138.5 26t128 -23t98.5 -64.5t63 -98.5t22.5 -126q0 -113 -32 -195
t-85 -135.5t-121 -79.5t-140 -26q-77 0 -136 24t-99 66t-61 99t-21 123zM829 617q45 -25 62.5 -59.5t17.5 -74.5q0 -11 -2.5 -25t-10.5 -27t-23 -22t-39 -9q-26 0 -48.5 15t-41.5 37t-33.5 47t-24.5 45v68q44 -70 74 -101t56 -31q16 0 27 8.5t11 23.5q0 14 -7 27t-26 30z
" />
    <glyph glyph-name="ohorn" unicode="&#x1a1;" horiz-adv-x="678" 
d="M351 441q-44 0 -76.5 -22t-54.5 -55.5t-32.5 -74.5t-10.5 -80q0 -57 28.5 -95t90.5 -38q44 0 76.5 21.5t54.5 55t32.5 75t10.5 80.5q0 57 -28.5 95t-90.5 38zM289 -14q-108 0 -167 58.5t-59 167.5q0 64 21 121.5t59.5 101.5t93 70t121.5 26q108 0 167 -56.5t59 -165.5
q0 -68 -20 -127t-58.5 -102.5t-93 -68.5t-123.5 -25zM677 465q45 -25 62.5 -59.5t17.5 -74.5q0 -11 -2.5 -25t-10.5 -27t-23 -22t-39 -9q-26 0 -48.5 15t-41.5 37t-33.5 47t-24.5 45v68q44 -70 74 -101t56 -31q16 0 27 8.5t11 23.5q0 14 -7 27t-26 30z" />
    <glyph glyph-name="Uhorn" unicode="&#x1af;" horiz-adv-x="800" 
d="M141 714h125l-92 -437q-3 -14 -5 -28.5t-3 -29.5q-1 -36 10.5 -60.5t32.5 -39.5t49 -21.5t61 -6.5q36 0 66.5 8t55 28.5t43.5 56t31 90.5l94 440h125l-94 -448q-9 -44 -26 -94t-53.5 -92t-97.5 -69.5t-158 -27.5q-53 0 -101 13.5t-84 40.5t-57.5 68.5t-21.5 97.5
q0 25 3.5 48.5t8.5 47.5zM847 712q45 -25 62.5 -59.5t17.5 -74.5q0 -11 -2.5 -25t-10.5 -27t-23 -22t-39 -9q-26 0 -48.5 15t-41.5 37t-33.5 47t-24.5 45v68q44 -70 74 -101t56 -31q16 0 27 8.5t11 23.5q0 14 -7 27t-26 30z" />
    <glyph glyph-name="uhorn" unicode="&#x1b0;" horiz-adv-x="622" 
d="M468 0h-107l16 75l-2 2q-31 -43 -77.5 -67t-100.5 -24q-78 0 -114.5 37t-36.5 100q0 14 1 32t4 32l69 330h114l-66 -319q-3 -13 -5.5 -25t-2.5 -23q0 -6 0.5 -18.5t7.5 -25t23 -21.5t48 -9q33 0 60.5 14.5t48.5 37.5t35 51.5t20 57.5l58 280h114zM641 516
q45 -25 62.5 -59.5t17.5 -74.5q0 -11 -2.5 -25t-10.5 -27t-23 -22t-39 -9q-26 0 -48.5 15t-41.5 37t-33.5 47t-24.5 45v68q44 -70 74 -101t56 -31q16 0 27 8.5t11 23.5q0 14 -7 27t-26 30z" />
    <glyph glyph-name="clickdental" unicode="&#x1c0;" horiz-adv-x="222" 
d="M60 786h102v-1000h-102v1000z" />
    <glyph glyph-name="clicklateral" unicode="&#x1c1;" horiz-adv-x="444" 
d="M60 786h102v-1000h-102v1000zM282 786h102v-1000h-102v1000z" />
    <glyph glyph-name="combininggraphemejoiner" unicode="&#x34f;" horiz-adv-x="500" 
 />
    <glyph glyph-name="zerowidthspace" unicode="&#x200b;" horiz-adv-x="500" 
 />
    <glyph glyph-name="afii61664" unicode="&#x200c;" horiz-adv-x="500" 
 />
    <glyph glyph-name="afii301" unicode="&#x200d;" horiz-adv-x="500" 
 />
    <glyph glyph-name="centigrade" unicode="&#x2103;" horiz-adv-x="1122" 
d="M133 564q0 -20 7.5 -37t20 -29.5t29.5 -20t37 -7.5q19 0 36.5 7.5t30 20t20 29.5t7.5 37q0 19 -7.5 36.5t-20 30t-30 20t-36.5 7.5q-20 0 -37 -7.5t-29.5 -20t-20 -30t-7.5 -36.5zM77 564q0 31 12 58.5t32 47.5t47.5 32t58.5 12t58.5 -12t47.5 -32t32 -47.5t12 -58.5
t-12 -58.5t-32 -47.5t-47.5 -32t-58.5 -12t-58.5 12t-47.5 32t-32 47.5t-12 58.5zM971 476q0 75 -41.5 114t-119.5 39q-64 0 -111.5 -29t-79 -76t-47.5 -106t-16 -119q0 -100 51 -157t145 -57q48 0 81 18.5t54.5 45t33 54.5t16.5 46h125q-15 -68 -45 -118t-71.5 -83t-92 -49
t-105.5 -16q-77 0 -136 24t-99 66t-61 99t-21 123q0 112 33.5 194.5t88 136t123 79.5t138.5 26q63 0 116 -17t90.5 -49t57.5 -80t18 -109h-125z" />
    <glyph glyph-name="fahrenheit" unicode="&#x2109;" horiz-adv-x="993" 
d="M133 564q0 -20 7.5 -37t20 -29.5t29.5 -20t37 -7.5q19 0 36.5 7.5t30 20t20 29.5t7.5 37q0 19 -7.5 36.5t-20 30t-30 20t-36.5 7.5q-20 0 -37 -7.5t-29.5 -20t-20 -30t-7.5 -36.5zM77 564q0 31 12 58.5t32 47.5t47.5 32t58.5 12t58.5 -12t47.5 -32t32 -47.5t12 -58.5
t-12 -58.5t-32 -47.5t-47.5 -32t-58.5 -12t-58.5 12t-47.5 32t-32 47.5t-12 58.5zM550 714h487l-22 -108h-363l-39 -187h315l-22 -102h-314l-66 -317h-125z" />
    <glyph glyph-name="kelvin" unicode="&#x212a;" horiz-adv-x="685" 
d="M149 714h125l-67 -324l2 -2l364 326h167l-343 -295l224 -419h-142l-179 341l-126 -108l-48 -233h-125z" />
    <glyph glyph-name="angstrom" unicode="&#x212b;" horiz-adv-x="685" 
d="M368 714h132l124 -714h-127l-29 189h-284l-110 -189h-134zM411 588h-2l-172 -304h218zM380 853q0 -26 17.5 -43.5t43.5 -17.5t43.5 17.5t17.5 43.5t-17.5 43.5t-43.5 17.5t-43.5 -17.5t-17.5 -43.5zM441 750q-22 0 -41.5 8.5t-33.5 22.5t-22 32.5t-6 39.5q0 21 8 39.5
t22.5 33t33 22.5t39.5 8t39.5 -8t33 -22.5t22.5 -33t8 -39.5t-8 -39.5t-22.5 -32.5t-33 -22.5t-39.5 -8.5z" />
    <glyph glyph-name="uni2160" unicode="&#x2160;" horiz-adv-x="278" 
d="M153 714h125l-149 -714h-125z" />
    <glyph glyph-name="uni2161" unicode="&#x2161;" 
d="M153 714h125l-149 -714h-125zM431 714h125l-149 -714h-125z" />
    <glyph glyph-name="uni2162" unicode="&#x2162;" horiz-adv-x="834" 
d="M153 714h125l-149 -714h-125zM431 714h125l-149 -714h-125zM709 714h125l-149 -714h-125z" />
    <glyph glyph-name="uni2163" unicode="&#x2163;" horiz-adv-x="889" 
d="M153 714h125l-149 -714h-125zM345 714h127l67 -564h2l298 564h133l-392 -714h-142z" />
    <glyph glyph-name="uni2164" unicode="&#x2164;" horiz-adv-x="611" 
d="M67 714h127l67 -564h2l298 564h133l-392 -714h-142z" />
    <glyph glyph-name="uni2165" unicode="&#x2165;" horiz-adv-x="889" 
d="M67 714h127l67 -564h2l298 564h133l-392 -714h-142zM764 714h125l-149 -714h-125z" />
    <glyph glyph-name="uni2166" unicode="&#x2166;" horiz-adv-x="1167" 
d="M67 714h127l67 -564h2l298 564h133l-392 -714h-142zM764 714h125l-149 -714h-125zM1042 714h125l-149 -714h-125z" />
    <glyph glyph-name="uni2167" unicode="&#x2167;" horiz-adv-x="1445" 
d="M67 714h127l67 -564h2l298 564h133l-392 -714h-142zM764 714h125l-149 -714h-125zM1042 714h125l-149 -714h-125zM1320 714h125l-149 -714h-125z" />
    <glyph glyph-name="uni2168" unicode="&#x2168;" horiz-adv-x="926" 
d="M153 714h125l-149 -714h-125zM543 375l-169 339h137l117 -256l204 256h147l-295 -349l177 -365h-134l-128 277l-225 -277h-149z" />
    <glyph glyph-name="uni2169" unicode="&#x2169;" horiz-adv-x="648" 
d="M265 375l-169 339h137l117 -256l204 256h147l-295 -349l177 -365h-134l-128 277l-225 -277h-149z" />
    <glyph glyph-name="uni216A" unicode="&#x216a;" horiz-adv-x="926" 
d="M265 375l-169 339h137l117 -256l204 256h147l-295 -349l177 -365h-134l-128 277l-225 -277h-149zM801 714h125l-149 -714h-125z" />
    <glyph glyph-name="uni216B" unicode="&#x216b;" horiz-adv-x="1204" 
d="M265 375l-169 339h137l117 -256l204 256h147l-295 -349l177 -365h-134l-128 277l-225 -277h-149zM801 714h125l-149 -714h-125zM1079 714h125l-149 -714h-125z" />
    <glyph glyph-name="uni216C" unicode="&#x216c;" horiz-adv-x="574" 
d="M152 714h125l-126 -606h360l-22 -108h-485z" />
    <glyph glyph-name="uni216D" unicode="&#x216d;" horiz-adv-x="722" 
d="M571 476q0 75 -41.5 114t-119.5 39q-64 0 -111.5 -29t-79 -76t-47.5 -106t-16 -119q0 -100 51 -157t145 -57q48 0 81 18.5t54.5 45t33 54.5t16.5 46h125q-15 -68 -45 -118t-71.5 -83t-92 -49t-105.5 -16q-77 0 -136 24t-99 66t-61 99t-21 123q0 112 33.5 194.5t88 136
t123 79.5t138.5 26q63 0 116 -17t90.5 -49t57.5 -80t18 -109h-125z" />
    <glyph glyph-name="uni216E" unicode="&#x216e;" horiz-adv-x="722" 
d="M148 102h156q54 0 94.5 18.5t69.5 47t48.5 64.5t31 70.5t16 65t4.5 48.5q0 94 -41 145t-116 51h-156zM151 714h262q138 0 209 -74.5t71 -224.5q0 -32 -7 -71.5t-21 -80t-35 -78t-50 -65.5q-32 -31 -62 -53.5t-67 -37.5t-84.5 -22t-114.5 -7h-251z" />
    <glyph glyph-name="uni216F" unicode="&#x216f;" horiz-adv-x="889" 
d="M152 714h172l78 -544h2l310 544h177l-147 -714h-120l124 572h-2l-323 -572h-98l-90 572h-2l-109 -572h-120z" />
    <glyph glyph-name="uni2170" unicode="&#x2170;" horiz-adv-x="241" 
d="M136 714h113l-22 -108h-113zM95 517h114l-107 -517h-114z" />
    <glyph glyph-name="uni2171" unicode="&#x2171;" horiz-adv-x="482" 
d="M136 714h113l-22 -108h-113zM95 517h114l-107 -517h-114zM377 714h113l-22 -108h-113zM336 517h114l-107 -517h-114z" />
    <glyph glyph-name="uni2172" unicode="&#x2172;" horiz-adv-x="723" 
d="M136 714h113l-22 -108h-113zM95 517h114l-107 -517h-114zM377 714h113l-22 -108h-113zM336 517h114l-107 -517h-114zM618 714h113l-22 -108h-113zM577 517h114l-107 -517h-114z" />
    <glyph glyph-name="uni2173" unicode="&#x2173;" horiz-adv-x="741" 
d="M136 714h113l-22 -108h-113zM95 517h114l-107 -517h-114zM275 517h118l43 -377h2l200 377h120l-286 -517h-127z" />
    <glyph glyph-name="uni2174" unicode="&#x2174;" horiz-adv-x="500" 
d="M34 517h118l43 -377h2l200 377h120l-286 -517h-127z" />
    <glyph glyph-name="uni2175" unicode="&#x2175;" horiz-adv-x="741" 
d="M34 517h118l43 -377h2l200 377h120l-286 -517h-127zM636 714h113l-22 -108h-113zM595 517h114l-107 -517h-114z" />
    <glyph glyph-name="uni2176" unicode="&#x2176;" horiz-adv-x="982" 
d="M34 517h118l43 -377h2l200 377h120l-286 -517h-127zM636 714h113l-22 -108h-113zM595 517h114l-107 -517h-114zM877 714h113l-22 -108h-113zM836 517h114l-107 -517h-114z" />
    <glyph glyph-name="uni2177" unicode="&#x2177;" horiz-adv-x="1223" 
d="M34 517h118l43 -377h2l200 377h120l-286 -517h-127zM636 714h113l-22 -108h-113zM595 517h114l-107 -517h-114zM877 714h113l-22 -108h-113zM836 517h114l-107 -517h-114zM1118 714h113l-22 -108h-113zM1077 517h114l-107 -517h-114z" />
    <glyph glyph-name="uni2178" unicode="&#x2178;" horiz-adv-x="741" 
d="M136 714h113l-22 -108h-113zM95 517h114l-107 -517h-114zM297 517h122l71 -165l134 165h132l-220 -250l132 -267h-124l-84 190l-158 -190h-131l240 275z" />
    <glyph glyph-name="uni2179" unicode="&#x2179;" horiz-adv-x="500" 
d="M56 517h122l71 -165l134 165h132l-220 -250l132 -267h-124l-84 190l-158 -190h-131l240 275z" />
    <glyph glyph-name="uni217A" unicode="&#x217a;" horiz-adv-x="741" 
d="M56 517h122l71 -165l134 165h132l-220 -250l132 -267h-124l-84 190l-158 -190h-131l240 275zM636 714h113l-22 -108h-113zM595 517h114l-107 -517h-114z" />
    <glyph glyph-name="uni217B" unicode="&#x217b;" horiz-adv-x="982" 
d="M56 517h122l71 -165l134 165h132l-220 -250l132 -267h-124l-84 190l-158 -190h-131l240 275zM636 714h113l-22 -108h-113zM595 517h114l-107 -517h-114zM877 714h113l-22 -108h-113zM836 517h114l-107 -517h-114z" />
    <glyph glyph-name="uni217C" unicode="&#x217c;" horiz-adv-x="241" 
d="M136 714h114l-148 -714h-114z" />
    <glyph glyph-name="uni217D" unicode="&#x217d;" 
d="M398 346q2 48 -26 71.5t-76 23.5q-43 0 -75 -22t-53 -56t-31.5 -74.5t-10.5 -77.5q0 -29 6 -53.5t19.5 -42.5t35.5 -28.5t54 -10.5q51 0 83.5 27t46.5 75h114q-28 -100 -94 -146t-169 -46q-51 0 -90 16t-65.5 45.5t-40.5 70t-14 89.5q0 65 20 124t58 103.5t92.5 70.5
t123.5 26q43 0 81 -12t66 -35t44 -58t15 -80h-114z" />
    <glyph glyph-name="uni217E" unicode="&#x217e;" horiz-adv-x="611" 
d="M468 0h-109l16 70l-2 2q-34 -50 -75 -68t-87 -18q-22 0 -56 6t-66.5 27.5t-55.5 63.5t-23 115q0 63 19 122.5t55 106.5t88 75.5t119 28.5q52 0 94 -19t62 -66h2l57 268h114zM419 317q0 25 -6.5 48t-20 39.5t-35.5 26.5t-52 10q-48 0 -82 -21.5t-56 -56.5t-32.5 -78.5
t-10.5 -86.5q0 -58 29 -90t89 -32q44 0 77 23t55.5 58.5t33.5 78t11 81.5z" />
    <glyph glyph-name="thousandroman" horiz-adv-x="889" 
d="M101 517h108l-15 -73l2 -2q32 42 77.5 65.5t99.5 23.5q48 0 84 -20.5t47 -71.5q35 40 78 66t97 26q75 0 111 -37t36 -100q0 -14 -2.5 -32t-5.5 -32l-66 -330h-114l64 306q2 9 5.5 25.5t4.5 35.5q0 13 -2.5 26.5t-10.5 24t-22 17t-36 6.5q-33 0 -58.5 -13.5t-44 -34
t-30 -45t-15.5 -46.5l-63 -302h-114l59 284q4 20 9.5 45t5.5 48q0 26 -13.5 45t-49.5 19q-33 0 -56.5 -12t-40.5 -29t-35 -43.5t-25 -57.5l-62 -299h-114z" />
    <glyph glyph-name="Ibreve" unicode="&#x12c;" horiz-adv-x="278" 
d="M153 714h125l-149 -714h-125zM149 930q2 -39 25.5 -57.5t65.5 -18.5t73 19t42 57h56q-13 -70 -59 -105.5t-115 -35.5q-33 0 -60 9t-46.5 27t-29.5 44t-8 61h56z" />
    <glyph glyph-name="ibreve" unicode="&#x12d;" horiz-adv-x="241" 
d="M-12 0l107 517h114l-107 -517h-114zM78 733q2 -39 25.5 -57.5t65.5 -18.5t73 19t42 57h56q-13 -70 -59 -105.5t-115 -35.5q-33 0 -60 9t-46.5 27t-29.5 44t-8 61h56z" />
    <glyph glyph-name="clickretroflex" unicode="&#x1c3;" horiz-adv-x="296" 
d="M160 714h123l-44 -212l-98 -303h-58l34 307zM36 125h129l-27 -125h-129z" />
    <glyph glyph-name="DZcaron" unicode="&#x1c4;" horiz-adv-x="1593" 
d="M148 102h156q54 0 94.5 18.5t69.5 47t48.5 64.5t31 70.5t16 65t4.5 48.5q0 94 -41 145t-116 51h-156zM151 714h262q138 0 209 -74.5t71 -224.5q0 -32 -7 -71.5t-21 -80t-35 -78t-50 -65.5q-32 -31 -62 -53.5t-67 -37.5t-84.5 -22t-114.5 -7h-251zM845 714h544l-21 -102
l-509 -504h428l-23 -108h-584l22 104l503 502h-382zM964 932h84l52 -88l93 88h92l-137 -143h-106z" />
    <glyph glyph-name="Dzcaron" unicode="&#x1c5;" horiz-adv-x="1444" 
d="M148 102h156q54 0 94.5 18.5t69.5 47t48.5 64.5t31 70.5t16 65t4.5 48.5q0 94 -41 145t-116 51h-156zM151 714h262q138 0 209 -74.5t71 -224.5q0 -32 -7 -71.5t-21 -80t-35 -78t-50 -65.5q-32 -31 -62 -53.5t-67 -37.5t-84.5 -22t-114.5 -7h-251zM791 517h415l-19 -83
l-341 -344h293l-19 -90h-447l19 84l340 343h-261zM869 735h84l52 -88l93 88h92l-137 -143h-106z" />
    <glyph glyph-name="dzcaron" unicode="&#x1c6;" horiz-adv-x="1333" 
d="M468 0h-109l16 70l-2 2q-34 -50 -75 -68t-87 -18q-22 0 -56 6t-66.5 27.5t-55.5 63.5t-23 115q0 63 19 122.5t55 106.5t88 75.5t119 28.5q52 0 94 -19t62 -66h2l57 268h114zM419 317q0 25 -6.5 48t-20 39.5t-35.5 26.5t-52 10q-48 0 -82 -21.5t-56 -56.5t-32.5 -78.5
t-10.5 -86.5q0 -58 29 -90t89 -32q44 0 77 23t55.5 58.5t33.5 78t11 81.5zM680 517h415l-19 -83l-341 -344h293l-19 -90h-447l19 84l340 343h-261zM758 735h84l52 -88l93 88h92l-137 -143h-106z" />
    <glyph glyph-name="LJ" unicode="&#x1c7;" horiz-adv-x="1111" 
d="M152 714h125l-126 -606h360l-22 -108h-485zM1007 714h125l-82 -399q-4 -17 -11 -46.5t-16 -63t-20 -66.5t-24 -56q-18 -29 -41.5 -48t-49.5 -30.5t-55 -16.5t-57 -5q-65 0 -104.5 19t-60.5 45t-28 54.5t-7 48.5q0 27 2.5 51.5t8.5 48.5h117q-11 -39 -11 -78q0 -87 92 -87
q33 0 54 13t35 36.5t23 56.5t17 73z" />
    <glyph glyph-name="Lj" unicode="&#x1c8;" horiz-adv-x="815" 
d="M152 714h125l-126 -606h360l-22 -108h-485zM710 714h113l-22 -108h-113zM669 517h114l-109 -525q-6 -28 -12 -53t-17 -49q-20 -52 -53 -73.5t-88 -21.5q-35 0 -63 6l20 91q6 -5 16 -6t23 -1q17 0 27 9t16 22.5t9 30.5t6 32z" />
    <glyph glyph-name="lj" unicode="&#x1c9;" horiz-adv-x="482" 
d="M136 714h114l-148 -714h-114zM377 714h113l-22 -108h-113zM336 517h114l-109 -525q-6 -28 -12 -53t-17 -49q-20 -52 -53 -73.5t-88 -21.5q-35 0 -63 6l20 91q6 -5 16 -6t23 -1q17 0 27 9t16 22.5t9 30.5t6 32z" />
    <glyph glyph-name="NJ" unicode="&#x1ca;" horiz-adv-x="1259" 
d="M149 714h137l219 -533h2l109 533h125l-148 -714h-137l-220 530h-2l-108 -530h-125zM1155 714h125l-82 -399q-4 -17 -11 -46.5t-16 -63t-20 -66.5t-24 -56q-18 -29 -41.5 -48t-49.5 -30.5t-55 -16.5t-57 -5q-65 0 -104.5 19t-60.5 45t-28 54.5t-7 48.5q0 27 2.5 51.5
t8.5 48.5h117q-11 -39 -11 -78q0 -87 92 -87q33 0 54 13t35 36.5t23 56.5t17 73z" />
    <glyph glyph-name="Nj" unicode="&#x1cb;" horiz-adv-x="963" 
d="M149 714h137l219 -533h2l109 533h125l-148 -714h-137l-220 530h-2l-108 -530h-125zM858 714h113l-22 -108h-113zM817 517h114l-109 -525q-6 -28 -12 -53t-17 -49q-20 -52 -53 -73.5t-88 -21.5q-35 0 -63 6l20 91q6 -5 16 -6t23 -1q17 0 27 9t16 22.5t9 30.5t6 32z" />
    <glyph glyph-name="nj" unicode="&#x1cc;" horiz-adv-x="815" 
d="M95 517h107l-16 -75l2 -2q31 43 77.5 67t100.5 24q78 0 114.5 -37t36.5 -100q0 -14 -1 -32t-4 -32l-69 -330h-114l66 319q3 13 5.5 25t2.5 23q0 6 -0.5 18.5t-7.5 25t-23.5 21.5t-47.5 9q-34 0 -60.5 -14.5t-47.5 -35.5q-20 -20 -34.5 -49.5t-21.5 -61.5l-58 -280h-114z
M710 714h113l-22 -108h-113zM669 517h114l-109 -525q-6 -28 -12 -53t-17 -49q-20 -52 -53 -73.5t-88 -21.5q-35 0 -63 6l20 91q6 -5 16 -6t23 -1q17 0 27 9t16 22.5t9 30.5t6 32z" />
    <glyph glyph-name="Acaron" unicode="&#x1cd;" horiz-adv-x="685" 
d="M368 714h132l124 -714h-127l-29 189h-284l-110 -189h-134zM411 588h-2l-172 -304h218zM303 927h84l52 -88l93 88h92l-137 -143h-106z" />
    <glyph glyph-name="acaron" unicode="&#x1ce;" 
d="M105 142q0 -19 8.5 -31.5t21.5 -20t29 -11t32 -3.5q42 0 70.5 14t47 38t29 56.5t16.5 69.5l-2 2q-12 -12 -32 -17t-39 -7q-24 -2 -55.5 -4t-59 -10.5t-47 -26t-19.5 -49.5zM448 150q-3 -14 -6.5 -27t-3.5 -24t5 -17t19 -6q10 0 20 2.5t20 3.5l-18 -82q-22 -5 -44 -9.5
t-45 -4.5q-29 0 -48 18t-21 48q-34 -34 -80 -50t-94 -16q-32 0 -61 9t-51.5 26t-35.5 43t-13 60q0 48 18 80.5t48 53.5t69 31t82 13q58 4 114 9q31 2 45.5 20.5t14.5 47.5q0 37 -26 49.5t-61 12.5q-48 0 -82.5 -16.5t-46.5 -64.5h-108q9 48 31 80.5t54 53t72.5 29t86.5 8.5
q70 0 109.5 -13.5t58 -32.5t22.5 -39.5t4 -34.5q0 -34 -10 -78zM204 754h84l52 -88l93 88h92l-137 -143h-106z" />
    <glyph glyph-name="Icaron" unicode="&#x1cf;" horiz-adv-x="278" 
d="M153 714h125l-149 -714h-125zM88 934h84l52 -88l93 88h92l-137 -143h-106z" />
    <glyph glyph-name="icaron" unicode="&#x1d0;" horiz-adv-x="241" 
d="M-12 0l107 517h114l-107 -517h-114zM27 739h84l52 -88l93 88h92l-137 -143h-106z" />
    <glyph glyph-name="Ocaron" unicode="&#x1d1;" horiz-adv-x="759" 
d="M156 299q0 -100 51 -157t145 -57q62 0 108.5 29t78 76t47 106t15.5 119q0 100 -48.5 157t-142.5 57q-64 0 -111.5 -29t-79 -76t-47.5 -106t-16 -119zM31 295q0 112 33.5 194.5t88 136t123 79.5t138.5 26t128 -23t98.5 -64.5t63 -98.5t22.5 -126q0 -113 -32 -195
t-85 -135.5t-121 -79.5t-140 -26q-77 0 -136 24t-99 66t-61 99t-21 123zM300 949h84l52 -88l93 88h92l-137 -143h-106z" />
    <glyph glyph-name="ocaron" unicode="&#x1d2;" horiz-adv-x="593" 
d="M300 441q-44 0 -76.5 -22t-54.5 -55.5t-32.5 -74.5t-10.5 -80q0 -57 28.5 -95t90.5 -38q44 0 76.5 21.5t54.5 55t32.5 75t10.5 80.5q0 57 -28.5 95t-90.5 38zM238 -14q-108 0 -167 58.5t-59 167.5q0 64 21 121.5t59.5 101.5t93 70t121.5 26q108 0 167 -56.5t59 -165.5
q0 -68 -20 -127t-58.5 -102.5t-93 -68.5t-123.5 -25zM194 758h84l52 -88l93 88h92l-137 -143h-106z" />
    <glyph glyph-name="Ucaron" unicode="&#x1d3;" horiz-adv-x="741" 
d="M150 714h125l-92 -437q-3 -14 -5 -28.5t-3 -29.5q-1 -36 10.5 -60.5t32.5 -39.5t49 -21.5t61 -6.5q36 0 66.5 8t55 28.5t43.5 56t31 90.5l94 440h125l-94 -448q-9 -44 -26 -94t-53.5 -92t-97.5 -69.5t-158 -27.5q-53 0 -101 13.5t-84 40.5t-57.5 68.5t-21.5 97.5
q0 25 3.5 48.5t8.5 47.5zM321 925h84l52 -88l93 88h92l-137 -143h-106z" />
    <glyph glyph-name="ucaron" unicode="&#x1d4;" horiz-adv-x="574" 
d="M439 0h-107l16 75l-2 2q-31 -43 -77.5 -67t-100.5 -24q-78 0 -114.5 37t-36.5 100q0 14 1 32t4 32l69 330h114l-66 -319q-3 -13 -5.5 -25t-2.5 -23q0 -6 0.5 -18.5t7.5 -25t23 -21.5t48 -9q33 0 60.5 14.5t48.5 37.5t35 51.5t20 57.5l58 280h114zM205 735h84l52 -88
l93 88h92l-137 -143h-106z" />
    <glyph glyph-name="Udieresismacron" unicode="&#x1d5;" horiz-adv-x="741" 
d="M150 714h125l-92 -437q-3 -14 -5 -28.5t-3 -29.5q-1 -36 10.5 -60.5t32.5 -39.5t49 -21.5t61 -6.5q36 0 66.5 8t55 28.5t43.5 56t31 90.5l94 440h125l-94 -448q-9 -44 -26 -94t-53.5 -92t-97.5 -69.5t-158 -27.5q-53 0 -101 13.5t-84 40.5t-57.5 68.5t-21.5 97.5
q0 25 3.5 48.5t8.5 47.5zM453 887l-19 -108h-110l19 108h110zM633 887l-19 -108h-110l19 108h110zM353 970l12 65h285l-13 -65h-284z" />
    <glyph glyph-name="udieresismacron" unicode="&#x1d6;" horiz-adv-x="574" 
d="M439 0h-107l16 75l-2 2q-31 -43 -77.5 -67t-100.5 -24q-78 0 -114.5 37t-36.5 100q0 14 1 32t4 32l69 330h114l-66 -319q-3 -13 -5.5 -25t-2.5 -23q0 -6 0.5 -18.5t7.5 -25t23 -21.5t48 -9q33 0 60.5 14.5t48.5 37.5t35 51.5t20 57.5l58 280h114zM308 700l-19 -108h-110
l19 108h110zM488 700l-19 -108h-110l19 108h110zM207 780l12 65h285l-13 -65h-284z" />
    <glyph glyph-name="Udieresisacute" unicode="&#x1d7;" horiz-adv-x="741" 
d="M150 714h125l-92 -437q-3 -14 -5 -28.5t-3 -29.5q-1 -36 10.5 -60.5t32.5 -39.5t49 -21.5t61 -6.5q36 0 66.5 8t55 28.5t43.5 56t31 90.5l94 440h125l-94 -448q-9 -44 -26 -94t-53.5 -92t-97.5 -69.5t-158 -27.5q-53 0 -101 13.5t-84 40.5t-57.5 68.5t-21.5 97.5
q0 25 3.5 48.5t8.5 47.5zM435 895l-19 -108h-110l19 108h110zM615 895l-19 -108h-110l19 108h110zM618 1106l-118 -143h-84l77 143h125z" />
    <glyph glyph-name="udieresisacute" unicode="&#x1d8;" horiz-adv-x="574" 
d="M439 0h-107l16 75l-2 2q-31 -43 -77.5 -67t-100.5 -24q-78 0 -114.5 37t-36.5 100q0 14 1 32t4 32l69 330h114l-66 -319q-3 -13 -5.5 -25t-2.5 -23q0 -6 0.5 -18.5t7.5 -25t23 -21.5t48 -9q33 0 60.5 14.5t48.5 37.5t35 51.5t20 57.5l58 280h114zM319 704l-19 -108h-110
l19 108h110zM499 704l-19 -108h-110l19 108h110zM496 913l-118 -143h-84l77 143h125z" />
    <glyph glyph-name="Udieresiscaron" unicode="&#x1d9;" horiz-adv-x="741" 
d="M150 714h125l-92 -437q-3 -14 -5 -28.5t-3 -29.5q-1 -36 10.5 -60.5t32.5 -39.5t49 -21.5t61 -6.5q36 0 66.5 8t55 28.5t43.5 56t31 90.5l94 440h125l-94 -448q-9 -44 -26 -94t-53.5 -92t-97.5 -69.5t-158 -27.5q-53 0 -101 13.5t-84 40.5t-57.5 68.5t-21.5 97.5
q0 25 3.5 48.5t8.5 47.5zM446 892l-19 -108h-110l19 108h110zM626 892l-19 -108h-110l19 108h110zM341 1103h84l52 -88l93 88h92l-137 -143h-106z" />
    <glyph glyph-name="udieresiscaron" unicode="&#x1da;" horiz-adv-x="574" 
d="M439 0h-107l16 75l-2 2q-31 -43 -77.5 -67t-100.5 -24q-78 0 -114.5 37t-36.5 100q0 14 1 32t4 32l69 330h114l-66 -319q-3 -13 -5.5 -25t-2.5 -23q0 -6 0.5 -18.5t7.5 -25t23 -21.5t48 -9q33 0 60.5 14.5t48.5 37.5t35 51.5t20 57.5l58 280h114zM322 697l-19 -108h-110
l19 108h110zM502 697l-19 -108h-110l19 108h110zM234 911h84l52 -88l93 88h92l-137 -143h-106z" />
    <glyph glyph-name="Udieresisgrave" unicode="&#x1db;" horiz-adv-x="741" 
d="M150 714h125l-92 -437q-3 -14 -5 -28.5t-3 -29.5q-1 -36 10.5 -60.5t32.5 -39.5t49 -21.5t61 -6.5q36 0 66.5 8t55 28.5t43.5 56t31 90.5l94 440h125l-94 -448q-9 -44 -26 -94t-53.5 -92t-97.5 -69.5t-158 -27.5q-53 0 -101 13.5t-84 40.5t-57.5 68.5t-21.5 97.5
q0 25 3.5 48.5t8.5 47.5zM462 897l-19 -108h-110l19 108h110zM642 897l-19 -108h-110l19 108h110zM458 963l-118 143h125l77 -143h-84z" />
    <glyph glyph-name="udieresisgrave" unicode="&#x1dc;" horiz-adv-x="574" 
d="M439 0h-107l16 75l-2 2q-31 -43 -77.5 -67t-100.5 -24q-78 0 -114.5 37t-36.5 100q0 14 1 32t4 32l69 330h114l-66 -319q-3 -13 -5.5 -25t-2.5 -23q0 -6 0.5 -18.5t7.5 -25t23 -21.5t48 -9q33 0 60.5 14.5t48.5 37.5t35 51.5t20 57.5l58 280h114zM331 698l-19 -108h-110
l19 108h110zM511 698l-19 -108h-110l19 108h110zM357 743l-118 143h125l77 -143h-84z" />
    <glyph glyph-name="Adieresismacron" unicode="&#x1de;" horiz-adv-x="685" 
d="M368 714h132l124 -714h-127l-29 189h-284l-110 -189h-134zM411 588h-2l-172 -304h218zM409 897l-19 -108h-110l19 108h110zM589 897l-19 -108h-110l19 108h110zM307 967l12 65h285l-13 -65h-284z" />
    <glyph glyph-name="adieresismacron" unicode="&#x1df;" 
d="M105 142q0 -19 8.5 -31.5t21.5 -20t29 -11t32 -3.5q42 0 70.5 14t47 38t29 56.5t16.5 69.5l-2 2q-12 -12 -32 -17t-39 -7q-24 -2 -55.5 -4t-59 -10.5t-47 -26t-19.5 -49.5zM448 150q-3 -14 -6.5 -27t-3.5 -24t5 -17t19 -6q10 0 20 2.5t20 3.5l-18 -82q-22 -5 -44 -9.5
t-45 -4.5q-29 0 -48 18t-21 48q-34 -34 -80 -50t-94 -16q-32 0 -61 9t-51.5 26t-35.5 43t-13 60q0 48 18 80.5t48 53.5t69 31t82 13q58 4 114 9q31 2 45.5 20.5t14.5 47.5q0 37 -26 49.5t-61 12.5q-48 0 -82.5 -16.5t-46.5 -64.5h-108q9 48 31 80.5t54 53t72.5 29t86.5 8.5
q70 0 109.5 -13.5t58 -32.5t22.5 -39.5t4 -34.5q0 -34 -10 -78zM303 718l-19 -108h-110l19 108h110zM483 718l-19 -108h-110l19 108h110zM205 789l12 65h285l-13 -65h-284z" />
    <glyph glyph-name="Adotmacron" unicode="&#x1e0;" horiz-adv-x="685" 
d="M368 714h132l124 -714h-127l-29 189h-284l-110 -189h-134zM411 588h-2l-172 -304h218zM520 909l-19 -108h-110l19 108h110zM325 977l12 65h285l-13 -65h-284z" />
    <glyph glyph-name="adotmacron" unicode="&#x1e1;" 
d="M105 142q0 -19 8.5 -31.5t21.5 -20t29 -11t32 -3.5q42 0 70.5 14t47 38t29 56.5t16.5 69.5l-2 2q-12 -12 -32 -17t-39 -7q-24 -2 -55.5 -4t-59 -10.5t-47 -26t-19.5 -49.5zM448 150q-3 -14 -6.5 -27t-3.5 -24t5 -17t19 -6q10 0 20 2.5t20 3.5l-18 -82q-22 -5 -44 -9.5
t-45 -4.5q-29 0 -48 18t-21 48q-34 -34 -80 -50t-94 -16q-32 0 -61 9t-51.5 26t-35.5 43t-13 60q0 48 18 80.5t48 53.5t69 31t82 13q58 4 114 9q31 2 45.5 20.5t14.5 47.5q0 37 -26 49.5t-61 12.5q-48 0 -82.5 -16.5t-46.5 -64.5h-108q9 48 31 80.5t54 53t72.5 29t86.5 8.5
q70 0 109.5 -13.5t58 -32.5t22.5 -39.5t4 -34.5q0 -34 -10 -78zM388 714l-19 -108h-110l19 108h110zM193 789l12 65h285l-13 -65h-284z" />
    <glyph glyph-name="AEmacron" unicode="&#x1e2;" horiz-adv-x="963" 
d="M257 278h188l70 334h-27zM432 714h570l-23 -108h-348l-39 -187h326l-21 -102h-326l-43 -209h352l-23 -108h-473l38 183h-230l-128 -183h-144zM498 793l12 65h285l-13 -65h-284z" />
    <glyph glyph-name="aemacron" unicode="&#x1e3;" horiz-adv-x="889" 
d="M360 256h-2q-17 -12 -38 -17t-36 -7q-24 -2 -55 -4t-59 -11q-29 -8 -47 -25.5t-18 -49.5q3 -36 29 -51t64 -15q67 0 101 32.5t45 80.5zM815 160q-13 -42 -37.5 -74.5t-57.5 -54.5t-73 -33.5t-85 -11.5q-65 0 -114.5 23t-67.5 81q-38 -57 -91 -80.5t-119 -23.5
q-39 0 -71.5 9t-56.5 26t-37.5 43t-13.5 60q0 48 18 80.5t48 53.5t69 31t82 13q58 4 114 9q32 2 49.5 20.5t17.5 47.5q0 37 -27 49.5t-67 12.5q-48 0 -82.5 -16.5t-46.5 -64.5h-108q9 48 31 80.5t54 53t72.5 29t86.5 8.5q51 0 93 -14.5t71 -60.5q34 39 78 57t90 18
q54 0 94.5 -16t66.5 -44t39 -66t13 -82q0 -23 -2 -46.5t-8 -47.5h-377q-2 -11 -3.5 -21.5t-1.5 -21.5q0 -20 6.5 -40t20 -35.5t34.5 -25t51 -9.5q104 0 130 84h118zM731 304q1 5 1.5 9.5t0.5 9.5v17q0 101 -108 101q-31 0 -55.5 -10.5t-43 -28.5t-31.5 -43t-21 -55h257z
M374 617l12 65h285l-13 -65h-284z" />
    <glyph glyph-name="Gcaron" unicode="&#x1e6;" horiz-adv-x="759" 
d="M620 0h-80v75h-2q-19 -24 -42.5 -41t-49 -28.5t-51 -17t-47.5 -5.5q-77 0 -136 24t-99 66t-61 99t-21 123q0 112 33.5 194.5t88 136t123 79.5t138.5 26q63 0 117.5 -15t94.5 -45t63 -76t23 -109h-125q-4 73 -51 108t-126 35q-64 0 -111.5 -29t-79 -76t-47.5 -106
t-16 -119q0 -100 51 -157t145 -57q46 0 82 14.5t62.5 40.5t44.5 62t28 79h-196l20 95h307zM297 951h84l52 -88l93 88h92l-137 -143h-106z" />
    <glyph glyph-name="gcaron" unicode="&#x1e7;" horiz-adv-x="593" 
d="M133 218q0 -26 6 -49.5t19 -41t33.5 -27.5t49.5 -10q46 0 78.5 21t53.5 54t30.5 74t9.5 80q0 57 -29 89.5t-86 32.5q-42 0 -73 -21.5t-51.5 -54.5t-30.5 -72.5t-10 -74.5zM462 14q-13 -59 -32.5 -101t-50 -68t-74 -38t-104.5 -12q-44 0 -83.5 9t-70 28.5t-49 51
t-19.5 76.5h114q2 -44 35.5 -62t82.5 -18q38 0 63 11t41.5 30t25.5 45.5t16 58.5l11 51l-2 2q-54 -78 -146 -78q-97 0 -149 56.5t-52 155.5q0 58 17.5 115.5t51 102.5t83.5 73t115 28q57 0 98 -23t62 -77h2l15 86h108zM194 754h84l52 -88l93 88h92l-137 -143h-106z" />
    <glyph glyph-name="Kcaron" unicode="&#x1e8;" horiz-adv-x="685" 
d="M149 714h125l-67 -324l2 -2l364 326h167l-343 -295l224 -419h-142l-179 341l-126 -108l-48 -233h-125zM287 937h84l52 -88l93 88h92l-137 -143h-106z" />
    <glyph glyph-name="kcaron" unicode="&#x1e9;" horiz-adv-x="519" 
d="M136 714h114l-84 -404l2 -2l234 209h144l-228 -190l126 -327h-126l-91 251l-88 -75l-37 -176h-114zM82 932h84l52 -88l93 88h92l-137 -143h-106z" />
    <glyph glyph-name="Oogonek" unicode="&#x1ea;" horiz-adv-x="759" 
d="M414 -153q-25 -45 -59.5 -62.5t-74.5 -17.5q-11 0 -25 2.5t-27 10.5t-22 23t-9 39t13 45t32.5 39t42.5 32.5t43 25.5q-72 3 -127 28t-93 66.5t-57.5 97t-19.5 119.5q0 112 33.5 194.5t88 136t123 79.5t138.5 26t128 -23t98.5 -64.5t63 -98.5t22.5 -126
q0 -102 -26.5 -178.5t-71 -130t-102.5 -84t-122 -39.5q-68 -43 -97.5 -72t-29.5 -55q0 -16 8.5 -27t23.5 -11q14 0 27 7t30 26zM156 299q0 -100 51 -157t145 -57q62 0 108.5 29t78 76t47 106t15.5 119q0 100 -48.5 157t-142.5 57q-64 0 -111.5 -29t-79 -76t-47.5 -106
t-16 -119z" />
    <glyph glyph-name="oogonek" unicode="&#x1eb;" horiz-adv-x="593" 
d="M312 -150q-25 -45 -59.5 -62.5t-74.5 -17.5q-11 0 -25 2.5t-27 10.5t-22 23t-9 39t13 45t32.5 39t42 32t42.5 25q-102 4 -157.5 62t-55.5 164q0 64 21 121.5t59.5 101.5t93 70t121.5 26q108 0 167 -56.5t59 -165.5q0 -59 -15.5 -111.5t-44.5 -94.5t-71 -70.5t-95 -39.5
q-70 -44 -101 -74t-31 -56q0 -16 8.5 -27t23.5 -11q14 0 27 7t30 26zM300 441q-44 0 -76.5 -22t-54.5 -55.5t-32.5 -74.5t-10.5 -80q0 -57 28.5 -95t90.5 -38q44 0 76.5 21.5t54.5 55t32.5 75t10.5 80.5q0 57 -28.5 95t-90.5 38z" />
    <glyph glyph-name="Oogonekmacron" unicode="&#x1ec;" horiz-adv-x="759" 
d="M414 -153q-25 -45 -59.5 -62.5t-74.5 -17.5q-11 0 -25 2.5t-27 10.5t-22 23t-9 39t13 45t32.5 39t42.5 32.5t43 25.5q-72 3 -127 28t-93 66.5t-57.5 97t-19.5 119.5q0 112 33.5 194.5t88 136t123 79.5t138.5 26t128 -23t98.5 -64.5t63 -98.5t22.5 -126
q0 -102 -26.5 -178.5t-71 -130t-102.5 -84t-122 -39.5q-68 -43 -97.5 -72t-29.5 -55q0 -16 8.5 -27t23.5 -11q14 0 27 7t30 26zM156 299q0 -100 51 -157t145 -57q62 0 108.5 29t78 76t47 106t15.5 119q0 100 -48.5 157t-142.5 57q-64 0 -111.5 -29t-79 -76t-47.5 -106
t-16 -119zM294 804l12 65h285l-13 -65h-284z" />
    <glyph glyph-name="oogonekmacron" unicode="&#x1ed;" horiz-adv-x="593" 
d="M312 -150q-25 -45 -59.5 -62.5t-74.5 -17.5q-11 0 -25 2.5t-27 10.5t-22 23t-9 39t13 45t32.5 39t42 32t42.5 25q-102 4 -157.5 62t-55.5 164q0 64 21 121.5t59.5 101.5t93 70t121.5 26q108 0 167 -56.5t59 -165.5q0 -59 -15.5 -111.5t-44.5 -94.5t-71 -70.5t-95 -39.5
q-70 -44 -101 -74t-31 -56q0 -16 8.5 -27t23.5 -11q14 0 27 7t30 26zM300 441q-44 0 -76.5 -22t-54.5 -55.5t-32.5 -74.5t-10.5 -80q0 -57 28.5 -95t90.5 -38q44 0 76.5 21.5t54.5 55t32.5 75t10.5 80.5q0 57 -28.5 95t-90.5 38zM165 622l12 65h285l-13 -65h-284z" />
    <glyph glyph-name="DZ" unicode="&#x1f1;" horiz-adv-x="1352" 
d="M148 102h156q54 0 94.5 18.5t69.5 47t48.5 64.5t31 70.5t16 65t4.5 48.5q0 94 -41 145t-116 51h-156zM151 714h262q138 0 209 -74.5t71 -224.5q0 -32 -7 -71.5t-21 -80t-35 -78t-50 -65.5q-32 -31 -62 -53.5t-67 -37.5t-84.5 -22t-114.5 -7h-251zM845 714h544l-21 -102
l-509 -504h428l-23 -108h-584l22 104l503 502h-382z" />
    <glyph glyph-name="Dz" unicode="&#x1f2;" horiz-adv-x="1203" 
d="M148 102h156q54 0 94.5 18.5t69.5 47t48.5 64.5t31 70.5t16 65t4.5 48.5q0 94 -41 145t-116 51h-156zM151 714h262q138 0 209 -74.5t71 -224.5q0 -32 -7 -71.5t-21 -80t-35 -78t-50 -65.5q-32 -31 -62 -53.5t-67 -37.5t-84.5 -22t-114.5 -7h-251zM791 517h415l-19 -83
l-341 -344h293l-19 -90h-447l19 84l340 343h-261z" />
    <glyph glyph-name="dz" unicode="&#x1f3;" horiz-adv-x="1092" 
d="M468 0h-109l16 70l-2 2q-34 -50 -75 -68t-87 -18q-22 0 -56 6t-66.5 27.5t-55.5 63.5t-23 115q0 63 19 122.5t55 106.5t88 75.5t119 28.5q52 0 94 -19t62 -66h2l57 268h114zM419 317q0 25 -6.5 48t-20 39.5t-35.5 26.5t-52 10q-48 0 -82 -21.5t-56 -56.5t-32.5 -78.5
t-10.5 -86.5q0 -58 29 -90t89 -32q44 0 77 23t55.5 58.5t33.5 78t11 81.5zM680 517h415l-19 -83l-341 -344h293l-19 -90h-447l19 84l340 343h-261z" />
    <glyph glyph-name="Gacute" unicode="&#x1f4;" horiz-adv-x="759" 
d="M620 0h-80v75h-2q-19 -24 -42.5 -41t-49 -28.5t-51 -17t-47.5 -5.5q-77 0 -136 24t-99 66t-61 99t-21 123q0 112 33.5 194.5t88 136t123 79.5t138.5 26q63 0 117.5 -15t94.5 -45t63 -76t23 -109h-125q-4 73 -51 108t-126 35q-64 0 -111.5 -29t-79 -76t-47.5 -106
t-16 -119q0 -100 51 -157t145 -57q46 0 82 14.5t62.5 40.5t44.5 62t28 79h-196l20 95h307zM584 947l-118 -143h-84l77 143h125z" />
    <glyph glyph-name="gacute" unicode="&#x1f5;" horiz-adv-x="593" 
d="M133 218q0 -26 6 -49.5t19 -41t33.5 -27.5t49.5 -10q46 0 78.5 21t53.5 54t30.5 74t9.5 80q0 57 -29 89.5t-86 32.5q-42 0 -73 -21.5t-51.5 -54.5t-30.5 -72.5t-10 -74.5zM462 14q-13 -59 -32.5 -101t-50 -68t-74 -38t-104.5 -12q-44 0 -83.5 9t-70 28.5t-49 51
t-19.5 76.5h114q2 -44 35.5 -62t82.5 -18q38 0 63 11t41.5 30t25.5 45.5t16 58.5l11 51l-2 2q-54 -78 -146 -78q-97 0 -149 56.5t-52 155.5q0 58 17.5 115.5t51 102.5t83.5 73t115 28q57 0 98 -23t62 -77h2l15 86h108zM447 756l-118 -143h-84l77 143h125z" />
    <glyph glyph-name="Ngrave" unicode="&#x1f8;" horiz-adv-x="722" 
d="M149 714h137l219 -533h2l109 533h125l-148 -714h-137l-220 530h-2l-108 -530h-125zM447 780l-118 143h125l77 -143h-84z" />
    <glyph glyph-name="ngrave" unicode="&#x1f9;" horiz-adv-x="574" 
d="M95 517h107l-16 -75l2 -2q31 43 77.5 67t100.5 24q78 0 114.5 -37t36.5 -100q0 -14 -1 -32t-4 -32l-69 -330h-114l66 319q3 13 5.5 25t2.5 23q0 6 -0.5 18.5t-7.5 25t-23.5 21.5t-47.5 9q-34 0 -60.5 -14.5t-47.5 -35.5q-20 -20 -34.5 -49.5t-21.5 -61.5l-58 -280h-114z
M322 606l-118 143h125l77 -143h-84z" />
    <glyph glyph-name="Aringacute" unicode="&#x1fa;" horiz-adv-x="685" 
d="M368 714h132l124 -714h-127l-29 189h-284l-110 -189h-134zM411 588h-2l-172 -304h218zM381 904q0 -26 17.5 -43.5t43.5 -17.5t43.5 17.5t17.5 43.5t-17.5 43.5t-43.5 17.5t-43.5 -17.5t-17.5 -43.5zM442 801q-22 0 -41.5 8.5t-33.5 22.5t-22 32.5t-6 39.5q0 21 8 39.5
t22.5 33t33 22.5t39.5 8t39.5 -8t33 -22.5t22.5 -33t8 -39.5t-8 -39.5t-22.5 -32.5t-33 -22.5t-39.5 -8.5zM593 1213l-118 -143h-84l77 143h125z" />
    <glyph glyph-name="aringacute" unicode="&#x1fb;" 
d="M105 142q0 -19 8.5 -31.5t21.5 -20t29 -11t32 -3.5q42 0 70.5 14t47 38t29 56.5t16.5 69.5l-2 2q-12 -12 -32 -17t-39 -7q-24 -2 -55.5 -4t-59 -10.5t-47 -26t-19.5 -49.5zM448 150q-3 -14 -6.5 -27t-3.5 -24t5 -17t19 -6q10 0 20 2.5t20 3.5l-18 -82q-22 -5 -44 -9.5
t-45 -4.5q-29 0 -48 18t-21 48q-34 -34 -80 -50t-94 -16q-32 0 -61 9t-51.5 26t-35.5 43t-13 60q0 48 18 80.5t48 53.5t69 31t82 13q58 4 114 9q31 2 45.5 20.5t14.5 47.5q0 37 -26 49.5t-61 12.5q-48 0 -82.5 -16.5t-46.5 -64.5h-108q9 48 31 80.5t54 53t72.5 29t86.5 8.5
q70 0 109.5 -13.5t58 -32.5t22.5 -39.5t4 -34.5q0 -34 -10 -78zM256 704q0 -26 17.5 -43.5t43.5 -17.5t43.5 17.5t17.5 43.5t-17.5 43.5t-43.5 17.5t-43.5 -17.5t-17.5 -43.5zM317 601q-22 0 -41.5 8.5t-33.5 22.5t-22 32.5t-6 39.5q0 21 8 39.5t22.5 33t33 22.5t39.5 8
t39.5 -8t33 -22.5t22.5 -33t8 -39.5t-8 -39.5t-22.5 -32.5t-33 -22.5t-39.5 -8.5zM470 1017l-118 -143h-84l77 143h125z" />
    <glyph glyph-name="AEacute" unicode="&#x1fc;" horiz-adv-x="963" 
d="M257 278h188l70 334h-27zM432 714h570l-23 -108h-348l-39 -187h326l-21 -102h-326l-43 -209h352l-23 -108h-473l38 183h-230l-128 -183h-144zM831 930l-118 -143h-84l77 143h125z" />
    <glyph glyph-name="aeacute" unicode="&#x1fd;" horiz-adv-x="889" 
d="M360 256h-2q-17 -12 -38 -17t-36 -7q-24 -2 -55 -4t-59 -11q-29 -8 -47 -25.5t-18 -49.5q3 -36 29 -51t64 -15q67 0 101 32.5t45 80.5zM815 160q-13 -42 -37.5 -74.5t-57.5 -54.5t-73 -33.5t-85 -11.5q-65 0 -114.5 23t-67.5 81q-38 -57 -91 -80.5t-119 -23.5
q-39 0 -71.5 9t-56.5 26t-37.5 43t-13.5 60q0 48 18 80.5t48 53.5t69 31t82 13q58 4 114 9q32 2 49.5 20.5t17.5 47.5q0 37 -27 49.5t-67 12.5q-48 0 -82.5 -16.5t-46.5 -64.5h-108q9 48 31 80.5t54 53t72.5 29t86.5 8.5q51 0 93 -14.5t71 -60.5q34 39 78 57t90 18
q54 0 94.5 -16t66.5 -44t39 -66t13 -82q0 -23 -2 -46.5t-8 -47.5h-377q-2 -11 -3.5 -21.5t-1.5 -21.5q0 -20 6.5 -40t20 -35.5t34.5 -25t51 -9.5q104 0 130 84h118zM731 304q1 5 1.5 9.5t0.5 9.5v17q0 101 -108 101q-31 0 -55.5 -10.5t-43 -28.5t-31.5 -43t-21 -55h257z
M645 760l-118 -143h-84l77 143h125z" />
    <glyph glyph-name="Oslashacute" unicode="&#x1fe;" horiz-adv-x="759" 
d="M201 151q49 -66 151 -66q62 0 108.5 29t78 76t47 106t15.5 119t-16 98zM559 562q-23 32 -60.5 49.5t-88.5 17.5q-64 0 -111.5 -29t-79 -76t-47.5 -106t-16 -119q0 -58 18 -100zM82 112q-25 37 -38 83t-13 100q0 112 33.5 194.5t88 136t123 79.5t138.5 26
q72 0 129.5 -23.5t99.5 -66.5l103 97l36 -39l-106 -100q50 -77 50 -180q0 -113 -32 -195t-85 -135.5t-121 -79.5t-140 -26q-76 0 -134 23t-98 65l-102 -96l-36 39zM552 962l-118 -143h-84l77 143h125z" />
    <glyph glyph-name="oslashacute" unicode="&#x1ff;" horiz-adv-x="593" 
d="M47 76q-35 53 -35 136q0 64 21 121.5t59.5 101.5t93 70t121.5 26q114 0 171 -62l71 64l27 -30l-73 -67q30 -51 30 -127q0 -68 -20 -127t-58.5 -102.5t-93 -68.5t-123.5 -25q-108 0 -165 59l-73 -66l-27 30zM396 394q-13 22 -37 34.5t-59 12.5q-44 0 -76.5 -22
t-54.5 -55.5t-32.5 -74.5t-10.5 -80q0 -30 8 -54zM152 117q14 -19 37.5 -30t55.5 -11q44 0 76.5 21.5t54.5 55t32.5 75t10.5 80.5q0 13 -1.5 24.5t-3.5 22.5zM455 760l-118 -143h-84l77 143h125z" />
    <glyph glyph-name="Adblgrave" unicode="&#x200;" horiz-adv-x="685" 
d="M368 714h132l124 -714h-127l-29 189h-284l-110 -189h-134zM411 588h-2l-172 -304h218zM460 789l-118 143h125l77 -143h-84zM339 789l-118 143h125l77 -143h-84z" />
    <glyph glyph-name="adblgrave" unicode="&#x201;" 
d="M105 142q0 -19 8.5 -31.5t21.5 -20t29 -11t32 -3.5q42 0 70.5 14t47 38t29 56.5t16.5 69.5l-2 2q-12 -12 -32 -17t-39 -7q-24 -2 -55.5 -4t-59 -10.5t-47 -26t-19.5 -49.5zM448 150q-3 -14 -6.5 -27t-3.5 -24t5 -17t19 -6q10 0 20 2.5t20 3.5l-18 -82q-22 -5 -44 -9.5
t-45 -4.5q-29 0 -48 18t-21 48q-34 -34 -80 -50t-94 -16q-32 0 -61 9t-51.5 26t-35.5 43t-13 60q0 48 18 80.5t48 53.5t69 31t82 13q58 4 114 9q31 2 45.5 20.5t14.5 47.5q0 37 -26 49.5t-61 12.5q-48 0 -82.5 -16.5t-46.5 -64.5h-108q9 48 31 80.5t54 53t72.5 29t86.5 8.5
q70 0 109.5 -13.5t58 -32.5t22.5 -39.5t4 -34.5q0 -34 -10 -78zM354 612l-118 143h125l77 -143h-84zM233 612l-118 143h125l77 -143h-84z" />
    <glyph glyph-name="Ainvertedbreve" unicode="&#x202;" horiz-adv-x="685" 
d="M368 714h132l124 -714h-127l-29 189h-284l-110 -189h-134zM411 588h-2l-172 -304h218zM344 935q2 -39 25.5 -57.5t65.5 -18.5t73 19t42 57h56q-13 -70 -59 -105.5t-115 -35.5q-33 0 -60 9t-46.5 27t-29.5 44t-8 61h56z" />
    <glyph glyph-name="ainvertedbreve" unicode="&#x203;" 
d="M105 142q0 -19 8.5 -31.5t21.5 -20t29 -11t32 -3.5q42 0 70.5 14t47 38t29 56.5t16.5 69.5l-2 2q-12 -12 -32 -17t-39 -7q-24 -2 -55.5 -4t-59 -10.5t-47 -26t-19.5 -49.5zM448 150q-3 -14 -6.5 -27t-3.5 -24t5 -17t19 -6q10 0 20 2.5t20 3.5l-18 -82q-22 -5 -44 -9.5
t-45 -4.5q-29 0 -48 18t-21 48q-34 -34 -80 -50t-94 -16q-32 0 -61 9t-51.5 26t-35.5 43t-13 60q0 48 18 80.5t48 53.5t69 31t82 13q58 4 114 9q31 2 45.5 20.5t14.5 47.5q0 37 -26 49.5t-61 12.5q-48 0 -82.5 -16.5t-46.5 -64.5h-108q9 48 31 80.5t54 53t72.5 29t86.5 8.5
q70 0 109.5 -13.5t58 -32.5t22.5 -39.5t4 -34.5q0 -34 -10 -78zM260 743q2 -39 25.5 -57.5t65.5 -18.5t73 19t42 57h56q-13 -70 -59 -105.5t-115 -35.5q-33 0 -60 9t-46.5 27t-29.5 44t-8 61h56z" />
    <glyph glyph-name="Edblgrave" unicode="&#x204;" horiz-adv-x="630" 
d="M149 714h520l-22 -108h-397l-39 -187h368l-21 -102h-369l-43 -209h400l-22 -108h-523zM502 791l-118 143h125l77 -143h-84zM381 791l-118 143h125l77 -143h-84z" />
    <glyph glyph-name="edblgrave" unicode="&#x205;" 
d="M402 304q1 5 1 8.5v7.5v16q0 46 -29 75.5t-80 29.5q-64 0 -102 -38.5t-55 -98.5h265zM485 160q-27 -91 -91 -132.5t-158 -41.5q-49 0 -90.5 15.5t-71.5 45t-47 71t-17 94.5q0 60 19 117t55.5 102t90 72.5t122.5 27.5t112 -23t67 -58t32.5 -77t8.5 -80q0 -19 -2 -35
t-4 -29h-385q-1 -5 -1.5 -9t-0.5 -8v-16q0 -54 28.5 -87t94.5 -33q46 0 79 21t45 63h114zM387 606l-118 143h125l77 -143h-84zM266 606l-118 143h125l77 -143h-84z" />
    <glyph glyph-name="Einvertedbreve" unicode="&#x206;" horiz-adv-x="630" 
d="M149 714h520l-22 -108h-397l-39 -187h368l-21 -102h-369l-43 -209h400l-22 -108h-523zM351 927q2 -39 25.5 -57.5t65.5 -18.5t73 19t42 57h56q-13 -70 -59 -105.5t-115 -35.5q-33 0 -60 9t-46.5 27t-29.5 44t-8 61h56z" />
    <glyph glyph-name="einvertedbreve" unicode="&#x207;" 
d="M402 304q1 5 1 8.5v7.5v16q0 46 -29 75.5t-80 29.5q-64 0 -102 -38.5t-55 -98.5h265zM485 160q-27 -91 -91 -132.5t-158 -41.5q-49 0 -90.5 15.5t-71.5 45t-47 71t-17 94.5q0 60 19 117t55.5 102t90 72.5t122.5 27.5t112 -23t67 -58t32.5 -77t8.5 -80q0 -19 -2 -35
t-4 -29h-385q-1 -5 -1.5 -9t-0.5 -8v-16q0 -54 28.5 -87t94.5 -33q46 0 79 21t45 63h114zM250 745q2 -39 25.5 -57.5t65.5 -18.5t73 19t42 57h56q-13 -70 -59 -105.5t-115 -35.5q-33 0 -60 9t-46.5 27t-29.5 44t-8 61h56z" />
    <glyph glyph-name="Idblgrave" unicode="&#x208;" horiz-adv-x="278" 
d="M153 714h125l-149 -714h-125zM295 793l-118 143h125l77 -143h-84zM174 793l-118 143h125l77 -143h-84z" />
    <glyph glyph-name="idblgrave" unicode="&#x209;" horiz-adv-x="241" 
d="M-12 0l107 517h114l-107 -517h-114zM222 597l-118 143h125l77 -143h-84zM101 597l-118 143h125l77 -143h-84z" />
    <glyph glyph-name="Iinvertedbreve" unicode="&#x20a;" horiz-adv-x="278" 
d="M153 714h125l-149 -714h-125zM141 928q2 -39 25.5 -57.5t65.5 -18.5t73 19t42 57h56q-13 -70 -59 -105.5t-115 -35.5q-33 0 -60 9t-46.5 27t-29.5 44t-8 61h56z" />
    <glyph glyph-name="iinvertedbreve" unicode="&#x20b;" horiz-adv-x="241" 
d="M-12 0l107 517h114l-107 -517h-114zM85 735q2 -39 25.5 -57.5t65.5 -18.5t73 19t42 57h56q-13 -70 -59 -105.5t-115 -35.5q-33 0 -60 9t-46.5 27t-29.5 44t-8 61h56z" />
    <glyph glyph-name="Odblgrave" unicode="&#x20c;" horiz-adv-x="759" 
d="M156 299q0 -100 51 -157t145 -57q62 0 108.5 29t78 76t47 106t15.5 119q0 100 -48.5 157t-142.5 57q-64 0 -111.5 -29t-79 -76t-47.5 -106t-16 -119zM31 295q0 112 33.5 194.5t88 136t123 79.5t138.5 26t128 -23t98.5 -64.5t63 -98.5t22.5 -126q0 -113 -32 -195
t-85 -135.5t-121 -79.5t-140 -26q-77 0 -136 24t-99 66t-61 99t-21 123zM456 806l-118 143h125l77 -143h-84zM335 806l-118 143h125l77 -143h-84z" />
    <glyph glyph-name="odblgrave" unicode="&#x20d;" horiz-adv-x="593" 
d="M300 441q-44 0 -76.5 -22t-54.5 -55.5t-32.5 -74.5t-10.5 -80q0 -57 28.5 -95t90.5 -38q44 0 76.5 21.5t54.5 55t32.5 75t10.5 80.5q0 57 -28.5 95t-90.5 38zM238 -14q-108 0 -167 58.5t-59 167.5q0 64 21 121.5t59.5 101.5t93 70t121.5 26q108 0 167 -56.5t59 -165.5
q0 -68 -20 -127t-58.5 -102.5t-93 -68.5t-123.5 -25zM380 611l-118 143h125l77 -143h-84zM259 611l-118 143h125l77 -143h-84z" />
    <glyph glyph-name="Oinvertedbreve" unicode="&#x20e;" horiz-adv-x="759" 
d="M156 299q0 -100 51 -157t145 -57q62 0 108.5 29t78 76t47 106t15.5 119q0 100 -48.5 157t-142.5 57q-64 0 -111.5 -29t-79 -76t-47.5 -106t-16 -119zM31 295q0 112 33.5 194.5t88 136t123 79.5t138.5 26t128 -23t98.5 -64.5t63 -98.5t22.5 -126q0 -113 -32 -195
t-85 -135.5t-121 -79.5t-140 -26q-77 0 -136 24t-99 66t-61 99t-21 123zM369 942q2 -39 25.5 -57.5t65.5 -18.5t73 19t42 57h56q-13 -70 -59 -105.5t-115 -35.5q-33 0 -60 9t-46.5 27t-29.5 44t-8 61h56z" />
    <glyph glyph-name="oinvertedbreve" unicode="&#x20f;" horiz-adv-x="593" 
d="M300 441q-44 0 -76.5 -22t-54.5 -55.5t-32.5 -74.5t-10.5 -80q0 -57 28.5 -95t90.5 -38q44 0 76.5 21.5t54.5 55t32.5 75t10.5 80.5q0 57 -28.5 95t-90.5 38zM238 -14q-108 0 -167 58.5t-59 167.5q0 64 21 121.5t59.5 101.5t93 70t121.5 26q108 0 167 -56.5t59 -165.5
q0 -68 -20 -127t-58.5 -102.5t-93 -68.5t-123.5 -25zM243 751q2 -39 25.5 -57.5t65.5 -18.5t73 19t42 57h56q-13 -70 -59 -105.5t-115 -35.5q-33 0 -60 9t-46.5 27t-29.5 44t-8 61h56z" />
    <glyph glyph-name="Rdblgrave" unicode="&#x210;" horiz-adv-x="704" 
d="M209 389h183q81 0 123.5 33.5t42.5 96.5q0 29 -10.5 47.5t-28.5 28.5t-41 13.5t-48 3.5h-175zM149 714h309q23 0 61 -4t74.5 -22t63 -54.5t26.5 -101.5q0 -85 -43 -132.5t-119 -61.5v-2q45 -17 60.5 -50.5t15.5 -78.5q0 -37 -6 -74t-5 -74q0 -15 2.5 -30t10.5 -29h-131
q-5 14 -6.5 27t-1.5 28q0 40 6 78.5t6 77.5q0 31 -11.5 48t-30.5 24.5t-43 9t-49 1.5h-149l-61 -294h-127zM464 789l-118 143h125l77 -143h-84zM343 789l-118 143h125l77 -143h-84z" />
    <glyph glyph-name="rdblgrave" unicode="&#x211;" horiz-adv-x="370" 
d="M95 517h108l-21 -101l2 -2q12 21 29.5 42t38.5 37.5t45.5 27t51.5 10.5q14 0 27.5 -0.5t27.5 -2.5l-24 -109q-10 2 -20 3t-20 1q-44 0 -76.5 -15.5t-55 -42.5t-36.5 -62t-22 -74l-48 -229h-114zM324 608l-118 143h125l77 -143h-84zM203 608l-118 143h125l77 -143h-84z
" />
    <glyph glyph-name="Rinvertedbreve" unicode="&#x212;" horiz-adv-x="704" 
d="M209 389h183q81 0 123.5 33.5t42.5 96.5q0 29 -10.5 47.5t-28.5 28.5t-41 13.5t-48 3.5h-175zM149 714h309q23 0 61 -4t74.5 -22t63 -54.5t26.5 -101.5q0 -85 -43 -132.5t-119 -61.5v-2q45 -17 60.5 -50.5t15.5 -78.5q0 -37 -6 -74t-5 -74q0 -15 2.5 -30t10.5 -29h-131
q-5 14 -6.5 27t-1.5 28q0 40 6 78.5t6 77.5q0 31 -11.5 48t-30.5 24.5t-43 9t-49 1.5h-149l-61 -294h-127zM317 932q2 -39 25.5 -57.5t65.5 -18.5t73 19t42 57h56q-13 -70 -59 -105.5t-115 -35.5q-33 0 -60 9t-46.5 27t-29.5 44t-8 61h56z" />
    <glyph glyph-name="rinvertedbreve" unicode="&#x213;" horiz-adv-x="370" 
d="M95 517h108l-21 -101l2 -2q12 21 29.5 42t38.5 37.5t45.5 27t51.5 10.5q14 0 27.5 -0.5t27.5 -2.5l-24 -109q-10 2 -20 3t-20 1q-44 0 -76.5 -15.5t-55 -42.5t-36.5 -62t-22 -74l-48 -229h-114zM160 747q2 -39 25.5 -57.5t65.5 -18.5t73 19t42 57h56q-13 -70 -59 -105.5
t-115 -35.5q-33 0 -60 9t-46.5 27t-29.5 44t-8 61h56z" />
    <glyph glyph-name="Udblgrave" unicode="&#x214;" horiz-adv-x="741" 
d="M150 714h125l-92 -437q-3 -14 -5 -28.5t-3 -29.5q-1 -36 10.5 -60.5t32.5 -39.5t49 -21.5t61 -6.5q36 0 66.5 8t55 28.5t43.5 56t31 90.5l94 440h125l-94 -448q-9 -44 -26 -94t-53.5 -92t-97.5 -69.5t-158 -27.5q-53 0 -101 13.5t-84 40.5t-57.5 68.5t-21.5 97.5
q0 25 3.5 48.5t8.5 47.5zM526 786l-118 143h125l77 -143h-84zM405 786l-118 143h125l77 -143h-84z" />
    <glyph glyph-name="udblgrave" unicode="&#x215;" horiz-adv-x="574" 
d="M439 0h-107l16 75l-2 2q-31 -43 -77.5 -67t-100.5 -24q-78 0 -114.5 37t-36.5 100q0 14 1 32t4 32l69 330h114l-66 -319q-3 -13 -5.5 -25t-2.5 -23q0 -6 0.5 -18.5t7.5 -25t23 -21.5t48 -9q33 0 60.5 14.5t48.5 37.5t35 51.5t20 57.5l58 280h114zM416 597l-118 143h125
l77 -143h-84zM295 597l-118 143h125l77 -143h-84z" />
    <glyph glyph-name="Uinvertedbreve" unicode="&#x216;" horiz-adv-x="741" 
d="M150 714h125l-92 -437q-3 -14 -5 -28.5t-3 -29.5q-1 -36 10.5 -60.5t32.5 -39.5t49 -21.5t61 -6.5q36 0 66.5 8t55 28.5t43.5 56t31 90.5l94 440h125l-94 -448q-9 -44 -26 -94t-53.5 -92t-97.5 -69.5t-158 -27.5q-53 0 -101 13.5t-84 40.5t-57.5 68.5t-21.5 97.5
q0 25 3.5 48.5t8.5 47.5zM385 935q2 -39 25.5 -57.5t65.5 -18.5t73 19t42 57h56q-13 -70 -59 -105.5t-115 -35.5q-33 0 -60 9t-46.5 27t-29.5 44t-8 61h56z" />
    <glyph glyph-name="uinvertedbreve" unicode="&#x217;" horiz-adv-x="574" 
d="M439 0h-107l16 75l-2 2q-31 -43 -77.5 -67t-100.5 -24q-78 0 -114.5 37t-36.5 100q0 14 1 32t4 32l69 330h114l-66 -319q-3 -13 -5.5 -25t-2.5 -23q0 -6 0.5 -18.5t7.5 -25t23 -21.5t48 -9q33 0 60.5 14.5t48.5 37.5t35 51.5t20 57.5l58 280h114zM256 729
q2 -39 25.5 -57.5t65.5 -18.5t73 19t42 57h56q-13 -70 -59 -105.5t-115 -35.5q-33 0 -60 9t-46.5 27t-29.5 44t-8 61h56z" />
    <glyph glyph-name="Hcaron" unicode="&#x21e;" horiz-adv-x="722" 
d="M142 714h125l-59 -284h334l59 284h125l-148 -714h-125l67 322h-334l-67 -322h-125zM327 934h84l52 -88l93 88h92l-137 -143h-106z" />
    <glyph glyph-name="hcaron" unicode="&#x21f;" horiz-adv-x="574" 
d="M136 714h114l-56 -270h2q29 39 75 63t95 24q78 0 114.5 -37t36.5 -100q0 -14 -1 -32t-4 -32l-69 -330h-114l66 319q3 13 5.5 25t2.5 23q0 6 -0.5 18.5t-7.5 25t-23.5 21.5t-47.5 9q-34 0 -60.5 -14.5t-47.5 -35.5q-20 -20 -34.5 -49.5t-21.5 -61.5l-58 -280h-114zM78 932
h84l52 -88l93 88h92l-137 -143h-106z" />
    <glyph glyph-name="Adotaccent" horiz-adv-x="685" 
d="M368 714h132l124 -714h-127l-29 189h-284l-110 -189h-134zM411 588h-2l-172 -304h218zM514 907l-19 -108h-110l19 108h110z" />
    <glyph glyph-name="adotaccent" 
d="M105 142q0 -19 8.5 -31.5t21.5 -20t29 -11t32 -3.5q42 0 70.5 14t47 38t29 56.5t16.5 69.5l-2 2q-12 -12 -32 -17t-39 -7q-24 -2 -55.5 -4t-59 -10.5t-47 -26t-19.5 -49.5zM448 150q-3 -14 -6.5 -27t-3.5 -24t5 -17t19 -6q10 0 20 2.5t20 3.5l-18 -82q-22 -5 -44 -9.5
t-45 -4.5q-29 0 -48 18t-21 48q-34 -34 -80 -50t-94 -16q-32 0 -61 9t-51.5 26t-35.5 43t-13 60q0 48 18 80.5t48 53.5t69 31t82 13q58 4 114 9q31 2 45.5 20.5t14.5 47.5q0 37 -26 49.5t-61 12.5q-48 0 -82.5 -16.5t-46.5 -64.5h-108q9 48 31 80.5t54 53t72.5 29t86.5 8.5
q70 0 109.5 -13.5t58 -32.5t22.5 -39.5t4 -34.5q0 -34 -10 -78zM388 724l-19 -108h-110l19 108h110z" />
    <glyph glyph-name="Ecedilla" unicode="&#x228;" horiz-adv-x="630" 
d="M149 714h520l-22 -108h-397l-39 -187h368l-21 -102h-369l-43 -209h400l-22 -108h-225l-57 -66l14 2t15 1q33 0 60 -17.5t27 -54.5q0 -23 -11.5 -40t-29 -28t-39 -16t-40.5 -5q-28 0 -58.5 7t-47.5 16l20 39q16 -8 32.5 -11.5t36.5 -5.5q8 -1 18 1t18.5 6.5t14.5 12
t6 17.5q0 21 -14 30t-33 9q-9 0 -18.5 -2t-18.5 -5l-17 21l73 89h-249z" />
    <glyph glyph-name="ecedilla" unicode="&#x229;" 
d="M113 -173q16 -8 32.5 -11.5t36.5 -5.5q8 -1 18 1t18.5 6.5t14.5 12t6 17.5q0 21 -14 30t-33 9q-9 0 -18.5 -2t-18.5 -5l-17 21l71 87q-44 4 -80.5 21.5t-63 46t-41 68.5t-14.5 89q0 60 19 117t55.5 102t90 72.5t122.5 27.5t112 -23t67 -58t32.5 -77t8.5 -80q0 -19 -2 -35
t-4 -29h-385q-1 -5 -1.5 -9t-0.5 -8v-16q0 -54 28.5 -87t94.5 -33q46 0 79 21t45 63h114q-26 -86 -84 -127t-143 -46l-55 -64l14 2t15 1q33 0 60 -17.5t27 -54.5q0 -23 -11.5 -40t-29 -28t-39 -16t-40.5 -5q-28 0 -58.5 7t-47.5 16zM402 304q1 5 1 8.5v7.5v16q0 46 -29 75.5
t-80 29.5q-64 0 -102 -38.5t-55 -98.5h265z" />
    <glyph glyph-name="Odieresismacron" unicode="&#x22a;" horiz-adv-x="759" 
d="M156 299q0 -100 51 -157t145 -57q62 0 108.5 29t78 76t47 106t15.5 119q0 100 -48.5 157t-142.5 57q-64 0 -111.5 -29t-79 -76t-47.5 -106t-16 -119zM31 295q0 112 33.5 194.5t88 136t123 79.5t138.5 26t128 -23t98.5 -64.5t63 -98.5t22.5 -126q0 -113 -32 -195
t-85 -135.5t-121 -79.5t-140 -26q-77 0 -136 24t-99 66t-61 99t-21 123zM450 914l-19 -108h-110l19 108h110zM630 914l-19 -108h-110l19 108h110zM359 1002l12 65h285l-13 -65h-284z" />
    <glyph glyph-name="odieresismacron" unicode="&#x22b;" horiz-adv-x="593" 
d="M300 441q-44 0 -76.5 -22t-54.5 -55.5t-32.5 -74.5t-10.5 -80q0 -57 28.5 -95t90.5 -38q44 0 76.5 21.5t54.5 55t32.5 75t10.5 80.5q0 57 -28.5 95t-90.5 38zM238 -14q-108 0 -167 58.5t-59 167.5q0 64 21 121.5t59.5 101.5t93 70t121.5 26q108 0 167 -56.5t59 -165.5
q0 -68 -20 -127t-58.5 -102.5t-93 -68.5t-123.5 -25zM293 714l-19 -108h-110l19 108h110zM473 714l-19 -108h-110l19 108h110zM197 791l12 65h285l-13 -65h-284z" />
    <glyph glyph-name="Otildemacron" unicode="&#x22c;" horiz-adv-x="759" 
d="M156 299q0 -100 51 -157t145 -57q62 0 108.5 29t78 76t47 106t15.5 119q0 100 -48.5 157t-142.5 57q-64 0 -111.5 -29t-79 -76t-47.5 -106t-16 -119zM31 295q0 112 33.5 194.5t88 136t123 79.5t138.5 26t128 -23t98.5 -64.5t63 -98.5t22.5 -126q0 -113 -32 -195
t-85 -135.5t-121 -79.5t-140 -26q-77 0 -136 24t-99 66t-61 99t-21 123zM610 927q-3 -19 -11 -40t-21.5 -38.5t-31.5 -29t-40 -11.5q-18 0 -38.5 7.5t-40.5 17t-37.5 17t-30.5 7.5q-16 0 -27.5 -16.5t-16.5 -29.5h-59q6 21 14 41.5t20.5 37t30 27t41.5 10.5q23 0 42 -7
t36 -16q18 -8 35 -16t34 -8q9 0 16 5t12.5 12.5t9 15.5t5.5 14h58zM300 1000l12 65h285l-13 -65h-284z" />
    <glyph glyph-name="otildemacron" unicode="&#x22d;" horiz-adv-x="593" 
d="M300 441q-44 0 -76.5 -22t-54.5 -55.5t-32.5 -74.5t-10.5 -80q0 -57 28.5 -95t90.5 -38q44 0 76.5 21.5t54.5 55t32.5 75t10.5 80.5q0 57 -28.5 95t-90.5 38zM238 -14q-108 0 -167 58.5t-59 167.5q0 64 21 121.5t59.5 101.5t93 70t121.5 26q108 0 167 -56.5t59 -165.5
q0 -68 -20 -127t-58.5 -102.5t-93 -68.5t-123.5 -25zM516 723q-3 -19 -11 -40t-21.5 -38.5t-31.5 -29t-40 -11.5q-18 0 -38.5 7.5t-40.5 17t-37.5 17t-30.5 7.5q-16 0 -27.5 -16.5t-16.5 -29.5h-59q6 21 14 41.5t20.5 37t30 27t41.5 10.5q23 0 42 -7t36 -16q18 -8 35 -16
t34 -8q9 0 16 5t12.5 12.5t9 15.5t5.5 14h58zM206 805l12 65h285l-13 -65h-284z" />
    <glyph glyph-name="Odotaccent" horiz-adv-x="759" 
d="M156 299q0 -100 51 -157t145 -57q62 0 108.5 29t78 76t47 106t15.5 119q0 100 -48.5 157t-142.5 57q-64 0 -111.5 -29t-79 -76t-47.5 -106t-16 -119zM31 295q0 112 33.5 194.5t88 136t123 79.5t138.5 26t128 -23t98.5 -64.5t63 -98.5t22.5 -126q0 -113 -32 -195
t-85 -135.5t-121 -79.5t-140 -26q-77 0 -136 24t-99 66t-61 99t-21 123zM491 916l-19 -108h-110l19 108h110z" />
    <glyph glyph-name="odotaccent" horiz-adv-x="593" 
d="M300 441q-44 0 -76.5 -22t-54.5 -55.5t-32.5 -74.5t-10.5 -80q0 -57 28.5 -95t90.5 -38q44 0 76.5 21.5t54.5 55t32.5 75t10.5 80.5q0 57 -28.5 95t-90.5 38zM238 -14q-108 0 -167 58.5t-59 167.5q0 64 21 121.5t59.5 101.5t93 70t121.5 26q108 0 167 -56.5t59 -165.5
q0 -68 -20 -127t-58.5 -102.5t-93 -68.5t-123.5 -25zM394 714l-19 -108h-110l19 108h110z" />
    <glyph glyph-name="Odotaccentmacron" horiz-adv-x="759" 
d="M156 299q0 -100 51 -157t145 -57q62 0 108.5 29t78 76t47 106t15.5 119q0 100 -48.5 157t-142.5 57q-64 0 -111.5 -29t-79 -76t-47.5 -106t-16 -119zM31 295q0 112 33.5 194.5t88 136t123 79.5t138.5 26t128 -23t98.5 -64.5t63 -98.5t22.5 -126q0 -113 -32 -195
t-85 -135.5t-121 -79.5t-140 -26q-77 0 -136 24t-99 66t-61 99t-21 123zM486 916l-19 -108h-110l19 108h110zM289 993l12 65h285l-13 -65h-284z" />
    <glyph glyph-name="odotaccentmacron" horiz-adv-x="593" 
d="M300 441q-44 0 -76.5 -22t-54.5 -55.5t-32.5 -74.5t-10.5 -80q0 -57 28.5 -95t90.5 -38q44 0 76.5 21.5t54.5 55t32.5 75t10.5 80.5q0 57 -28.5 95t-90.5 38zM238 -14q-108 0 -167 58.5t-59 167.5q0 64 21 121.5t59.5 101.5t93 70t121.5 26q108 0 167 -56.5t59 -165.5
q0 -68 -20 -127t-58.5 -102.5t-93 -68.5t-123.5 -25zM396 721l-19 -108h-110l19 108h110zM199 793l12 65h285l-13 -65h-284z" />
    <glyph glyph-name="Ymacron" unicode="&#x232;" horiz-adv-x="630" 
d="M228 283l-176 431h131l123 -324l250 324h148l-353 -441l-56 -273h-125zM230 789l12 65h285l-13 -65h-284z" />
    <glyph glyph-name="ymacron" unicode="&#x233;" horiz-adv-x="500" 
d="M29 517h120l54 -378h2l195 378h122l-296 -533q-20 -37 -39 -71t-43.5 -60.5t-57.5 -42t-81 -15.5q-29 0 -69 8l21 95q11 -3 22 -5.5t22 -2.5q26 0 44.5 9.5t29.5 34.5l45 83zM156 604l12 65h285l-13 -65h-284z" />
    <glyph glyph-name="commaturnedmod" unicode="&#x2bb;" horiz-adv-x="278" 
d="M128 566q6 26 16 52t27.5 46.5t45 34t68.5 15.5l-12 -58q-40 -5 -56.5 -28.5t-24.5 -60.5h75l-28 -135h-139z" />
    <glyph glyph-name="afii57929" unicode="&#x2bc;" horiz-adv-x="278" 
d="M134 714h139l-28 -134q-6 -26 -16 -52t-27.5 -46.5t-45 -34t-68.5 -15.5l12 58q40 5 56.5 28.5t24.5 60.5h-75z" />
    <glyph glyph-name="uni02EE" unicode="&#x2ee;" horiz-adv-x="444" 
d="M121 714h139l-28 -134q-6 -26 -16 -52t-27.5 -46.5t-45 -34t-68.5 -15.5l12 58q40 5 56.5 28.5t24.5 60.5h-75zM318 714h139l-28 -134q-6 -26 -16 -52t-27.5 -46.5t-45 -34t-68.5 -15.5l12 58q40 5 56.5 28.5t24.5 60.5h-75z" />
    <glyph glyph-name="palochkacyrillic" unicode="&#x4cf;" horiz-adv-x="278" 
d="M153 714h125l-149 -714h-125z" />
    <glyph glyph-name="Aringbelow" unicode="&#x1e00;" horiz-adv-x="685" 
d="M368 714h132l124 -714h-127l-29 189h-284l-110 -189h-134zM411 588h-2l-172 -304h218zM222 -178q0 -26 17.5 -43.5t43.5 -17.5t43.5 17.5t17.5 43.5t-17.5 43.5t-43.5 17.5t-43.5 -17.5t-17.5 -43.5zM283 -281q-22 0 -41.5 8.5t-33.5 22.5t-22 32.5t-6 39.5q0 21 8 39.5
t22.5 33t33 22.5t39.5 8t39.5 -8t33 -22.5t22.5 -33t8 -39.5t-8 -39.5t-22.5 -32.5t-33 -22.5t-39.5 -8.5z" />
    <glyph glyph-name="aringbelow" unicode="&#x1e01;" 
d="M105 142q0 -19 8.5 -31.5t21.5 -20t29 -11t32 -3.5q42 0 70.5 14t47 38t29 56.5t16.5 69.5l-2 2q-12 -12 -32 -17t-39 -7q-24 -2 -55.5 -4t-59 -10.5t-47 -26t-19.5 -49.5zM448 150q-3 -14 -6.5 -27t-3.5 -24t5 -17t19 -6q10 0 20 2.5t20 3.5l-18 -82q-22 -5 -44 -9.5
t-45 -4.5q-29 0 -48 18t-21 48q-34 -34 -80 -50t-94 -16q-32 0 -61 9t-51.5 26t-35.5 43t-13 60q0 48 18 80.5t48 53.5t69 31t82 13q58 4 114 9q31 2 45.5 20.5t14.5 47.5q0 37 -26 49.5t-61 12.5q-48 0 -82.5 -16.5t-46.5 -64.5h-108q9 48 31 80.5t54 53t72.5 29t86.5 8.5
q70 0 109.5 -13.5t58 -32.5t22.5 -39.5t4 -34.5q0 -34 -10 -78zM186 -192q0 -26 17.5 -43.5t43.5 -17.5t43.5 17.5t17.5 43.5t-17.5 43.5t-43.5 17.5t-43.5 -17.5t-17.5 -43.5zM247 -295q-22 0 -41.5 8.5t-33.5 22.5t-22 32.5t-6 39.5q0 21 8 39.5t22.5 33t33 22.5t39.5 8
t39.5 -8t33 -22.5t22.5 -33t8 -39.5t-8 -39.5t-22.5 -32.5t-33 -22.5t-39.5 -8.5z" />
    <glyph glyph-name="Bdotaccent" unicode="&#x1e02;" horiz-adv-x="704" 
d="M147 102h179q16 0 45 1t59 10.5t53.5 32.5t27.5 67q1 13 -0.5 32t-14 37t-39 30.5t-74.5 12.5h-189zM212 415h187q46 0 74 12t43 29.5t20 37t5 33.5q0 11 -3 25.5t-14 28t-33 22.5t-60 9h-178zM149 714h308q71 0 112.5 -19t63 -45t27.5 -55t6 -48q0 -32 -9.5 -60.5
t-27.5 -51.5t-43.5 -38t-56.5 -20v-2q107 -34 107 -150q0 -28 -11 -66.5t-40.5 -74t-82 -60t-134.5 -24.5h-367zM473 886l-19 -108h-110l19 108h110z" />
    <glyph glyph-name="bdotaccent" unicode="&#x1e03;" horiz-adv-x="611" 
d="M136 714h114l-53 -256l2 -2q58 75 157 75q46 0 82.5 -16t61.5 -44.5t38 -67.5t13 -85q0 -61 -17 -120.5t-51 -106.5t-85 -76t-118 -29q-60 0 -102.5 22t-68.5 79h-2l-15 -87h-104zM316 441q-43 0 -75 -22t-53.5 -56.5t-32 -76t-10.5 -80.5q0 -60 29 -95t92 -35
q43 0 75 22t53.5 56t32 75.5t10.5 80.5q0 60 -29 95.5t-92 35.5zM278 899l-19 -108h-110l19 108h110z" />
    <glyph glyph-name="Bdotbelow" unicode="&#x1e04;" horiz-adv-x="704" 
d="M147 102h179q16 0 45 1t59 10.5t53.5 32.5t27.5 67q1 13 -0.5 32t-14 37t-39 30.5t-74.5 12.5h-189zM212 415h187q46 0 74 12t43 29.5t20 37t5 33.5q0 11 -3 25.5t-14 28t-33 22.5t-60 9h-178zM149 714h308q71 0 112.5 -19t63 -45t27.5 -55t6 -48q0 -32 -9.5 -60.5
t-27.5 -51.5t-43.5 -38t-56.5 -20v-2q107 -34 107 -150q0 -28 -11 -66.5t-40.5 -74t-82 -60t-134.5 -24.5h-367zM339 -77l-19 -108h-110l19 108h110z" />
    <glyph glyph-name="bdotbelow" unicode="&#x1e05;" horiz-adv-x="611" 
d="M136 714h114l-53 -256l2 -2q58 75 157 75q46 0 82.5 -16t61.5 -44.5t38 -67.5t13 -85q0 -61 -17 -120.5t-51 -106.5t-85 -76t-118 -29q-60 0 -102.5 22t-68.5 79h-2l-15 -87h-104zM316 441q-43 0 -75 -22t-53.5 -56.5t-32 -76t-10.5 -80.5q0 -60 29 -95t92 -35
q43 0 75 22t53.5 56t32 75.5t10.5 80.5q0 60 -29 95.5t-92 35.5zM311 -89l-19 -108h-110l19 108h110z" />
    <glyph glyph-name="Blinebelow" unicode="&#x1e06;" horiz-adv-x="704" 
d="M147 102h179q16 0 45 1t59 10.5t53.5 32.5t27.5 67q1 13 -0.5 32t-14 37t-39 30.5t-74.5 12.5h-189zM212 415h187q46 0 74 12t43 29.5t20 37t5 33.5q0 11 -3 25.5t-14 28t-33 22.5t-60 9h-178zM149 714h308q71 0 112.5 -19t63 -45t27.5 -55t6 -48q0 -32 -9.5 -60.5
t-27.5 -51.5t-43.5 -38t-56.5 -20v-2q107 -34 107 -150q0 -28 -11 -66.5t-40.5 -74t-82 -60t-134.5 -24.5h-367zM137 -161l12 65h285l-13 -65h-284z" />
    <glyph glyph-name="blinebelow" unicode="&#x1e07;" horiz-adv-x="611" 
d="M136 714h114l-53 -256l2 -2q58 75 157 75q46 0 82.5 -16t61.5 -44.5t38 -67.5t13 -85q0 -61 -17 -120.5t-51 -106.5t-85 -76t-118 -29q-60 0 -102.5 22t-68.5 79h-2l-15 -87h-104zM316 441q-43 0 -75 -22t-53.5 -56.5t-32 -76t-10.5 -80.5q0 -60 29 -95t92 -35
q43 0 75 22t53.5 56t32 75.5t10.5 80.5q0 60 -29 95.5t-92 35.5zM98 -161l12 65h285l-13 -65h-284z" />
    <glyph glyph-name="Ccedillaacute" unicode="&#x1e08;" horiz-adv-x="722" 
d="M192 -162q16 -8 32.5 -11.5t36.5 -5.5q8 -1 18 1t18.5 6.5t14.5 12t6 17.5q0 21 -14 30t-33 9q-9 0 -18.5 -2t-18.5 -5l-17 21l63 77q-18 3 -35 7.5t-33 11.5q-88 36 -134.5 112t-46.5 176q0 112 33.5 194.5t88 136t123 79.5t138.5 26q63 0 116 -17t90.5 -49t57.5 -80
t18 -109h-125q0 75 -41.5 114t-119.5 39q-64 0 -111.5 -29t-79 -76t-47.5 -106t-16 -119q0 -100 51 -157t145 -57q48 0 81 18.5t54.5 45t33 54.5t16.5 46h125q-15 -68 -45 -118t-71.5 -83t-92 -49t-105.5 -16h-12t-12 1l-42 -50l14 2q5 1 15 1q33 0 60 -17.5t27 -54.5
q0 -23 -11.5 -40t-29 -28t-39 -16t-40.5 -5q-28 0 -58.5 7t-47.5 16zM586 946l-118 -143h-84l77 143h125z" />
    <glyph glyph-name="ccedillaacute" unicode="&#x1e09;" 
d="M93 -162q16 -8 32.5 -11.5t36.5 -5.5q8 -1 18 1t18.5 6.5t14.5 12t6 17.5q0 21 -14 30t-33 9q-9 0 -18.5 -2t-18.5 -5l-17 21l63 78q-28 5 -49 13q-58 24 -89 77.5t-31 127.5q0 65 20 124t58 103.5t92.5 70.5t123.5 26q43 0 81 -12t66 -35t44 -58t15 -80h-114
q2 48 -26 71.5t-76 23.5q-43 0 -75 -22t-53 -56t-31.5 -74.5t-10.5 -77.5q0 -29 6 -53.5t19.5 -42.5t35.5 -28.5t54 -10.5q51 0 83.5 27t46.5 75h114q-28 -100 -95 -146q-66 -45 -162 -46l-45 -52l14 2q5 1 15 1q33 0 60 -17.5t27 -54.5q0 -23 -11.5 -40t-29 -28t-39 -16
t-40.5 -5q-28 0 -58.5 7t-47.5 16zM461 749l-118 -143h-84l77 143h125z" />
    <glyph glyph-name="Ddotaccent" unicode="&#x1e0a;" horiz-adv-x="722" 
d="M148 102h156q54 0 94.5 18.5t69.5 47t48.5 64.5t31 70.5t16 65t4.5 48.5q0 94 -41 145t-116 51h-156zM151 714h262q138 0 209 -74.5t71 -224.5q0 -32 -7 -71.5t-21 -80t-35 -78t-50 -65.5q-32 -31 -62 -53.5t-67 -37.5t-84.5 -22t-114.5 -7h-251zM465 899l-19 -108h-110
l19 108h110z" />
    <glyph glyph-name="ddotaccent" unicode="&#x1e0b;" horiz-adv-x="611" 
d="M468 0h-109l16 70l-2 2q-34 -50 -75 -68t-87 -18q-22 0 -56 6t-66.5 27.5t-55.5 63.5t-23 115q0 63 19 122.5t55 106.5t88 75.5t119 28.5q52 0 94 -19t62 -66h2l57 268h114zM419 317q0 25 -6.5 48t-20 39.5t-35.5 26.5t-52 10q-48 0 -82 -21.5t-56 -56.5t-32.5 -78.5
t-10.5 -86.5q0 -58 29 -90t89 -32q44 0 77 23t55.5 58.5t33.5 78t11 81.5zM444 902l-19 -108h-110l19 108h110z" />
    <glyph glyph-name="Ddotbelow" unicode="&#x1e0c;" horiz-adv-x="722" 
d="M148 102h156q54 0 94.5 18.5t69.5 47t48.5 64.5t31 70.5t16 65t4.5 48.5q0 94 -41 145t-116 51h-156zM151 714h262q138 0 209 -74.5t71 -224.5q0 -32 -7 -71.5t-21 -80t-35 -78t-50 -65.5q-32 -31 -62 -53.5t-67 -37.5t-84.5 -22t-114.5 -7h-251zM307 -77l-19 -108h-110
l19 108h110z" />
    <glyph glyph-name="ddotbelow" unicode="&#x1e0d;" horiz-adv-x="611" 
d="M468 0h-109l16 70l-2 2q-34 -50 -75 -68t-87 -18q-22 0 -56 6t-66.5 27.5t-55.5 63.5t-23 115q0 63 19 122.5t55 106.5t88 75.5t119 28.5q52 0 94 -19t62 -66h2l57 268h114zM419 317q0 25 -6.5 48t-20 39.5t-35.5 26.5t-52 10q-48 0 -82 -21.5t-56 -56.5t-32.5 -78.5
t-10.5 -86.5q0 -58 29 -90t89 -32q44 0 77 23t55.5 58.5t33.5 78t11 81.5zM323 -96l-19 -108h-110l19 108h110z" />
    <glyph glyph-name="Dlinebelow" unicode="&#x1e0e;" horiz-adv-x="722" 
d="M148 102h156q54 0 94.5 18.5t69.5 47t48.5 64.5t31 70.5t16 65t4.5 48.5q0 94 -41 145t-116 51h-156zM151 714h262q138 0 209 -74.5t71 -224.5q0 -32 -7 -71.5t-21 -80t-35 -78t-50 -65.5q-32 -31 -62 -53.5t-67 -37.5t-84.5 -22t-114.5 -7h-251zM121 -156l12 65h285
l-13 -65h-284z" />
    <glyph glyph-name="dlinebelow" unicode="&#x1e0f;" horiz-adv-x="611" 
d="M468 0h-109l16 70l-2 2q-34 -50 -75 -68t-87 -18q-22 0 -56 6t-66.5 27.5t-55.5 63.5t-23 115q0 63 19 122.5t55 106.5t88 75.5t119 28.5q52 0 94 -19t62 -66h2l57 268h114zM419 317q0 25 -6.5 48t-20 39.5t-35.5 26.5t-52 10q-48 0 -82 -21.5t-56 -56.5t-32.5 -78.5
t-10.5 -86.5q0 -58 29 -90t89 -32q44 0 77 23t55.5 58.5t33.5 78t11 81.5zM133 -161l12 65h285l-13 -65h-284z" />
    <glyph glyph-name="Dcommaaccent" horiz-adv-x="722" 
d="M148 102h156q54 0 94.5 18.5t69.5 47t48.5 64.5t31 70.5t16 65t4.5 48.5q0 94 -41 145t-116 51h-156zM151 714h262q138 0 209 -74.5t71 -224.5q0 -32 -7 -71.5t-21 -80t-35 -78t-50 -65.5q-32 -31 -62 -53.5t-67 -37.5t-84.5 -22t-114.5 -7h-251zM200 -84h140
q-12 -44 -20 -92t-25 -89t-49 -69t-91 -31l11 58q38 5 55.5 29t24.5 59h-76z" />
    <glyph glyph-name="dcommaaccent" horiz-adv-x="611" 
d="M468 0h-109l16 70l-2 2q-34 -50 -75 -68t-87 -18q-22 0 -56 6t-66.5 27.5t-55.5 63.5t-23 115q0 63 19 122.5t55 106.5t88 75.5t119 28.5q52 0 94 -19t62 -66h2l57 268h114zM419 317q0 25 -6.5 48t-20 39.5t-35.5 26.5t-52 10q-48 0 -82 -21.5t-56 -56.5t-32.5 -78.5
t-10.5 -86.5q0 -58 29 -90t89 -32q44 0 77 23t55.5 58.5t33.5 78t11 81.5zM193 -89h140q-12 -44 -20 -92t-25 -89t-49 -69t-91 -31l11 58q38 5 55.5 29t24.5 59h-76z" />
    <glyph glyph-name="Dcircumflexbelow" unicode="&#x1e12;" horiz-adv-x="722" 
d="M148 102h156q54 0 94.5 18.5t69.5 47t48.5 64.5t31 70.5t16 65t4.5 48.5q0 94 -41 145t-116 51h-156zM151 714h262q138 0 209 -74.5t71 -224.5q0 -32 -7 -71.5t-21 -80t-35 -78t-50 -65.5q-32 -31 -62 -53.5t-67 -37.5t-84.5 -22t-114.5 -7h-251zM66 -232l134 143h104
l78 -143h-86l-51 90l-87 -90h-92z" />
    <glyph glyph-name="dcircumflexbelow" unicode="&#x1e13;" horiz-adv-x="611" 
d="M468 0h-109l16 70l-2 2q-34 -50 -75 -68t-87 -18q-22 0 -56 6t-66.5 27.5t-55.5 63.5t-23 115q0 63 19 122.5t55 106.5t88 75.5t119 28.5q52 0 94 -19t62 -66h2l57 268h114zM419 317q0 25 -6.5 48t-20 39.5t-35.5 26.5t-52 10q-48 0 -82 -21.5t-56 -56.5t-32.5 -78.5
t-10.5 -86.5q0 -58 29 -90t89 -32q44 0 77 23t55.5 58.5t33.5 78t11 81.5zM111 -241l134 143h104l78 -143h-86l-51 90l-87 -90h-92z" />
    <glyph glyph-name="Emacrongrave" unicode="&#x1e14;" horiz-adv-x="630" 
d="M149 714h520l-22 -108h-397l-39 -187h368l-21 -102h-369l-43 -209h400l-22 -108h-523zM292 789l12 65h285l-13 -65h-284zM430 922l-118 143h125l77 -143h-84z" />
    <glyph glyph-name="emacrongrave" unicode="&#x1e15;" 
d="M402 304q1 5 1 8.5v7.5v16q0 46 -29 75.5t-80 29.5q-64 0 -102 -38.5t-55 -98.5h265zM485 160q-27 -91 -91 -132.5t-158 -41.5q-49 0 -90.5 15.5t-71.5 45t-47 71t-17 94.5q0 60 19 117t55.5 102t90 72.5t122.5 27.5t112 -23t67 -58t32.5 -77t8.5 -80q0 -19 -2 -35
t-4 -29h-385q-1 -5 -1.5 -9t-0.5 -8v-16q0 -54 28.5 -87t94.5 -33q46 0 79 21t45 63h114zM181 608l12 65h285l-13 -65h-284zM305 746l-118 143h125l77 -143h-84z" />
    <glyph glyph-name="Emacronacute" unicode="&#x1e16;" horiz-adv-x="630" 
d="M149 714h520l-22 -108h-397l-39 -187h368l-21 -102h-369l-43 -209h400l-22 -108h-523zM283 794l12 65h285l-13 -65h-284zM575 1067l-118 -143h-84l77 143h125z" />
    <glyph glyph-name="emacronacute" unicode="&#x1e17;" 
d="M402 304q1 5 1 8.5v7.5v16q0 46 -29 75.5t-80 29.5q-64 0 -102 -38.5t-55 -98.5h265zM485 160q-27 -91 -91 -132.5t-158 -41.5q-49 0 -90.5 15.5t-71.5 45t-47 71t-17 94.5q0 60 19 117t55.5 102t90 72.5t122.5 27.5t112 -23t67 -58t32.5 -77t8.5 -80q0 -19 -2 -35
t-4 -29h-385q-1 -5 -1.5 -9t-0.5 -8v-16q0 -54 28.5 -87t94.5 -33q46 0 79 21t45 63h114zM159 610l12 65h285l-13 -65h-284zM472 887l-118 -143h-84l77 143h125z" />
    <glyph glyph-name="Ecircumflexbelow" unicode="&#x1e18;" horiz-adv-x="630" 
d="M149 714h520l-22 -108h-397l-39 -187h368l-21 -102h-369l-43 -209h400l-22 -108h-523zM92 -218l134 143h104l78 -143h-86l-51 90l-87 -90h-92z" />
    <glyph glyph-name="ecircumflexbelow" unicode="&#x1e19;" 
d="M402 304q1 5 1 8.5v7.5v16q0 46 -29 75.5t-80 29.5q-64 0 -102 -38.5t-55 -98.5h265zM485 160q-27 -91 -91 -132.5t-158 -41.5q-49 0 -90.5 15.5t-71.5 45t-47 71t-17 94.5q0 60 19 117t55.5 102t90 72.5t122.5 27.5t112 -23t67 -58t32.5 -77t8.5 -80q0 -19 -2 -35
t-4 -29h-385q-1 -5 -1.5 -9t-0.5 -8v-16q0 -54 28.5 -87t94.5 -33q46 0 79 21t45 63h114zM41 -236l134 143h104l78 -143h-86l-51 90l-87 -90h-92z" />
    <glyph glyph-name="Etildebelow" unicode="&#x1e1a;" horiz-adv-x="630" 
d="M149 714h520l-22 -108h-397l-39 -187h368l-21 -102h-369l-43 -209h400l-22 -108h-523zM443 -79q-3 -19 -11 -40t-21.5 -38.5t-31.5 -29t-40 -11.5q-18 0 -38.5 7.5t-40.5 17t-37.5 17t-30.5 7.5q-16 0 -27.5 -16.5t-16.5 -29.5h-59q6 21 14 41.5t20.5 37t30 27t41.5 10.5
q23 0 42 -7t36 -16q18 -8 35 -16t34 -8q9 0 16 5t12.5 12.5t9 15.5t5.5 14h58z" />
    <glyph glyph-name="etildebelow" unicode="&#x1e1b;" 
d="M402 304q1 5 1 8.5v7.5v16q0 46 -29 75.5t-80 29.5q-64 0 -102 -38.5t-55 -98.5h265zM485 160q-27 -91 -91 -132.5t-158 -41.5q-49 0 -90.5 15.5t-71.5 45t-47 71t-17 94.5q0 60 19 117t55.5 102t90 72.5t122.5 27.5t112 -23t67 -58t32.5 -77t8.5 -80q0 -19 -2 -35
t-4 -29h-385q-1 -5 -1.5 -9t-0.5 -8v-16q0 -54 28.5 -87t94.5 -33q46 0 79 21t45 63h114zM404 -91q-3 -19 -11 -40t-21.5 -38.5t-31.5 -29t-40 -11.5q-18 0 -38.5 7.5t-40.5 17t-37.5 17t-30.5 7.5q-16 0 -27.5 -16.5t-16.5 -29.5h-59q6 21 14 41.5t20.5 37t30 27t41.5 10.5
q23 0 42 -7t36 -16q18 -8 35 -16t34 -8q9 0 16 5t12.5 12.5t9 15.5t5.5 14h58z" />
    <glyph glyph-name="Ecedillabreve" unicode="&#x1e1c;" horiz-adv-x="630" 
d="M149 714h520l-22 -108h-397l-39 -187h368l-21 -102h-369l-43 -209h400l-22 -108h-225l-57 -66l14 2t15 1q33 0 60 -17.5t27 -54.5q0 -23 -11.5 -40t-29 -28t-39 -16t-40.5 -5q-28 0 -58.5 7t-47.5 16l20 39q16 -8 32.5 -11.5t36.5 -5.5q8 -1 18 1t18.5 6.5t14.5 12
t6 17.5q0 21 -14 30t-33 9q-9 0 -18.5 -2t-18.5 -5l-17 21l73 89h-249zM329 928q2 -39 25.5 -57.5t65.5 -18.5t73 19t42 57h56q-13 -70 -59 -105.5t-115 -35.5q-33 0 -60 9t-46.5 27t-29.5 44t-8 61h56z" />
    <glyph glyph-name="ecedillabreve" unicode="&#x1e1d;" 
d="M113 -173q16 -8 32.5 -11.5t36.5 -5.5q8 -1 18 1t18.5 6.5t14.5 12t6 17.5q0 21 -14 30t-33 9q-9 0 -18.5 -2t-18.5 -5l-17 21l71 87q-44 4 -80.5 21.5t-63 46t-41 68.5t-14.5 89q0 60 19 117t55.5 102t90 72.5t122.5 27.5t112 -23t67 -58t32.5 -77t8.5 -80q0 -19 -2 -35
t-4 -29h-385q-1 -5 -1.5 -9t-0.5 -8v-16q0 -54 28.5 -87t94.5 -33q46 0 79 21t45 63h114q-26 -86 -84 -127t-143 -46l-55 -64l14 2t15 1q33 0 60 -17.5t27 -54.5q0 -23 -11.5 -40t-29 -28t-39 -16t-40.5 -5q-28 0 -58.5 7t-47.5 16zM402 304q1 5 1 8.5v7.5v16q0 46 -29 75.5
t-80 29.5q-64 0 -102 -38.5t-55 -98.5h265zM241 751q2 -39 25.5 -57.5t65.5 -18.5t73 19t42 57h56q-13 -70 -59 -105.5t-115 -35.5q-33 0 -60 9t-46.5 27t-29.5 44t-8 61h56z" />
    <glyph glyph-name="Fdotaccent" unicode="&#x1e1e;" horiz-adv-x="593" 
d="M150 714h487l-22 -108h-363l-39 -187h315l-22 -102h-314l-66 -317h-125zM468 895l-19 -108h-110l19 108h110z" />
    <glyph glyph-name="fdotaccent" unicode="&#x1e1f;" horiz-adv-x="315" 
d="M110 432h-85l17 85h85q9 45 19 81t29 62t51 40t84 14q23 0 44 -2.5t41 -4.5l-19 -87q-17 4 -44 4q-29 0 -44.5 -8t-24 -22.5t-12.5 -34t-10 -42.5h100l-17 -85h-100l-90 -432h-114zM360 904l-19 -108h-110l19 108h110z" />
    <glyph glyph-name="Gmacron" unicode="&#x1e20;" horiz-adv-x="759" 
d="M620 0h-80v75h-2q-19 -24 -42.5 -41t-49 -28.5t-51 -17t-47.5 -5.5q-77 0 -136 24t-99 66t-61 99t-21 123q0 112 33.5 194.5t88 136t123 79.5t138.5 26q63 0 117.5 -15t94.5 -45t63 -76t23 -109h-125q-4 73 -51 108t-126 35q-64 0 -111.5 -29t-79 -76t-47.5 -106
t-16 -119q0 -100 51 -157t145 -57q46 0 82 14.5t62.5 40.5t44.5 62t28 79h-196l20 95h307zM284 811l12 65h285l-13 -65h-284z" />
    <glyph glyph-name="gmacron" unicode="&#x1e21;" horiz-adv-x="593" 
d="M133 218q0 -26 6 -49.5t19 -41t33.5 -27.5t49.5 -10q46 0 78.5 21t53.5 54t30.5 74t9.5 80q0 57 -29 89.5t-86 32.5q-42 0 -73 -21.5t-51.5 -54.5t-30.5 -72.5t-10 -74.5zM462 14q-13 -59 -32.5 -101t-50 -68t-74 -38t-104.5 -12q-44 0 -83.5 9t-70 28.5t-49 51
t-19.5 76.5h114q2 -44 35.5 -62t82.5 -18q38 0 63 11t41.5 30t25.5 45.5t16 58.5l11 51l-2 2q-54 -78 -146 -78q-97 0 -149 56.5t-52 155.5q0 58 17.5 115.5t51 102.5t83.5 73t115 28q57 0 98 -23t62 -77h2l15 86h108zM187 606l12 65h285l-13 -65h-284z" />
    </font>
</defs>
</svg>
